osu file format v14

[General]
AudioFilename: audio.mp3
AudioLeadIn: 0
PreviewTime: 49262
Countdown: 0
SampleSet: Soft
StackLeniency: 0.7
Mode: 0
LetterboxInBreaks: 0
WidescreenStoryboard: 1

[Editor]
Bookmarks: 259,5311,9101,14153,16837,19206,21732,26785,31837,36890,44469,46837,48101,49364,53153,54574,63258,64679,74943,77311,80943,82364,85048,89469
DistanceSpacing: 0.9
BeatDivisor: 4
GridSize: 4
TimelineZoom: 1.5

[Metadata]
Title:Princess * Sisters!
TitleUnicode:プリンセス☆シスターズ!
Artist:solfa feat. Yumeno Yuki
ArtistUnicode:solfa feat. 夢乃ゆき
Creator:tomatas95
Version:Normal
Source:プリンセス☆シスターズ!~四姉妹は全員あなたの許嫁~
Tags:Princess ☆ Sisters! eroge galgame ~Yon Shimai wa Zen'in Anata no Iinazuke~ sugar visual novel vn opening japanese op video game jpop pop j-pop Hashizaki Tooru 橋咲透 Amagasaki Urara 天ヶ咲麗
BeatmapID:3442571
BeatmapSetID:1564270

[Difficulty]
HPDrainRate:3
CircleSize:3
OverallDifficulty:4
ApproachRate:5
SliderMultiplier:1.1
SliderTickRate:1

[Events]
//Background and Video events
0,0,"FloraKawaiiii.jpg",0,0
Video,50,"ILoveSistersAndPrincesses.mp4"
//Break Periods
2,19462,20588
//Storyboard Layer 0 (Background)
//Storyboard Layer 1 (Fail)
//Storyboard Layer 2 (Pass)
//Storyboard Layer 3 (Foreground)
//Storyboard Layer 4 (Overlay)
//Storyboard Sound Samples

[TimingPoints]
316,315.789473684211,4,2,1,50,1,0
316,-111.111111111111,4,2,1,50,0,0
2842,-111.111111111111,4,2,1,55,0,0
5368,-100,4,2,1,50,0,0
6000,-100,4,2,1,55,0,0
6631,-100,4,2,1,60,0,0
7263,-100,4,2,1,65,0,0
7894,-100,4,2,1,70,0,0
8526,-100,4,2,1,75,0,0
9158,315.789473684211,4,2,1,70,1,0
9315,-100,4,2,2,70,0,0
11368,-100,4,2,2,65,0,0
11526,-100,4,2,2,60,0,0
11684,-100,4,2,1,75,0,0
11842,-100,4,2,2,70,0,0
12789,-100,4,2,2,75,0,0
13894,-100,4,2,2,65,0,0
14210,-100,4,2,1,75,0,0
16421,-100,4,2,2,65,0,0
16579,-100,4,2,2,60,0,0
16894,-100,4,2,1,75,0,0
17052,-100,4,2,2,65,0,0
17368,-100,4,2,1,75,0,0
17526,-100,4,2,2,65,0,0
17842,-100,4,2,2,75,0,0
18158,-100,4,2,1,75,0,0
19263,-100,4,2,1,50,0,0
21789,315.789473684211,4,2,1,50,1,0
21789,-111.111111111111,4,2,1,70,0,0
21947,-111.111111111111,4,2,1,60,0,0
22263,-111.111111111111,4,2,1,30,0,0
22421,-111.111111111111,4,2,1,60,0,0
22894,-111.111111111111,4,2,1,65,0,0
24158,-111.111111111111,4,2,1,30,0,0
24315,-111.111111111111,4,2,1,60,0,0
24789,-111.111111111111,4,2,1,30,0,0
24947,-111.111111111111,4,2,1,60,0,0
25421,-111.111111111111,4,2,1,65,0,0
26842,-111.111111111111,4,2,2,70,0,0
27158,-111.111111111111,4,2,1,70,0,0
29368,-111.111111111111,4,2,1,60,0,0
31894,-100,4,2,1,70,0,0
32210,-100,4,2,2,70,0,0
32368,-100,4,2,1,70,0,0
32842,-100,4,2,2,70,0,0
33473,-100,4,2,3,70,0,0
33631,-100,4,2,2,70,0,0
34105,-100,4,2,3,70,0,0
34263,-100,4,2,2,70,0,0
34421,-100,4,2,3,70,0,0
34736,-100,4,2,2,70,0,0
35052,-100,4,2,3,70,0,0
35368,-100,4,2,2,70,0,0
35526,-100,4,2,3,70,0,0
36946,-111.111111111111,4,2,1,60,0,0
43421,-111.111111111111,4,2,1,65,0,0
43579,-111.111111111111,4,2,1,70,0,0
43736,-111.111111111111,4,2,1,75,0,0
43894,-111.111111111111,4,2,1,80,0,0
44052,-111.111111111111,4,2,1,85,0,0
44210,-111.111111111111,4,2,1,90,0,0
44526,-100,4,2,2,75,0,0
44684,-100,4,2,1,75,0,0
44842,-100,4,2,2,75,0,0
45000,-100,4,2,1,75,0,0
45158,-100,4,2,2,75,0,0
45631,-100,4,2,1,75,0,0
45789,-100,4,2,2,75,0,0
46421,-100,4,2,1,75,0,0
46579,-100,4,2,2,75,0,0
46894,-100,4,2,1,40,0,0
48158,-100,4,2,2,75,0,0
48473,-100,4,2,1,75,0,0
49420,-90.9090909090909,4,2,2,85,0,1
49578,315.789473684211,4,2,1,85,1,1
49735,-90.9090909090909,4,2,3,85,0,1
53209,-90.9090909090909,4,2,3,85,0,1
53367,-90.9090909090909,4,2,3,80,0,1
53525,-90.9090909090909,4,2,3,75,0,1
53841,-90.9090909090909,4,2,3,70,0,1
54157,-90.9090909090909,4,2,3,65,0,1
54314,-90.9090909090909,4,2,3,70,0,1
54472,-90.9090909090909,4,2,3,75,0,1
54630,-90.9090909090909,4,2,3,85,0,1
58578,-90.9090909090909,4,2,2,55,0,1
58735,-90.9090909090909,4,2,2,60,0,0
58893,-90.9090909090909,4,2,2,65,0,0
59051,-90.9090909090909,4,2,2,70,0,0
59209,-90.9090909090909,4,2,2,75,0,0
59367,-90.9090909090909,4,2,2,80,0,0
59525,-90.9090909090909,4,2,2,85,0,0
59683,-90.9090909090909,4,2,2,90,0,1
59841,-90.9090909090909,4,2,3,85,0,1
63314,-90.9090909090909,4,2,3,85,0,1
63472,-90.9090909090909,4,2,3,80,0,1
63630,-90.9090909090909,4,2,3,75,0,1
63946,-90.9090909090909,4,2,3,70,0,1
64262,-90.9090909090909,4,2,3,65,0,1
64419,-90.9090909090909,4,2,3,70,0,1
64577,-90.9090909090909,4,2,3,75,0,1
64735,-90.9090909090909,4,2,3,85,0,1
64893,-90.9090909090909,4,2,3,80,0,1
67262,-90.9090909090909,4,2,1,85,0,1
67420,-90.9090909090909,4,2,3,85,0,1
68367,-90.9090909090909,4,2,2,85,0,1
68683,-90.9090909090909,4,2,2,70,0,1
68841,-90.9090909090909,4,2,2,75,0,0
69788,-90.9090909090909,4,2,3,85,0,1
70104,-90.9090909090909,4,2,3,80,0,1
70262,-90.9090909090909,4,2,3,85,0,1
70420,-90.9090909090909,4,2,3,70,0,1
71051,-90.9090909090909,4,2,3,80,0,1
71525,-90.9090909090909,4,2,3,85,0,1
71683,-90.9090909090909,4,2,3,70,0,1
72314,-90.9090909090909,4,2,1,85,0,1
72472,-90.9090909090909,4,2,3,85,0,1
74999,-90.9090909090909,4,2,1,90,0,1
75157,-90.9090909090909,4,2,3,90,0,1
75472,-90.9090909090909,4,2,1,90,0,1
75630,-90.9090909090909,4,2,3,90,0,1
75946,-90.9090909090909,4,2,2,90,0,1
76262,-90.9090909090909,4,2,1,90,0,1
77367,315.789473684211,4,2,1,50,1,0
77367,-100,4,2,1,70,0,0
77524,-100,4,2,2,70,0,0
79577,-100,4,2,2,65,0,0
79735,-100,4,2,2,60,0,0
79893,-100,4,2,1,75,0,0
80051,-100,4,2,2,70,0,0
80999,-100,4,2,2,75,0,0
82103,-100,4,2,2,65,0,0
82420,-100,4,2,1,75,0,0
82577,-100,4,2,2,75,0,0
84630,-100,4,2,2,65,0,0
84788,-100,4,2,2,60,0,0
85104,-100,4,2,1,75,0,0
85261,-100,4,2,2,65,0,0
85577,-100,4,2,1,75,0,0
85735,-100,4,2,2,65,0,0
86051,-100,4,2,2,75,0,0
86367,-100,4,2,1,75,0,0
87472,-100,4,2,2,80,0,0
88893,-100,4,2,1,70,0,0
89367,-100,4,2,1,80,0,0
89525,-100,4,2,1,80,0,0
89683,-100,4,2,1,5,0,0

[Colours]
Combo1 : 248,129,150
Combo2 : 143,237,18
Combo3 : 240,149,251
Combo4 : 245,175,80

[HitObjects]
489,70,315,5,2,0:0:0:0:
411,26,631,2,0,P|399:68|423:128,1,98.9999969787599,2|2,0:0|0:0,0:0:0:0:
481,179,1262,1,2,0:0:0:0:
464,266,1579,2,0,P|491:262|523:274,2,49.4999984893799,2|2|2,0:0|0:0|0:0,0:0:0:0:
445,353,2209,1,2,0:0:0:0:
356,364,2525,1,2,0:0:0:0:
316,284,2841,5,2,0:0:0:0:
383,225,3157,2,0,L|372:107,1,98.9999969787599,2|2,0:0|0:0,0:0:0:0:
358,42,3788,1,2,0:0:0:0:
271,63,4105,2,0,P|271:36|258:3,2,49.4999984893799,2|2|2,0:0|0:0|0:0,0:0:0:0:
231,143,4736,1,2,0:0:0:0:
190,221,5051,1,2,0:0:0:0:
256,192,5367,12,0,7893,0:0:0:0:
12,75,9157,6,0,P|14:35|27:10,2,55,6|2|10,3:2|0:0|0:0,0:0:0:0:
29,132,9630,1,2,3:2:0:0:
29,132,9789,2,0,P|68:126|95:135,1,55,2|2,3:2|3:2,0:0:0:0:
135,122,10104,1,10,0:0:0:0:
135,122,10263,2,0,P|128:95|133:66,1,55,2|2,3:2|0:2,0:0:0:0:
218,20,10735,1,10,0:0:0:0:
263,108,11052,2,0,L|253:176,1,55,2|2,3:2|3:2,0:0:0:0:
246,211,11367,1,10,0:0:0:0:
193,314,11684,6,0,P|165:305|133:312,2,55,6|2|10,3:2|0:0|0:0,0:0:0:0:
247,341,12157,1,2,3:2:0:0:
247,341,12315,2,0,P|226:358|215:386,2,55,2|2|8,3:2|3:2|0:0,0:0:0:0:
300,327,12788,1,2,3:1:0:0:
403,365,13104,1,2,3:1:0:0:
479,285,13420,1,2,3:1:0:0:
461,181,13735,1,2,3:1:0:0:
461,181,13893,1,10,0:1:0:0:
455,71,14210,6,0,P|483:68|516:78,2,55,6|2|10,3:2|0:0|0:0,0:0:0:0:
407,54,14683,1,2,3:2:0:0:
407,54,14842,2,0,P|393:82|363:109,1,55,2|2,3:2|3:2,0:0:0:0:
337,128,15157,1,10,0:0:0:0:
337,128,15315,2,0,P|346:154|344:193,1,55,2|2,3:2|0:2,0:0:0:0:
249,200,15789,2,0,L|239:133,1,55,10|2,0:0|3:2,0:0:0:0:
198,119,16105,2,0,L|189:59,1,55,2|2,3:2|3:2,0:0:0:0:
163,29,16420,1,10,0:0:0:0:
163,29,16578,1,2,3:2:0:0:
64,19,16894,6,0,B|32:17|32:17|41:53|28:103,1,110,14|0,0:0|3:0,0:0:0:0:
25,143,17368,2,0,B|57:141|57:141|48:177|61:226,1,110,14|0,0:0|3:0,0:0:0:0:
29,259,17841,1,14,0:0:0:0:
12,377,18157,1,8,0:0:0:0:
12,377,18315,2,0,P|48:371|84:382,1,55,8|8,3:2|0:0,0:0:0:0:
120,383,18631,2,0,P|132:348|162:323,1,55,8|8,3:2|0:0,0:0:0:0:
179,292,18947,2,0,P|155:263|147:232,1,55,8|8,3:2|0:0,0:0:0:0:
165,193,19262,1,2,0:0:0:0:
458,28,21788,5,6,3:2:0:0:
458,28,21946,2,0,L|392:21,1,49.4999984893799,2|8,0:0|0:0,0:0:0:0:
389,123,22420,1,2,3:2:0:0:
389,123,22578,2,0,L|455:130,1,49.4999984893799,2|8,3:2|0:0,0:0:0:0:
487,130,22894,2,0,B|480:166|480:166|485:193|485:193|477:238,1,98.9999969787599,2|2,3:2|3:2,0:0:0:0:
489,270,23367,1,10,0:0:0:0:
486,372,23683,1,2,3:2:0:0:
486,372,23841,2,0,P|460:366|427:369,1,49.4999984893799,2|8,3:2|0:0,0:0:0:0:
341,377,24314,5,2,3:2:0:0:
341,377,24473,2,0,P|338:348|346:308,1,49.4999984893799,2|8,3:2|0:0,0:0:0:0:
256,288,24946,1,2,3:2:0:0:
256,288,25104,2,0,P|259:259|249:223,1,49.4999984893799,2|8,3:2|0:0,0:0:0:0:
215,208,25420,2,0,P|208:154|237:97,1,98.9999969787599,2|0,3:2|3:0,0:0:0:0:
267,90,25893,1,10,0:0:0:0:
201,15,26209,2,0,L|137:10,1,49.4999984893799,2|0,3:2|3:0,0:0:0:0:
110,39,26525,2,0,L|46:34,1,49.4999984893799,10|8,0:0|0:0,0:0:0:0:
16,58,26841,6,0,B|23:97|14:137|14:137|38:150,1,98.9999969787599,6|10,3:2|0:0,0:0:0:0:
124,178,27473,2,0,L|137:109,2,49.4999984893799,2|2|10,3:2|3:2|0:0,0:0:0:0:
125,231,27946,1,2,3:2:0:0:
125,231,28104,2,0,P|151:230|182:239,2,49.4999984893799,2|2|10,0:0|3:2|0:0,0:0:0:0:
77,244,28578,1,2,3:2:0:0:
8,314,28893,1,2,3:2:0:0:
8,314,29051,1,10,0:0:0:0:
93,363,29367,6,0,P|124:352|193:378,1,98.9999969787599,2|8,3:2|0:0,0:0:0:0:
234,379,29841,2,0,P|223:348|249:279,1,98.9999969787599,2|0,0:0|3:0,0:0:0:0:
265,242,30315,2,0,P|234:253|163:225,1,98.9999969787599,10|0,0:0|0:0,0:0:0:0:
135,201,30788,1,2,3:2:0:0:
40,209,31104,1,2,0:0:0:0:
40,209,31262,2,0,L|34:140,1,49.4999984893799,2|2,3:2|0:0,0:0:0:0:
57,114,31578,2,0,L|51:45,1,49.4999984893799,2|0,3:2|0:0,0:0:0:0:
66,11,31893,5,6,3:2:0:0:
174,31,32209,2,0,L|295:20,1,110,10|0,0:1|3:0,0:0:0:0:
335,53,32683,1,0,3:0:0:0:
335,53,32841,2,0,L|405:46,1,55,10|0,0:1|3:0,0:0:0:0:
449,47,33157,1,2,0:0:0:0:
449,47,33314,1,2,3:1:0:0:
511,137,33631,2,0,L|431:139,1,55,2|0,3:1|3:1,0:0:0:0:
428,186,33946,2,0,L|350:190,1,55,2|8,3:1|0:0,0:0:0:0:
355,242,34262,2,0,L|280:250,1,55,2|8,3:1|3:2,0:0:0:0:
198,204,34736,6,0,P|181:250|210:327,1,110,10|8,0:0|0:0,0:0:0:0:
249,352,35209,1,0,3:0:0:0:
249,352,35367,2,0,L|323:344,1,55,10|0,0:1|3:0,0:0:0:0:
363,350,35683,1,10,3:2:0:0:
363,350,35841,1,10,0:0:0:0:
472,363,36157,2,0,P|469:328|474:302,1,55,2|0,0:1|3:0,0:0:0:0:
499,260,36473,2,0,P|467:245|447:227,1,55,2|0,0:1|3:0,0:0:0:0:
450,181,36788,1,2,0:1:0:0:
450,181,36946,6,0,P|450:130|459:62,1,98.9999969787599,6|0,3:2|0:0,0:0:0:0:
389,21,37578,2,0,P|345:45|282:67,1,98.9999969787599,2|0,0:0|0:0,0:0:0:0:
289,150,38209,2,0,P|310:158|335:184,2,49.4999984893799,2|2|2,3:2|0:0|0:0,0:0:0:0:
247,173,38683,1,2,3:2:0:0:
247,173,38841,2,0,L|233:279,1,98.9999969787599,2|0,0:0|0:0,0:0:0:0:
231,368,39473,6,0,P|182:358|112:372,1,98.9999969787599,6|0,3:2|0:0,0:0:0:0:
35,357,40104,2,0,P|68:319|89:258,1,98.9999969787599,2|0,0:0|0:0,0:0:0:0:
47,183,40736,2,0,P|21:189|-15:178,2,49.4999984893799,2|2|2,3:2|0:0|0:0,0:0:0:0:
89,155,41209,1,2,3:2:0:0:
89,155,41367,2,0,P|130:142|199:170,1,98.9999969787599,2|0,0:0|0:0,0:0:0:0:
274,195,41999,6,0,L|285:77,1,98.9999969787599,6|0,3:2|0:0,0:0:0:0:
191,57,42630,2,0,L|180:175,1,98.9999969787599,2|0,0:0|0:0,0:0:0:0:
115,229,43262,2,0,P|91:223|59:231,1,49.4999984893799,10|10,3:2|0:0,0:0:0:0:
17,232,43578,2,0,L|11:165,1,49.4999984893799,10|10,3:2|0:0,0:0:0:0:
37,139,43894,2,0,L|30:70,1,49.4999984893799,10|8,3:2|0:0,0:0:0:0:
28,40,44209,1,10,3:2:0:0:
130,0,44525,5,2,3:1:0:0:
225,54,44841,1,2,3:1:0:0:
320,108,45157,2,0,L|331:41,1,55,10|8,0:1|0:1,0:0:0:0:
342,0,45472,1,10,0:1:0:0:
438,53,45788,2,0,L|446:-1,2,55,10|8|10,0:1|0:1|0:1,0:0:0:0:
430,107,46262,1,8,0:1:0:0:
320,108,46578,1,10,0:1:0:0:
10,360,48157,6,0,B|52:359|52:359|58:352|58:352|125:351,1,110,6|2,3:2|3:2,0:0:0:0:
172,358,48631,2,0,P|176:327|168:291,1,55,2|2,3:2|3:2,0:0:0:0:
143,256,48946,1,2,3:2:0:0:
292,188,49420,6,0,B|288:229|288:229|297:261|297:261|287:327,1,121.000003692627,6|2,3:2|3:2,0:0:0:0:
283,361,49893,2,0,P|338:344|408:376,1,121.000003692627,10|2,0:0|3:2,0:0:0:0:
449,371,50366,1,2,3:2:0:0:
471,264,50683,2,0,B|496:290|496:290|486:241|502:188,1,121.000003692627,2|2,3:2|3:2,0:0:0:0:
502,151,51156,2,0,L|377:158,1,121.000003692627,10|2,0:0|3:2,0:0:0:0:
327,157,51629,1,2,3:2:0:0:
332,48,51946,6,0,B|366:47|366:47|387:29|387:29|460:27,1,121.000003692627,2|2,3:2|3:2,0:0:0:0:
499,30,52419,2,0,P|502:92|501:158,1,121.000003692627,10|2,0:0|3:2,0:0:0:0:
494,206,52892,1,2,3:2:0:0:
397,257,53209,2,0,P|366:251|333:261,1,60.5000018463135,2|8,3:2|0:0,0:0:0:0:
303,298,53524,1,8,0:0:0:0:
303,298,53683,2,0,P|269:305|237:296,1,60.5000018463135,2|8,3:2|0:0,0:0:0:0:
193,297,53998,1,2,3:2:0:0:
193,297,54156,2,0,L|201:231,2,60.5000018463135,8|0|8,0:0|3:0|0:0,0:0:0:0:
170,346,54629,5,6,3:2:0:0:
66,379,54946,2,0,L|60:308,1,60.5000018463135,10|2,0:0|3:2,0:0:0:0:
26,276,55262,2,0,L|13:142,1,121.000003692627,2|10,0:0|0:0,0:0:0:0:
5,102,55734,1,2,3:2:0:0:
73,18,56050,1,2,3:2:0:0:
73,18,56209,2,0,P|110:23|146:13,1,60.5000018463135,10|2,0:0|0:0,0:0:0:0:
186,11,56525,2,0,P|200:45|226:71,1,60.5000018463135,2|0,3:2|3:0,0:0:0:0:
217,117,56841,2,0,P|194:146|184:182,1,60.5000018463135,10|8,0:0|0:0,0:0:0:0:
184,222,57156,5,6,3:2:0:0:
191,330,57472,2,0,L|259:322,1,60.5000018463135,10|2,0:0|3:2,0:0:0:0:
295,354,57788,2,0,L|433:337,1,121.000003692627,2|10,0:0|0:0,0:0:0:0:
458,373,58261,1,2,3:2:0:0:
510,279,58577,1,10,0:0:0:0:
510,279,58735,2,0,L|501:200,1,60.5000018463135,10|10,3:2|0:0,0:0:0:0:
454,193,59051,2,0,L|445:114,1,60.5000018463135,10|8,3:2|0:0,0:0:0:0:
495,106,59367,2,0,L|486:27,1,60.5000018463135,10|10,3:2|0:0,0:0:0:0:
450,6,59683,6,0,B|411:7|411:7|386:23|386:23|328:17,1,121.000003692627,6|10,3:2|0:0,0:0:0:0:
229,30,60313,1,2,3:2:0:0:
229,30,60472,2,0,L|235:97,1,60.5000018463135,2|8,3:2|0:0,0:0:0:0:
268,133,60788,2,0,L|255:269,1,121.000003692627,2|2,3:2|3:2,0:0:0:0:
258,308,61261,1,10,0:0:0:0:
184,384,61577,1,2,3:2:0:0:
184,384,61735,2,0,P|146:379|118:387,1,60.5000018463135,2|8,3:2|0:0,0:0:0:0:
70,381,62051,6,0,P|72:347|57:259,1,121.000003692627,2|2,3:2|3:2,0:0:0:0:
5,251,62524,1,10,0:0:0:0:
5,146,62840,1,2,3:2:0:0:
5,146,62998,2,0,P|8:116|5:76,1,60.5000018463135,2|10,3:2|0:0,0:0:0:0:
6,31,63314,2,0,P|44:36|92:23,1,60.5000018463135,2|8,3:2|0:0,0:0:0:0:
116,11,63629,1,8,0:0:0:0:
113,121,63945,1,8,0:0:0:0:
113,121,64104,2,0,L|180:113,1,60.5000018463135,0|10,3:0|0:0,0:0:0:0:
200,161,64420,2,0,L|267:153,1,60.5000018463135,10|8,3:2|0:0,0:0:0:0:
308,128,64734,5,6,3:2:0:0:
352,28,65051,2,0,P|386:32|416:20,1,60.5000018463135,10|0,0:0|3:0,0:0:0:0:
464,19,65367,2,0,P|477:51|503:71,1,60.5000018463135,2|0,0:0|3:0,0:0:0:0:
505,122,65683,2,0,P|483:149|479:182,1,60.5000018463135,10|0,0:0|3:0,0:0:0:0:
498,225,65998,1,2,0:0:0:0:
493,333,66314,2,0,P|463:328|418:341,1,60.5000018463135,10|0,0:0|3:0,0:0:0:0:
386,361,66630,2,0,P|375:332|341:300,1,60.5000018463135,2|0,0:0|3:0,0:0:0:0:
306,284,66946,2,0,P|324:260|336:215,1,60.5000018463135,10|8,0:0|0:0,0:0:0:0:
380,201,67262,6,0,B|374:168|374:168|376:138|376:138|361:75,1,121.000003692627,6|10,3:2|0:0,0:0:0:0:
281,17,67892,1,2,0:0:0:0:
281,17,68051,2,0,P|252:11|208:20,1,60.5000018463135,0|8,3:0|0:0,0:0:0:0:
183,53,68367,2,0,P|132:71|61:45,1,121.000003692627,6|8,3:2|0:0,0:0:0:0:
22,24,68840,1,8,3:2:0:0:
31,132,69156,2,0,L|25:210,1,60.5000018463135,8|8,3:2|0:0,0:0:0:0:
21,246,69471,1,8,3:2:0:0:
58,348,69788,6,0,B|27:343|27:343|-10:355,2,60.5000018463135,6|0|10,3:2|0:0|0:0,0:0:0:0:
112,352,70262,2,0,B|134:375|134:375|157:340|142:282,1,121.000003692627,2|2,3:2|3:2,0:0:0:0:
140,234,70734,1,10,0:0:0:0:
89,133,71051,2,0,P|55:138|19:125,2,60.5000018463135,2|2|8,3:2|0:0|0:0,0:0:0:0:
134,102,71525,2,0,P|166:88|251:113,1,121.000003692627,2|2,3:2|3:2,0:0:0:0:
280,150,71998,1,10,0:0:0:0:
361,221,72314,6,0,L|353:287,2,60.5000018463135,6|2|10,3:2|3:2|0:0,0:0:0:0:
398,180,72788,2,0,L|415:40,1,121.000003692627,6|2,3:2|3:2,0:0:0:0:
444,13,73261,1,8,0:0:0:0:
444,13,73419,1,0,3:0:0:0:
507,101,73734,1,0,3:2:0:0:
507,101,73893,2,0,L|499:167,1,60.5000018463135,10|2,0:0|3:2,0:0:0:0:
503,215,74209,2,0,L|495:281,1,60.5000018463135,10|8,0:2|0:0,0:0:0:0:
500,329,74524,1,8,0:0:0:0:
394,357,74840,5,0,3:0:0:0:
394,357,74998,2,0,B|380:305|397:268|397:268|368:225,1,121.000003692627,14|0,0:0|3:0,0:0:0:0:
333,214,75472,2,0,B|347:162|330:125|330:125|359:82,1,121.000003692627,14|0,0:0|3:0,0:0:0:0:
372,51,75945,1,6,3:2:0:0:
267,19,76261,1,2,3:2:0:0:
267,19,76420,2,0,L|203:25,1,60.5000018463135,2|2,3:2|3:2,0:0:0:0:
152,27,76734,1,2,3:2:0:0:
58,226,77367,6,0,P|25:220|-5:230,2,55,6|2|10,3:2|0:0|0:0,0:0:0:0:
116,238,77840,1,2,3:2:0:0:
116,238,77998,2,0,P|110:271|120:301,1,55,2|2,3:2|3:2,0:0:0:0:
81,327,78313,1,10,0:0:0:0:
81,327,78472,2,0,P|54:320|27:325,1,55,2|2,3:2|0:2,0:0:0:0:
4,225,78945,1,10,0:0:0:0:
45,131,79261,2,0,P|46:103|39:66,1,55,2|2,3:2|3:2,0:0:0:0:
29,22,79577,1,10,0:0:0:0:
132,58,79893,6,0,L|138:-4,2,55,6|2|10,3:2|0:0|0:0,0:0:0:0:
181,94,80366,1,2,3:2:0:0:
181,94,80524,2,0,L|237:68,2,55,2|2|8,3:2|3:2|0:0,0:0:0:0:
174,148,80998,1,2,3:1:0:0:
90,218,81313,1,2,3:1:0:0:
110,326,81629,1,2,3:1:0:0:
213,363,81945,1,2,3:1:0:0:
213,363,82103,1,10,0:1:0:0:
297,311,82419,6,0,L|303:368,2,55,6|2|10,3:2|0:0|0:0,0:0:0:0:
325,272,82892,1,2,3:2:0:0:
325,272,83051,2,0,L|319:215,1,55,2|2,3:2|3:2,0:0:0:0:
353,181,83366,1,10,0:0:0:0:
353,181,83524,2,0,L|347:126,1,55,2|2,3:2|0:2,0:0:0:0:
430,72,83998,2,0,P|454:91|486:101,1,55,10|2,0:0|3:2,0:0:0:0:
498,143,84314,2,0,P|493:173|501:207,1,55,2|2,3:2|3:2,0:0:0:0:
509,250,84629,1,10,0:0:0:0:
509,250,84787,1,2,3:2:0:0:
506,349,85103,6,0,B|457:326|457:326|379:349,1,110,14|0,0:0|3:0,0:0:0:0:
354,351,85577,2,0,B|305:374|305:374|227:351,1,110,14|0,0:0|3:0,0:0:0:0:
206,337,86050,1,14,0:0:0:0:
291,278,86366,1,8,0:0:0:0:
291,278,86524,2,0,P|288:240|295:218,1,55,8|8,3:2|0:0,0:0:0:0:
243,198,86840,2,0,P|245:160|238:138,1,55,8|8,3:2|0:0,0:0:0:0:
288,116,87156,2,0,P|285:78|292:56,1,55,8|8,3:2|0:0,0:0:0:0:
256,25,87471,5,10,3:2:0:0:
256,25,87629,1,10,3:2:0:0:
133,135,88103,1,10,3:2:0:0:
133,135,88261,1,10,3:2:0:0:
41,195,88577,6,0,B|36:232|36:232|43:257|43:257|33:313,1,110,6|0,3:2|3:0,0:0:0:0:
35,358,89051,2,0,P|69:352|105:363,1,55,0|0,3:0|3:0,0:0:0:0:
145,376,89366,1,8,3:2:0:0:
145,376,89523,1,8,3:2:0:0:
