osu file format v14

[General]
AudioFilename: audio.mp3
AudioLeadIn: 0
PreviewTime: 49262
Countdown: 0
SampleSet: Soft
StackLeniency: 0.7
Mode: 0
LetterboxInBreaks: 0
WidescreenStoryboard: 0

[Editor]
Bookmarks: 259,5311,9101,14153,19206,21732,26785,31837,36890,44469,46837,48101,49364,53153,54574,63258,64679,74943,77311,80943,82364,85048,89469
DistanceSpacing: 0.9
BeatDivisor: 4
GridSize: 4
TimelineZoom: 1.2

[Metadata]
Title:Princess * Sisters!
TitleUnicode:プリンセス☆シスターズ!
Artist:solfa feat. Yumeno Yuki
ArtistUnicode:solfa feat. 夢乃ゆき
Creator:tomatas95
Version:Easy
Source:プリンセス☆シスターズ!~四姉妹は全員あなたの許嫁~
Tags:Princess ☆ Sisters! eroge galgame ~Yon Shimai wa Zen'in Anata no Iinazuke~ sugar visual novel vn opening japanese op video game jpop pop j-pop Hashizaki Tooru 橋咲透 Amagasaki Urara 天ヶ咲麗
BeatmapID:3442574
BeatmapSetID:1564270

[Difficulty]
HPDrainRate:2
CircleSize:2.5
OverallDifficulty:2
ApproachRate:3
SliderMultiplier:1
SliderTickRate:1

[Events]
//Background and Video events
Video,50,"ILoveSistersAndPrincesses.mp4"
0,0,"Eimidesuuu.jpg",0,0
//Break Periods
2,19463,20349
//Storyboard Layer 0 (Background)
//Storyboard Layer 1 (Fail)
//Storyboard Layer 2 (Pass)
//Storyboard Layer 3 (Foreground)
//Storyboard Layer 4 (Overlay)
//Storyboard Sound Samples

[TimingPoints]
316,315.789473684211,4,2,1,50,1,0
316,-100,4,2,1,50,0,0
2842,-100,4,2,1,55,0,0
5368,-100,4,2,1,50,0,0
6000,-100,4,2,1,55,0,0
6631,-100,4,2,1,60,0,0
7263,-100,4,2,1,65,0,0
7894,-100,4,2,1,70,0,0
8526,-100,4,2,1,75,0,0
9158,315.789473684211,4,2,1,70,1,0
9315,-100,4,2,2,70,0,0
11368,-100,4,2,2,65,0,0
11526,-100,4,2,2,60,0,0
11684,-100,4,2,1,75,0,0
11842,-100,4,2,2,70,0,0
12789,-100,4,2,2,75,0,0
13894,-100,4,2,2,65,0,0
14210,-100,4,2,1,75,0,0
14368,-100,4,2,2,75,0,0
16421,-100,4,2,2,65,0,0
16579,-100,4,2,2,60,0,0
16894,-100,4,2,1,75,0,0
17052,-100,4,2,2,65,0,0
17368,-100,4,2,1,75,0,0
17526,-100,4,2,2,65,0,0
17842,-100,4,2,2,75,0,0
18158,-100,4,2,1,75,0,0
19263,-100,4,2,1,50,0,0
21789,315.789473684211,4,2,1,50,1,0
21789,-100,4,2,1,70,0,0
21947,-100,4,2,1,60,0,0
22263,-100,4,2,1,30,0,0
22421,-100,4,2,1,60,0,0
22894,-100,4,2,1,65,0,0
24158,-100,4,2,1,30,0,0
24315,-100,4,2,1,60,0,0
24789,-100,4,2,1,30,0,0
24947,-100,4,2,1,60,0,0
25421,-100,4,2,1,65,0,0
26842,-100,4,2,2,70,0,0
27158,-100,4,2,1,70,0,0
29368,-100,4,2,1,60,0,0
31894,-100,4,2,1,70,0,0
32210,-100,4,2,2,70,0,0
32368,-100,4,2,1,70,0,0
32842,-100,4,2,2,70,0,0
33473,-100,4,2,3,70,0,0
33631,-100,4,2,2,70,0,0
34105,-100,4,2,3,70,0,0
34263,-100,4,2,2,70,0,0
34421,-100,4,2,3,70,0,0
34736,-100,4,2,2,70,0,0
35052,-100,4,2,3,70,0,0
35368,-100,4,2,2,70,0,0
35526,-100,4,2,3,70,0,0
36947,-100,4,2,1,60,0,0
43421,-100,4,2,1,65,0,0
43579,-100,4,2,1,70,0,0
43736,-100,4,2,1,75,0,0
43894,-100,4,2,1,80,0,0
44052,-100,4,2,1,85,0,0
44210,-100,4,2,1,90,0,0
44526,-100,4,2,2,75,0,0
44684,-100,4,2,1,75,0,0
44842,-100,4,2,2,75,0,0
45000,-100,4,2,1,75,0,0
45158,-100,4,2,2,75,0,0
45631,-100,4,2,1,75,0,0
45789,-100,4,2,2,75,0,0
46421,-100,4,2,1,75,0,0
46579,-100,4,2,2,75,0,0
46894,-100,4,2,1,40,0,0
48158,-100,4,2,2,75,0,0
48473,-100,4,2,1,75,0,0
49420,-100,4,2,2,85,0,1
49578,315.789473684211,4,2,1,85,1,1
49734,-100,4,2,3,85,0,1
53209,-100,4,2,3,85,0,1
53367,-100,4,2,3,80,0,1
53525,-100,4,2,3,75,0,1
53841,-100,4,2,3,70,0,1
54157,-100,4,2,3,65,0,1
54314,-100,4,2,3,70,0,1
54472,-100,4,2,3,75,0,1
54630,-100,4,2,3,85,0,1
58578,-100,4,2,2,55,0,1
58735,-100,4,2,2,60,0,0
58893,-100,4,2,2,65,0,0
59051,-100,4,2,2,70,0,0
59209,-100,4,2,2,75,0,0
59367,-100,4,2,2,80,0,0
59525,-100,4,2,2,85,0,0
59683,-100,4,2,2,90,0,1
59841,-100,4,2,3,85,0,1
63314,-100,4,2,3,85,0,1
63472,-100,4,2,3,80,0,1
63630,-100,4,2,3,75,0,1
63946,-100,4,2,3,70,0,1
64262,-100,4,2,3,65,0,1
64419,-100,4,2,3,70,0,1
64577,-100,4,2,3,75,0,1
64735,-100,4,2,3,85,0,1
64893,-100,4,2,3,80,0,1
67262,-100,4,2,1,85,0,1
67420,-100,4,2,3,85,0,1
68367,-100,4,2,2,85,0,1
68683,-100,4,2,2,70,0,1
68841,-100,4,2,2,75,0,0
69788,-100,4,2,3,85,0,1
70104,-100,4,2,3,80,0,1
70262,-100,4,2,3,85,0,1
70420,-100,4,2,3,70,0,1
71051,-100,4,2,3,80,0,1
71525,-100,4,2,3,85,0,1
71683,-100,4,2,3,70,0,1
72314,-100,4,2,1,85,0,1
72472,-100,4,2,3,85,0,1
74999,-100,4,2,1,90,0,1
75157,-100,4,2,3,90,0,1
75472,-100,4,2,1,90,0,1
75630,-100,4,2,3,90,0,1
75946,-100,4,2,2,90,0,1
76262,-100,4,2,1,90,0,1
77367,315.789473684211,4,2,1,50,1,0
77367,-100,4,2,1,70,0,0
77524,-100,4,2,2,70,0,0
79577,-100,4,2,2,65,0,0
79735,-100,4,2,2,60,0,0
79893,-100,4,2,1,75,0,0
80051,-100,4,2,2,70,0,0
80999,-100,4,2,2,75,0,0
82103,-100,4,2,2,65,0,0
82420,-100,4,2,1,75,0,0
82577,-100,4,2,2,75,0,0
84630,-100,4,2,2,65,0,0
84788,-100,4,2,2,60,0,0
85104,-100,4,2,1,75,0,0
85261,-100,4,2,2,65,0,0
85577,-100,4,2,1,75,0,0
85735,-100,4,2,2,65,0,0
86051,-100,4,2,2,75,0,0
86367,-100,4,2,1,75,0,0
87472,-100,4,2,2,80,0,0
88893,-100,4,2,1,70,0,0
89367,-100,4,2,1,80,0,0
89525,-100,4,2,1,80,0,0
89683,-100,4,2,1,5,0,0

[Colours]
Combo1 : 248,129,150
Combo2 : 143,237,18
Combo3 : 240,149,251
Combo4 : 245,175,80

[HitObjects]
512,375,316,5,2,0:0:0:0:
436,326,631,2,0,P|392:341|323:317,2,100,2|2|2,0:0|0:0|0:0,0:0:0:0:
386,250,1579,2,0,L|396:133,1,100,2|2,0:0|0:0,0:0:0:0:
483,134,2210,2,0,L|493:17,1,100,2|2,0:0|0:0,0:0:0:0:
406,3,2842,5,2,0:0:0:0:
322,36,3158,2,0,P|275:22|213:47,2,100,2|2|2,0:0|0:0|0:0,0:0:0:0:
273,112,4105,2,0,P|268:163|272:231,1,100,2|2,0:0|0:0,0:0:0:0:
187,248,4737,2,0,P|191:299|188:367,1,100,2|2,0:0|0:0,0:0:0:0:
256,192,5368,12,0,7894,0:0:0:0:
29,19,9158,6,0,P|18:91|41:185,2,150,6|2|10,3:2|3:2|0:0,0:0:0:0:
116,41,10421,2,0,P|106:84|124:143,1,100,2|10,0:0|0:0,0:0:0:0:
193,84,11052,1,2,3:2:0:0:
257,147,11368,1,10,0:0:0:0:
237,234,11684,6,0,B|220:275|233:356|233:356|211:380|158:371,1,200,6|2,3:2|3:2,0:0:0:0:
26,365,12789,1,2,3:1:0:0:
21,281,13105,1,2,3:1:0:0:
16,197,13421,1,2,3:1:0:0:
11,113,13736,1,2,3:1:0:0:
129,47,14210,6,0,P|193:20|272:64,2,150,6|2|10,3:2|3:2|0:0,0:0:0:0:
195,107,15473,2,0,P|203:156|186:217,1,100,2|10,0:0|0:0,0:0:0:0:
126,267,16105,1,2,3:2:0:0:
154,352,16421,1,10,0:0:0:0:
287,332,16894,6,0,B|317:355|317:355|303:294|320:228,1,150,14|14,0:0|0:0,0:0:0:0:
416,152,17842,2,0,B|446:129|446:129|432:189|449:256,1,150,14|8,0:0|3:2,0:0:0:0:
511,301,18631,1,8,3:2:0:0:
452,369,18947,1,8,3:2:0:0:
372,326,19263,1,2,0:0:0:0:
511,58,21789,6,0,L|404:69,1,100,6|8,3:2|0:0,0:0:0:0:
357,140,22420,2,0,P|334:116|354:-4,2,150,2|2|10,3:2|3:2|0:0,0:0:0:0:
411,68,23683,1,2,3:2:0:0:
505,221,24315,6,0,L|521:331,1,100,2|8,3:2|0:0,0:0:0:0:
438,361,24946,2,0,L|416:209,2,150,2|2|10,3:2|3:2|0:0,0:0:0:0:
349,375,26209,1,2,3:2:0:0:
291,204,26841,6,0,P|285:151|306:85,1,100,6|10,3:2|0:0,0:0:0:0:
234,39,27473,2,0,P|191:70|126:82,1,100,2|10,3:2|0:0,0:0:0:0:
104,163,28104,2,0,P|174:189|217:263,1,150,2|2,0:0|3:2,0:0:0:0:
268,321,28893,1,2,3:2:0:0:
139,363,29367,6,0,B|55:381|83:312|-4:329,2,150,2|2|10,3:2|0:0|0:0,0:0:0:0:
273,369,30788,2,0,P|274:311|252:204,1,150,2|2,3:2|3:2,0:0:0:0:
194,156,31578,1,2,3:2:0:0:
265,101,31893,5,6,3:2:0:0:
338,152,32209,2,0,P|376:143|439:156,1,100,10|0,0:1|3:0,0:0:0:0:
498,218,32841,2,0,P|521:173|470:71,1,150,10|2,0:1|3:1,0:0:0:0:
417,30,33630,2,0,P|372:18|316:34,1,100,2|2,3:1|3:1,0:0:0:0:
265,101,34262,1,2,3:1:0:0:
133,129,34736,6,0,L|124:30,1,100,10|8,0:1|0:0,0:0:0:0:
33,24,35367,2,0,L|18:190,1,150,10|10,0:1|0:0,0:0:0:0:
10,263,36157,1,2,0:1:0:0:
3,353,36472,1,2,0:1:0:0:
138,357,36946,6,0,B|113:335|109:294|118:252|166:224|166:224|209:261,2,200,6|2|2,3:2|0:0|3:2,0:0:0:0:
225,378,38525,1,2,0:0:0:0:
308,343,38841,2,0,P|311:295|295:236,1,100,2|0,0:0|0:0,0:0:0:0:
245,172,39472,6,0,B|224:141|238:110|238:110|252:80|268:44|245:17|191:16|172:22,2,200,6|2|2,3:2|0:0|3:2,0:0:0:0:
298,244,41051,1,2,0:0:0:0:
352,173,41367,2,0,P|346:127|360:57,1,100,2|0,0:0|0:0,0:0:0:0:
435,35,41999,6,0,B|477:50|505:30|505:30|538:89|505:170,2,200,6|2|10,3:2|0:0|3:2,0:0:0:0:
354,75,43578,2,0,P|347:124|353:174,2,100,10|10|10,3:2|3:2|3:2,0:0:0:0:
435,35,44525,5,2,3:1:0:0:
511,82,44841,1,2,3:1:0:0:
484,168,45157,2,0,L|469:268,1,100,10|10,0:1|0:1,0:0:0:0:
484,355,45788,2,0,B|448:368|405:328|405:328|377:319|326:345,1,150,10|8,0:1|0:1,0:0:0:0:
259,366,46578,1,10,0:1:0:0:
254,41,48157,6,0,B|210:41|210:41|184:26|184:26|155:41|155:41|101:41,1,150,6|2,3:2|3:2,0:0:0:0:
25,18,48946,1,2,3:2:0:0:
35,153,49420,6,0,B|17:209|38:262|38:262|10:302,1,150,6|10,3:2|0:0,0:0:0:0:
48,376,50209,1,2,3:2:0:0:
182,360,50683,2,0,B|178:320|178:320|186:280|186:280|171:197,1,150,2|10,3:2|0:0,0:0:0:0:
153,124,51472,1,2,3:2:0:0:
273,62,51946,6,0,B|357:80|329:11|416:28,1,150,2|10,3:2|0:0,0:0:0:0:
501,18,52735,1,2,3:2:0:0:
483,151,53209,2,0,P|473:202|483:263,1,100,2|8,3:2|0:0,0:0:0:0:
501,336,53841,1,8,0:0:0:0:
416,366,54156,1,10,0:0:0:0:
329,262,54630,6,0,B|280:245|280:245|222:261,1,100,6|10,3:2|0:0,0:0:0:0:
174,326,55262,2,0,P|148:282|184:180,2,150,2|2|10,0:0|3:2|0:0,0:0:0:0:
98,374,56525,1,2,3:2:0:0:
26,319,56841,1,10,0:0:0:0:
48,231,57156,6,0,L|63:112,1,100,6|10,3:2|0:0,0:0:0:0:
142,94,57788,2,0,P|90:49|-3:73,2,150,2|2|10,0:0|3:2|3:2,0:0:0:0:
177,177,59051,1,10,3:2:0:0:
252,128,59367,1,10,3:2:0:0:
320,186,59683,6,0,L|432:177,1,100,6|10,3:2|0:0,0:0:0:0:
508,195,60314,1,2,3:2:0:0:
500,60,60788,2,0,B|459:69|431:39|431:39|401:68|346:53,1,150,2|10,3:2|0:0,0:0:0:0:
276,26,61578,1,2,3:2:0:0:
171,115,62051,6,0,B|161:164|161:164|172:208|172:208|160:269,1,150,2|10,3:2|0:0,0:0:0:0:
140,349,62841,1,2,3:2:0:0:
274,362,63314,2,0,B|322:350|322:350|381:367,1,100,2|8,3:2|0:0,0:0:0:0:
460,374,63946,1,8,0:0:0:0:
508,298,64262,1,10,0:0:0:0:
451,184,64735,6,0,P|449:131|465:74,1,100,6|10,3:2|0:0,0:0:0:0:
399,18,65367,2,0,P|354:46|296:60,1,100,2|10,0:0|0:0,0:0:0:0:
281,146,65999,2,0,P|327:170|369:213,1,100,2|10,0:0|0:0,0:0:0:0:
451,184,66630,1,2,0:0:0:0:
490,265,66946,1,10,0:0:0:0:
437,338,67262,6,0,B|385:323|385:323|323:339,1,100,6|10,3:2|0:0,0:0:0:0:
250,342,67893,2,0,P|262:274|206:200,2,150,2|6|8,0:0|3:2|3:2,0:0:0:0:
176,289,69155,1,8,3:2:0:0:
123,361,69472,1,8,3:2:0:0:
39,326,69788,6,0,B|19:357|19:357|-2:313|11:238,2,150,6|2|10,3:2|3:2|0:0,0:0:0:0:
99,259,71051,2,0,B|88:202|109:152|109:152|144:187,2,150,2|2|10,3:2|3:2|0:0,0:0:0:0:
170,313,72314,6,0,B|213:299|242:324|242:324|265:286|253:245,1,150,6|6,3:2|3:2,0:0:0:0:
230,166,73104,1,2,3:2:0:0:
270,85,73420,2,0,L|117:72,1,150,0|10,3:0|0:0,0:0:0:0:
54,14,74209,1,10,0:2:0:0:
6,89,74525,1,8,0:0:0:0:
57,215,74999,6,0,B|74:254|62:313|62:313|82:333|116:316,2,150,14|14|6,0:0|0:0|3:2,0:0:0:0:
6,89,76420,1,2,3:2:0:0:
54,14,76735,1,2,3:2:0:0:
233,26,77367,6,0,L|217:188,2,150,6|2|10,3:2|3:2|0:0,0:0:0:0:
322,18,78630,2,0,L|311:125,1,100,2|10,0:0|0:0,0:0:0:0:
298,206,79260,1,2,3:2:0:0:
284,295,79576,1,10,0:0:0:0:
354,350,79893,6,0,B|414:323|473:362|473:362|515:353|512:287,1,200,6|0,3:2|3:2,0:0:0:0:
492,171,80999,1,2,3:1:0:0:
422,114,81314,1,2,3:1:0:0:
498,67,81630,1,2,3:1:0:0:
427,11,81946,1,2,3:1:0:0:
292,21,82420,6,0,P|312:82|293:181,2,150,6|2|10,3:2|3:2|0:0,0:0:0:0:
207,50,83683,2,0,P|222:86|206:157,1,100,2|10,0:0|0:0,0:0:0:0:
134,101,84314,1,2,3:2:0:0:
62,46,84630,1,10,0:0:0:0:
37,178,85104,6,0,B|17:232|40:283|40:283|17:281|-4:301,1,150,14|14,0:0|0:0,0:0:0:0:
129,343,86051,2,0,B|149:289|126:238|126:238|149:240|170:220,1,150,14|8,0:0|3:2,0:0:0:0:
240,175,86841,1,8,3:2:0:0:
312,226,87157,1,8,3:2:0:0:
260,299,87472,2,0,P|263:334|259:360,1,50,10|10,3:2|3:2,0:0:0:0:
394,374,88104,2,0,P|391:339|395:313,1,50,10|10,3:2|3:2,0:0:0:0:
460,265,88578,6,0,B|491:286|491:286|472:230|496:167,1,150,6|0,3:2|3:0,0:0:0:0:
492,85,89367,2,0,L|486:26,1,50,8|8,3:2|3:2,0:0:0:0:
