osu file format v14

[General]
AudioFilename: audio.mp3
AudioLeadIn: 0
PreviewTime: 49262
Countdown: 0
SampleSet: Soft
StackLeniency: 0.7
Mode: 3
LetterboxInBreaks: 0
SpecialStyle: 0
WidescreenStoryboard: 1

[Editor]
Bookmarks: 45315
DistanceSpacing: 0.9
BeatDivisor: 4
GridSize: 4
TimelineZoom: 2.1

[Metadata]
Title:Princess * Sisters!
TitleUnicode:プリンセス☆シスターズ!
Artist:solfa feat. Yumeno Yuki
ArtistUnicode:solfa feat. 夢乃ゆき
Creator:Nabi-
Version:Normal
Source:プリンセス☆シスターズ!~四姉妹は全員あなたの許嫁~
Tags:Princess ☆ Sisters! eroge galgame ~Yon Shimai wa Zen'in Anata no Iinazuke~ sugar visual novel vn opening japanese op video game jpop pop j-pop Hashizaki Tooru 橋咲透 Amagasaki Urara 天ヶ咲麗 fa featured artist short cut ver version
BeatmapID:4238492
BeatmapSetID:2001969

[Difficulty]
HPDrainRate:7.2
CircleSize:4
OverallDifficulty:7.2
ApproachRate:5
SliderMultiplier:1.4
SliderTickRate:1

[Events]
//Background and Video events
0,0,"EimiWife.jpg",0,0
Video,50,"ILoveSistersAndPrincesses.mp4"
//Break Periods
//Storyboard Layer 0 (Background)
//Storyboard Layer 1 (Fail)
//Storyboard Layer 2 (Pass)
//Storyboard Layer 3 (Foreground)
//Storyboard Layer 4 (Overlay)
//Storyboard Sound Samples

[TimingPoints]
316,315.789473684211,4,2,1,40,1,0
49579,-100,4,2,1,40,0,1
77368,-100,4,2,1,40,0,0

[HitObjects]
64,192,316,5,0,0:0:0:0:
64,192,631,1,0,0:0:0:0:
320,192,737,1,0,0:0:0:0:
192,192,842,1,0,0:0:0:0:
448,192,947,1,0,0:0:0:0:
64,192,1263,1,0,0:0:0:0:
192,192,1579,1,0,0:0:0:0:
320,192,1737,1,0,0:0:0:0:
448,192,1894,1,0,0:0:0:0:
448,192,2210,1,0,0:0:0:0:
192,192,2526,1,0,0:0:0:0:
320,192,2842,1,0,0:0:0:0:
320,192,3158,1,0,0:0:0:0:
192,192,3263,1,0,0:0:0:0:
448,192,3368,1,0,0:0:0:0:
64,192,3473,1,0,0:0:0:0:
320,192,3789,1,0,0:0:0:0:
192,192,4105,1,0,0:0:0:0:
320,192,4263,1,0,0:0:0:0:
448,192,4421,1,0,0:0:0:0:
448,192,4737,1,0,0:0:0:0:
192,192,5052,1,0,0:0:0:0:
64,192,5368,128,0,6631:0:0:0:0:
320,192,6631,128,0,9158:0:0:0:0:
192,192,7894,1,0,0:0:0:0:
64,192,9158,1,0,0:0:0:0:
448,192,9158,1,0,0:0:0:0:
192,192,9473,1,0,0:0:0:0:
320,192,9473,1,0,0:0:0:0:
448,192,9631,1,0,0:0:0:0:
64,192,9789,1,0,0:0:0:0:
448,192,9947,1,0,0:0:0:0:
192,192,10105,1,0,0:0:0:0:
320,192,10105,1,0,0:0:0:0:
64,192,10263,1,0,0:0:0:0:
64,192,10579,1,0,0:0:0:0:
320,192,10737,1,0,0:0:0:0:
192,192,10737,1,0,0:0:0:0:
448,192,10894,1,0,0:0:0:0:
64,192,11052,1,0,0:0:0:0:
448,192,11210,1,0,0:0:0:0:
192,192,11368,1,0,0:0:0:0:
320,192,11368,1,0,0:0:0:0:
64,192,11526,1,0,0:0:0:0:
320,192,11684,1,0,0:0:0:0:
448,192,11684,1,0,0:0:0:0:
192,192,12000,1,0,0:0:0:0:
64,192,12000,1,0,0:0:0:0:
320,192,12158,1,0,0:0:0:0:
192,192,12316,1,0,0:0:0:0:
320,192,12473,1,0,0:0:0:0:
64,192,12631,1,0,0:0:0:0:
448,192,12631,1,0,0:0:0:0:
192,192,12789,128,0,12947:0:0:0:0:
320,192,12947,1,0,0:0:0:0:
192,192,13105,128,0,13263:0:0:0:0:
64,192,13263,1,0,0:0:0:0:
448,192,13263,1,0,0:0:0:0:
320,192,13421,128,0,13579:0:0:0:0:
192,192,13579,1,0,0:0:0:0:
320,192,13737,128,0,13894:0:0:0:0:
448,192,13894,1,0,0:0:0:0:
64,192,13894,1,0,0:0:0:0:
320,192,14052,1,0,0:0:0:0:
192,192,14210,1,0,0:0:0:0:
64,192,14210,1,0,0:0:0:0:
320,192,14526,1,0,0:0:0:0:
448,192,14526,1,0,0:0:0:0:
64,192,14684,1,0,0:0:0:0:
448,192,14842,1,0,0:0:0:0:
64,192,15000,1,0,0:0:0:0:
192,192,15158,1,0,0:0:0:0:
320,192,15158,1,0,0:0:0:0:
448,192,15316,1,0,0:0:0:0:
448,192,15631,1,0,0:0:0:0:
320,192,15789,1,0,0:0:0:0:
192,192,15789,1,0,0:0:0:0:
64,192,15947,1,0,0:0:0:0:
448,192,16105,1,0,0:0:0:0:
64,192,16263,1,0,0:0:0:0:
192,192,16421,1,0,0:0:0:0:
320,192,16421,1,0,0:0:0:0:
448,192,16579,1,0,0:0:0:0:
64,192,16737,1,0,0:0:0:0:
64,192,16894,1,0,0:0:0:0:
448,192,16894,1,0,0:0:0:0:
192,192,17052,1,0,0:0:0:0:
448,192,17210,1,0,0:0:0:0:
448,192,17368,1,0,0:0:0:0:
64,192,17368,1,0,0:0:0:0:
320,192,17526,1,0,0:0:0:0:
64,192,17684,1,0,0:0:0:0:
64,192,17842,1,0,0:0:0:0:
448,192,17842,1,0,0:0:0:0:
448,192,18000,1,0,0:0:0:0:
192,192,18158,1,0,0:0:0:0:
320,192,18316,1,0,0:0:0:0:
448,192,18316,1,0,0:0:0:0:
64,192,18473,1,0,0:0:0:0:
192,192,18631,1,0,0:0:0:0:
320,192,18631,1,0,0:0:0:0:
320,192,18789,1,0,0:0:0:0:
192,192,18947,1,0,0:0:0:0:
192,192,19105,1,0,0:0:0:0:
448,192,19263,128,0,19579:0:0:0:0:
64,192,19579,1,0,0:0:0:0:
448,192,19737,128,0,20052:0:0:0:0:
64,192,20052,1,0,0:0:0:0:
192,192,20210,128,0,20526:0:0:0:0:
320,192,20526,1,0,0:0:0:0:
192,192,20684,128,0,21000:0:0:0:0:
320,192,21000,1,0,0:0:0:0:
448,192,21158,1,0,0:0:0:0:
320,192,21316,1,0,0:0:0:0:
192,192,21473,1,0,0:0:0:0:
64,192,21631,1,0,0:0:0:0:
320,192,21789,1,0,0:0:0:0:
448,192,21789,1,0,0:0:0:0:
448,192,21947,1,0,0:0:0:0:
64,192,22105,1,0,0:0:0:0:
192,192,22105,1,0,0:0:0:0:
320,192,22421,1,0,0:0:0:0:
320,192,22579,1,0,0:0:0:0:
64,192,22737,1,0,0:0:0:0:
448,192,22737,1,0,0:0:0:0:
192,192,22894,128,0,23210:0:0:0:0:
320,192,23210,1,0,0:0:0:0:
64,192,23368,1,0,0:0:0:0:
448,192,23368,1,0,0:0:0:0:
192,192,23526,1,0,0:0:0:0:
320,192,23684,1,0,0:0:0:0:
320,192,23842,1,0,0:0:0:0:
64,192,24000,1,0,0:0:0:0:
448,192,24000,1,0,0:0:0:0:
192,192,24316,1,0,0:0:0:0:
192,192,24473,1,0,0:0:0:0:
320,192,24631,1,0,0:0:0:0:
448,192,24631,1,0,0:0:0:0:
64,192,24947,1,0,0:0:0:0:
64,192,25105,1,0,0:0:0:0:
192,192,25263,1,0,0:0:0:0:
320,192,25263,1,0,0:0:0:0:
448,192,25421,128,0,25737:0:0:0:0:
64,192,25737,1,0,0:0:0:0:
320,192,25894,1,0,0:0:0:0:
192,192,25894,1,0,0:0:0:0:
448,192,26052,1,0,0:0:0:0:
64,192,26210,1,0,0:0:0:0:
448,192,26368,1,0,0:0:0:0:
320,192,26526,1,0,0:0:0:0:
192,192,26526,1,0,0:0:0:0:
320,192,26684,1,0,0:0:0:0:
64,192,26842,1,0,0:0:0:0:
192,192,26842,1,0,0:0:0:0:
320,192,27158,1,0,0:0:0:0:
448,192,27158,1,0,0:0:0:0:
64,192,27473,1,0,0:0:0:0:
64,192,27631,1,0,0:0:0:0:
192,192,27789,1,0,0:0:0:0:
320,192,27789,1,0,0:0:0:0:
448,192,27947,1,0,0:0:0:0:
448,192,28263,1,0,0:0:0:0:
320,192,28421,1,0,0:0:0:0:
192,192,28421,1,0,0:0:0:0:
64,192,28579,1,0,0:0:0:0:
448,192,28737,1,0,0:0:0:0:
64,192,28894,1,0,0:0:0:0:
192,192,29052,1,0,0:0:0:0:
320,192,29052,1,0,0:0:0:0:
448,192,29368,128,0,29684:0:0:0:0:
64,192,29684,1,0,0:0:0:0:
192,192,29684,1,0,0:0:0:0:
320,192,29842,128,0,30000:0:0:0:0:
64,192,30000,1,0,0:0:0:0:
448,192,30158,1,0,0:0:0:0:
320,192,30316,1,0,0:0:0:0:
192,192,30316,128,0,30473:0:0:0:0:
64,192,30473,1,0,0:0:0:0:
448,192,30789,128,0,30947:0:0:0:0:
64,192,30947,1,0,0:0:0:0:
192,192,30947,1,0,0:0:0:0:
320,192,31105,128,0,31263:0:0:0:0:
64,192,31263,128,0,31421:0:0:0:0:
448,192,31421,128,0,31579:0:0:0:0:
192,192,31579,128,0,31737:0:0:0:0:
320,192,31737,1,0,0:0:0:0:
64,192,31894,1,0,0:0:0:0:
448,192,31894,128,0,32052:0:0:0:0:
320,192,32052,128,0,32210:0:0:0:0:
64,192,32210,1,0,0:0:0:0:
192,192,32210,128,0,32368:0:0:0:0:
320,192,32526,1,0,0:0:0:0:
320,192,32684,1,0,0:0:0:0:
448,192,32842,1,0,0:0:0:0:
64,192,32842,128,0,33000:0:0:0:0:
192,192,33000,1,0,0:0:0:0:
320,192,33158,128,0,33316:0:0:0:0:
192,192,33316,128,0,33473:0:0:0:0:
448,192,33473,1,0,0:0:0:0:
64,192,33473,1,0,0:0:0:0:
448,192,33631,128,0,33789:0:0:0:0:
192,192,33789,1,0,0:0:0:0:
192,192,33947,128,0,34105:0:0:0:0:
448,192,34105,1,0,0:0:0:0:
320,192,34105,1,0,0:0:0:0:
64,192,34263,128,0,34421:0:0:0:0:
192,192,34421,1,0,0:0:0:0:
320,192,34421,1,0,0:0:0:0:
448,192,34579,1,0,0:0:0:0:
192,192,34737,1,0,0:0:0:0:
64,192,34737,1,0,0:0:0:0:
448,192,34894,1,0,0:0:0:0:
192,192,35052,1,0,0:0:0:0:
320,192,35052,1,0,0:0:0:0:
64,192,35210,1,0,0:0:0:0:
448,192,35368,1,0,0:0:0:0:
320,192,35368,1,0,0:0:0:0:
64,192,35526,1,0,0:0:0:0:
192,192,35684,1,0,0:0:0:0:
320,192,35684,1,0,0:0:0:0:
320,192,35842,128,0,36000:0:0:0:0:
64,192,36000,1,0,0:0:0:0:
192,192,36000,1,0,0:0:0:0:
448,192,36158,1,0,0:0:0:0:
64,192,36316,1,0,0:0:0:0:
448,192,36316,1,0,0:0:0:0:
64,192,36473,128,0,36631:0:0:0:0:
448,192,36631,1,0,0:0:0:0:
320,192,36631,1,0,0:0:0:0:
192,192,36789,1,0,0:0:0:0:
192,192,36947,1,0,0:0:0:0:
320,192,36947,128,0,37263:0:0:0:0:
64,192,37263,1,0,0:0:0:0:
448,192,37263,1,0,0:0:0:0:
192,192,37421,128,0,37579:0:0:0:0:
320,192,37579,128,0,37737:0:0:0:0:
192,192,37737,1,0,0:0:0:0:
64,192,37894,1,0,0:0:0:0:
448,192,37894,1,0,0:0:0:0:
320,192,38052,1,0,0:0:0:0:
192,192,38210,1,0,0:0:0:0:
192,192,38368,1,0,0:0:0:0:
448,192,38526,1,0,0:0:0:0:
448,192,38684,1,0,0:0:0:0:
64,192,38842,128,0,39000:0:0:0:0:
448,192,39000,1,0,0:0:0:0:
192,192,39158,1,0,0:0:0:0:
320,192,39316,1,0,0:0:0:0:
320,192,39473,128,0,39789:0:0:0:0:
64,192,39473,1,0,0:0:0:0:
192,192,39789,1,0,0:0:0:0:
448,192,39789,1,0,0:0:0:0:
64,192,39947,128,0,40105:0:0:0:0:
448,192,40105,128,0,40263:0:0:0:0:
192,192,40263,1,0,0:0:0:0:
64,192,40421,1,0,0:0:0:0:
320,192,40421,1,0,0:0:0:0:
192,192,40579,1,0,0:0:0:0:
448,192,40737,1,0,0:0:0:0:
448,192,40894,1,0,0:0:0:0:
64,192,41052,1,0,0:0:0:0:
64,192,41210,1,0,0:0:0:0:
320,192,41368,1,0,0:0:0:0:
64,192,41526,1,0,0:0:0:0:
448,192,41684,1,0,0:0:0:0:
192,192,41842,1,0,0:0:0:0:
320,192,42000,1,0,0:0:0:0:
192,192,42000,128,0,42316:0:0:0:0:
448,192,42316,1,0,0:0:0:0:
64,192,42316,1,0,0:0:0:0:
320,192,42473,128,0,42631:0:0:0:0:
192,192,42631,128,0,42789:0:0:0:0:
320,192,42789,1,0,0:0:0:0:
448,192,42947,1,0,0:0:0:0:
64,192,42947,1,0,0:0:0:0:
192,192,43105,1,0,0:0:0:0:
320,192,43263,1,0,0:0:0:0:
448,192,43263,1,0,0:0:0:0:
320,192,43421,1,0,0:0:0:0:
64,192,43579,1,0,0:0:0:0:
192,192,43579,1,0,0:0:0:0:
64,192,43737,1,0,0:0:0:0:
320,192,43894,1,0,0:0:0:0:
448,192,43894,1,0,0:0:0:0:
320,192,44052,1,0,0:0:0:0:
64,192,44210,1,0,0:0:0:0:
192,192,44210,128,0,44526:0:0:0:0:
320,192,44526,1,0,0:0:0:0:
448,192,44526,1,0,0:0:0:0:
320,192,44842,1,0,0:0:0:0:
448,192,44842,1,0,0:0:0:0:
192,192,45158,1,0,0:0:0:0:
64,192,45158,1,0,0:0:0:0:
320,192,45316,1,0,0:0:0:0:
448,192,45316,1,0,0:0:0:0:
192,192,45473,1,0,0:0:0:0:
64,192,45473,1,0,0:0:0:0:
320,192,45789,1,0,0:0:0:0:
448,192,45789,1,0,0:0:0:0:
448,192,45947,1,0,0:0:0:0:
320,192,45947,1,0,0:0:0:0:
192,192,46105,1,0,0:0:0:0:
64,192,46105,1,0,0:0:0:0:
64,192,46263,1,0,0:0:0:0:
192,192,46263,1,0,0:0:0:0:
64,192,46579,128,0,46737:0:0:0:0:
448,192,46579,128,0,46737:0:0:0:0:
192,192,46894,1,0,0:0:0:0:
192,192,47210,1,0,0:0:0:0:
320,192,47368,1,0,0:0:0:0:
320,192,47526,1,0,0:0:0:0:
448,192,47684,1,0,0:0:0:0:
448,192,47842,1,0,0:0:0:0:
64,192,48000,1,0,0:0:0:0:
448,192,48158,1,0,0:0:0:0:
64,192,48158,128,0,48473:0:0:0:0:
192,192,48473,1,0,0:0:0:0:
320,192,48473,1,0,0:0:0:0:
64,192,48631,1,0,0:0:0:0:
448,192,48631,1,0,0:0:0:0:
320,192,48789,1,0,0:0:0:0:
192,192,48789,1,0,0:0:0:0:
64,192,48947,1,0,0:0:0:0:
448,192,48947,1,0,0:0:0:0:
192,192,49421,1,0,0:0:0:0:
64,192,49421,128,0,49579:0:0:0:0:
192,192,49737,1,0,0:0:0:0:
320,192,49894,1,0,0:0:0:0:
448,192,49894,1,0,0:0:0:0:
64,192,50210,1,0,0:0:0:0:
64,192,50368,1,0,0:0:0:0:
320,192,50526,1,0,0:0:0:0:
448,192,50526,1,0,0:0:0:0:
64,192,50684,1,0,0:0:0:0:
192,192,50684,128,0,50842:0:0:0:0:
64,192,51000,1,0,0:0:0:0:
192,192,51158,1,0,0:0:0:0:
320,192,51158,1,0,0:0:0:0:
448,192,51473,1,0,0:0:0:0:
448,192,51631,1,0,0:0:0:0:
64,192,51789,1,0,0:0:0:0:
192,192,51789,1,0,0:0:0:0:
320,192,51947,1,0,0:0:0:0:
448,192,51947,128,0,52105:0:0:0:0:
320,192,52263,1,0,0:0:0:0:
64,192,52421,1,0,0:0:0:0:
448,192,52421,1,0,0:0:0:0:
320,192,52737,1,0,0:0:0:0:
320,192,52894,1,0,0:0:0:0:
64,192,53052,1,0,0:0:0:0:
192,192,53052,1,0,0:0:0:0:
192,192,53210,128,0,53368:0:0:0:0:
448,192,53368,1,0,0:0:0:0:
320,192,53368,1,0,0:0:0:0:
448,192,53526,1,0,0:0:0:0:
192,192,53684,1,0,0:0:0:0:
192,192,53842,1,0,0:0:0:0:
320,192,54000,1,0,0:0:0:0:
320,192,54158,1,0,0:0:0:0:
64,192,54316,1,0,0:0:0:0:
64,192,54473,1,0,0:0:0:0:
320,192,54631,1,0,0:0:0:0:
448,192,54631,1,0,0:0:0:0:
192,192,54947,128,0,55105:0:0:0:0:
64,192,54947,1,0,0:0:0:0:
448,192,55105,1,0,0:0:0:0:
320,192,55105,1,0,0:0:0:0:
64,192,55263,128,0,55421:0:0:0:0:
448,192,55421,1,0,0:0:0:0:
192,192,55579,1,0,0:0:0:0:
320,192,55579,1,0,0:0:0:0:
320,192,55737,128,0,55894:0:0:0:0:
448,192,56052,1,0,0:0:0:0:
192,192,56210,1,0,0:0:0:0:
320,192,56210,1,0,0:0:0:0:
192,192,56368,1,0,0:0:0:0:
320,192,56526,128,0,56684:0:0:0:0:
64,192,56684,1,0,0:0:0:0:
64,192,56842,128,0,57000:0:0:0:0:
448,192,56842,1,0,0:0:0:0:
192,192,57000,1,0,0:0:0:0:
320,192,57158,1,0,0:0:0:0:
448,192,57158,1,0,0:0:0:0:
64,192,57473,1,0,0:0:0:0:
192,192,57473,128,0,57631:0:0:0:0:
320,192,57631,1,0,0:0:0:0:
64,192,57789,128,0,57947:0:0:0:0:
448,192,57947,1,0,0:0:0:0:
192,192,58105,1,0,0:0:0:0:
320,192,58105,1,0,0:0:0:0:
192,192,58263,128,0,58421:0:0:0:0:
448,192,58421,1,0,0:0:0:0:
64,192,58579,128,0,58737:0:0:0:0:
320,192,58737,1,0,0:0:0:0:
448,192,58894,128,0,59052:0:0:0:0:
192,192,59052,1,0,0:0:0:0:
192,192,59210,1,0,0:0:0:0:
320,192,59368,1,0,0:0:0:0:
320,192,59526,128,0,59684:0:0:0:0:
448,192,59684,1,0,0:0:0:0:
64,192,59684,1,0,0:0:0:0:
192,192,59842,1,0,0:0:0:0:
64,192,60000,128,0,60158:0:0:0:0:
448,192,60000,1,0,0:0:0:0:
192,192,60316,1,0,0:0:0:0:
192,192,60473,1,0,0:0:0:0:
320,192,60631,1,0,0:0:0:0:
448,192,60631,1,0,0:0:0:0:
64,192,60789,1,0,0:0:0:0:
192,192,60789,128,0,60947:0:0:0:0:
192,192,61105,1,0,0:0:0:0:
64,192,61263,1,0,0:0:0:0:
448,192,61263,1,0,0:0:0:0:
320,192,61579,1,0,0:0:0:0:
320,192,61737,1,0,0:0:0:0:
64,192,61894,1,0,0:0:0:0:
192,192,61894,1,0,0:0:0:0:
448,192,62052,1,0,0:0:0:0:
320,192,62052,128,0,62210:0:0:0:0:
320,192,62368,1,0,0:0:0:0:
64,192,62526,1,0,0:0:0:0:
448,192,62526,1,0,0:0:0:0:
192,192,62842,1,0,0:0:0:0:
192,192,63000,1,0,0:0:0:0:
448,192,63158,1,0,0:0:0:0:
64,192,63158,1,0,0:0:0:0:
448,192,63316,128,0,63473:0:0:0:0:
192,192,63473,1,0,0:0:0:0:
64,192,63473,1,0,0:0:0:0:
64,192,63631,1,0,0:0:0:0:
320,192,63789,1,0,0:0:0:0:
320,192,63947,1,0,0:0:0:0:
192,192,64105,1,0,0:0:0:0:
192,192,64263,1,0,0:0:0:0:
448,192,64421,1,0,0:0:0:0:
448,192,64579,1,0,0:0:0:0:
64,192,64737,1,0,0:0:0:0:
192,192,64737,1,0,0:0:0:0:
448,192,65052,1,0,0:0:0:0:
320,192,65052,128,0,65210:0:0:0:0:
64,192,65210,1,0,0:0:0:0:
192,192,65368,128,0,65526:0:0:0:0:
448,192,65526,1,0,0:0:0:0:
320,192,65684,1,0,0:0:0:0:
64,192,65684,128,0,65842:0:0:0:0:
192,192,65842,1,0,0:0:0:0:
320,192,66000,128,0,66158:0:0:0:0:
64,192,66158,1,0,0:0:0:0:
192,192,66316,1,0,0:0:0:0:
448,192,66316,128,0,66473:0:0:0:0:
320,192,66473,1,0,0:0:0:0:
192,192,66631,128,0,66789:0:0:0:0:
448,192,66789,1,0,0:0:0:0:
320,192,66947,1,0,0:0:0:0:
64,192,66947,1,0,0:0:0:0:
64,192,67105,128,0,67263:0:0:0:0:
448,192,67263,1,0,0:0:0:0:
192,192,67263,1,0,0:0:0:0:
320,192,67421,1,0,0:0:0:0:
192,192,67579,1,0,0:0:0:0:
320,192,67579,128,0,67737:0:0:0:0:
64,192,67737,1,0,0:0:0:0:
448,192,67894,128,0,68052:0:0:0:0:
64,192,68052,128,0,68210:0:0:0:0:
192,192,68210,1,0,0:0:0:0:
320,192,68210,1,0,0:0:0:0:
320,192,68368,128,0,68684:0:0:0:0:
64,192,68526,1,0,0:0:0:0:
192,192,68684,1,0,0:0:0:0:
320,192,68842,1,0,0:0:0:0:
448,192,68842,1,0,0:0:0:0:
64,192,69000,1,0,0:0:0:0:
320,192,69158,1,0,0:0:0:0:
192,192,69158,1,0,0:0:0:0:
448,192,69316,1,0,0:0:0:0:
64,192,69473,1,0,0:0:0:0:
192,192,69473,1,0,0:0:0:0:
320,192,69631,128,0,69789:0:0:0:0:
448,192,69789,1,0,0:0:0:0:
64,192,69789,128,0,69947:0:0:0:0:
320,192,69947,128,0,70105:0:0:0:0:
192,192,70105,1,0,0:0:0:0:
64,192,70105,128,0,70263:0:0:0:0:
448,192,70263,128,0,70421:0:0:0:0:
192,192,70421,128,0,70579:0:0:0:0:
320,192,70579,128,0,70737:0:0:0:0:
192,192,70737,128,0,70894:0:0:0:0:
448,192,70737,1,0,0:0:0:0:
64,192,70894,128,0,71052:0:0:0:0:
448,192,71052,128,0,71210:0:0:0:0:
64,192,71210,128,0,71368:0:0:0:0:
448,192,71368,128,0,71526:0:0:0:0:
320,192,71368,1,0,0:0:0:0:
192,192,71526,128,0,71684:0:0:0:0:
320,192,71684,128,0,71842:0:0:0:0:
64,192,71842,128,0,72000:0:0:0:0:
320,192,72000,128,0,72158:0:0:0:0:
448,192,72000,1,0,0:0:0:0:
192,192,72158,128,0,72316:0:0:0:0:
64,192,72316,1,0,0:0:0:0:
448,192,72316,1,0,0:0:0:0:
448,192,72473,1,0,0:0:0:0:
192,192,72631,1,0,0:0:0:0:
64,192,72631,1,0,0:0:0:0:
192,192,72789,128,0,72947:0:0:0:0:
448,192,72947,1,0,0:0:0:0:
320,192,73105,128,0,73263:0:0:0:0:
64,192,73263,1,0,0:0:0:0:
448,192,73263,1,0,0:0:0:0:
64,192,73421,128,0,73579:0:0:0:0:
320,192,73579,1,0,0:0:0:0:
448,192,73579,1,0,0:0:0:0:
192,192,73737,128,0,73894:0:0:0:0:
64,192,73894,1,0,0:0:0:0:
448,192,73894,1,0,0:0:0:0:
320,192,74052,1,0,0:0:0:0:
192,192,74210,128,0,74368:0:0:0:0:
448,192,74368,1,0,0:0:0:0:
320,192,74368,1,0,0:0:0:0:
64,192,74526,128,0,74684:0:0:0:0:
192,192,74684,1,0,0:0:0:0:
320,192,74684,1,0,0:0:0:0:
448,192,74842,1,0,0:0:0:0:
64,192,75000,1,0,0:0:0:0:
448,192,75000,1,0,0:0:0:0:
320,192,75158,1,0,0:0:0:0:
64,192,75316,1,0,0:0:0:0:
448,192,75473,1,0,0:0:0:0:
64,192,75473,1,0,0:0:0:0:
192,192,75789,1,0,0:0:0:0:
320,192,75947,1,0,0:0:0:0:
192,192,75947,1,0,0:0:0:0:
448,192,76263,1,0,0:0:0:0:
64,192,76263,1,0,0:0:0:0:
320,192,76421,1,0,0:0:0:0:
192,192,76421,1,0,0:0:0:0:
448,192,76579,1,0,0:0:0:0:
64,192,76579,1,0,0:0:0:0:
320,192,76737,1,0,0:0:0:0:
192,192,76737,1,0,0:0:0:0:
64,192,77368,1,0,0:0:0:0:
448,192,77368,1,0,0:0:0:0:
192,192,77684,1,0,0:0:0:0:
320,192,77684,1,0,0:0:0:0:
64,192,77842,1,0,0:0:0:0:
448,192,78000,1,0,0:0:0:0:
64,192,78158,1,0,0:0:0:0:
192,192,78316,1,0,0:0:0:0:
320,192,78316,1,0,0:0:0:0:
448,192,78473,1,0,0:0:0:0:
448,192,78789,1,0,0:0:0:0:
320,192,78947,1,0,0:0:0:0:
192,192,78947,1,0,0:0:0:0:
64,192,79105,1,0,0:0:0:0:
448,192,79263,1,0,0:0:0:0:
64,192,79421,1,0,0:0:0:0:
192,192,79579,1,0,0:0:0:0:
320,192,79579,1,0,0:0:0:0:
448,192,79737,1,0,0:0:0:0:
64,192,79894,1,0,0:0:0:0:
192,192,79894,1,0,0:0:0:0:
448,192,80210,1,0,0:0:0:0:
320,192,80210,1,0,0:0:0:0:
192,192,80368,1,0,0:0:0:0:
320,192,80526,1,0,0:0:0:0:
192,192,80684,1,0,0:0:0:0:
64,192,80842,1,0,0:0:0:0:
448,192,80842,1,0,0:0:0:0:
320,192,81000,128,0,81158:0:0:0:0:
192,192,81158,1,0,0:0:0:0:
320,192,81316,128,0,81473:0:0:0:0:
64,192,81473,1,0,0:0:0:0:
448,192,81473,1,0,0:0:0:0:
192,192,81631,128,0,81789:0:0:0:0:
320,192,81789,1,0,0:0:0:0:
192,192,81947,128,0,82105:0:0:0:0:
448,192,82105,1,0,0:0:0:0:
64,192,82105,1,0,0:0:0:0:
192,192,82263,1,0,0:0:0:0:
448,192,82421,1,0,0:0:0:0:
320,192,82421,1,0,0:0:0:0:
64,192,82737,1,0,0:0:0:0:
192,192,82737,1,0,0:0:0:0:
448,192,82894,1,0,0:0:0:0:
64,192,83052,1,0,0:0:0:0:
448,192,83210,1,0,0:0:0:0:
192,192,83368,1,0,0:0:0:0:
320,192,83368,1,0,0:0:0:0:
64,192,83526,1,0,0:0:0:0:
64,192,83842,1,0,0:0:0:0:
320,192,84000,1,0,0:0:0:0:
192,192,84000,1,0,0:0:0:0:
448,192,84158,1,0,0:0:0:0:
64,192,84316,1,0,0:0:0:0:
448,192,84473,1,0,0:0:0:0:
192,192,84631,1,0,0:0:0:0:
320,192,84631,1,0,0:0:0:0:
64,192,84789,1,0,0:0:0:0:
448,192,84947,1,0,0:0:0:0:
64,192,85105,1,0,0:0:0:0:
448,192,85105,1,0,0:0:0:0:
320,192,85263,1,0,0:0:0:0:
64,192,85421,1,0,0:0:0:0:
448,192,85579,1,0,0:0:0:0:
64,192,85579,1,0,0:0:0:0:
192,192,85737,1,0,0:0:0:0:
448,192,85894,1,0,0:0:0:0:
64,192,86052,1,0,0:0:0:0:
448,192,86052,1,0,0:0:0:0:
64,192,86210,1,0,0:0:0:0:
320,192,86368,1,0,0:0:0:0:
64,192,86526,1,0,0:0:0:0:
192,192,86526,1,0,0:0:0:0:
448,192,86684,1,0,0:0:0:0:
192,192,86842,1,0,0:0:0:0:
320,192,86842,1,0,0:0:0:0:
192,192,87000,1,0,0:0:0:0:
320,192,87158,1,0,0:0:0:0:
448,192,87158,1,0,0:0:0:0:
192,192,87473,1,0,0:0:0:0:
64,192,87473,1,0,0:0:0:0:
448,192,87631,1,0,0:0:0:0:
320,192,87631,1,0,0:0:0:0:
192,192,88105,1,0,0:0:0:0:
64,192,88105,1,0,0:0:0:0:
448,192,88263,1,0,0:0:0:0:
320,192,88263,1,0,0:0:0:0:
320,192,88579,1,0,0:0:0:0:
192,192,88579,1,0,0:0:0:0:
192,192,88894,1,0,0:0:0:0:
64,192,88894,1,0,0:0:0:0:
320,192,89052,1,0,0:0:0:0:
448,192,89052,1,0,0:0:0:0:
192,192,89210,1,0,0:0:0:0:
64,192,89368,1,0,0:0:0:0:
448,192,89368,1,0,0:0:0:0:
448,192,89526,1,0,0:0:0:0:
64,192,89526,1,0,0:0:0:0:
