osu file format v14

[General]
AudioFilename: audio.mp3
AudioLeadIn: 0
PreviewTime: 45825
Countdown: 0
SampleSet: Soft
StackLeniency: 0.5
Mode: 0
LetterboxInBreaks: 0
WidescreenStoryboard: 1

[Editor]
DistanceSpacing: 0.4
BeatDivisor: 4
GridSize: 4
TimelineZoom: 1

[Metadata]
Title:my sweet heart
TitleUnicode:my sweet heart
Artist:solfa feat. Shimotsuki Haruka
ArtistUnicode:solfa feat. 霜月はるか
Creator:Natsume Shizuku
Version:insane
Source:恋色マリアージュ
Tags:hyther yayoi takatsuki japanese j pop j-pop Koi Iro Marriage eroge vn galgame visual novel featured artist fa marmalade 天ヶ咲麗 Amagasaki Urara アマガサキウララ iyuna イユナ ハル haru op opening chronicle ~cat side~
BeatmapID:4292831
BeatmapSetID:2054648

[Difficulty]
HPDrainRate:5
CircleSize:4
OverallDifficulty:7.5
ApproachRate:9
SliderMultiplier:1.62
SliderTickRate:1

[Events]
//Background and Video events
0,0,"darling.jpg",0,0
//Break Periods
//Storyboard Layer 0 (Background)
//Storyboard Layer 1 (Fail)
//Storyboard Layer 2 (Pass)
//Storyboard Layer 3 (Foreground)
//Storyboard Layer 4 (Overlay)
//Storyboard Sound Samples

[TimingPoints]
496,329.67032967033,4,2,1,40,1,0
990,-153.846153846154,4,2,1,40,0,0
2309,-153.846153846154,4,2,1,40,0,0
3133,-181.818181818182,4,2,1,40,0,0
4452,-142.857142857143,4,2,1,40,0,0
5276,-142.857142857143,4,2,1,70,0,0
5441,-142.857142857143,4,2,1,70,0,0
5770,-111.111111111111,4,2,1,85,0,0
15001,-117.647058823529,4,2,1,85,0,0
15166,-117.647058823529,4,2,1,65,0,0
24067,-111.111111111111,4,2,1,65,0,0
25880,-125,4,2,1,65,0,0
33463,-111.111111111111,4,2,1,65,0,0
34616,-105.263157894737,4,2,1,65,0,0
36100,-142.857142857143,4,2,1,55,0,0
41375,-111.111111111111,4,2,1,55,0,0
46320,-111.111111111111,4,2,1,55,0,0
46649,-83.3333333333333,4,2,1,95,0,0
67913,-83.3333333333333,4,2,1,75,0,0
68078,-100,4,2,1,75,0,0
73023,-90.9090909090909,4,2,1,80,0,0
77144,-90.9090909090909,4,2,1,85,0,0
80276,-90.9090909090909,4,2,1,75,0,0
80935,-90.9090909090909,4,2,1,65,0,0
81594,-90.9090909090909,4,2,1,55,0,0
82254,-90.9090909090909,4,2,1,45,0,0
82913,-90.9090909090909,4,2,1,35,0,0
83572,-90.9090909090909,4,2,1,25,0,0
84232,-90.9090909090909,4,2,1,15,0,0
84891,-90.9090909090909,4,2,1,5,0,0

[Colours]
Combo1 : 241,137,173
Combo2 : 72,94,142
Combo3 : 221,203,212
Combo4 : 52,149,229

[HitObjects]
113,104,496,5,0,0:0:0:0:
113,104,990,2,0,P|190:121|267:138,1,157.949992769623,2|0,0:2|0:0,0:0:0:0:
451,343,1814,1,0,0:0:0:0:
451,343,2308,2,0,P|374:326|297:309,1,157.949992769623,2|0,0:2|0:0,0:0:0:0:
256,25,3133,6,0,L|273:122,1,89.1000027191163,0|0,0:0|0:0,0:0:0:0:
344,161,3627,2,0,L|354:111,1,44.5500013595581,2|0,0:2|0:0,0:0:0:0:
419,52,3957,1,0,0:0:0:0:
419,52,4122,2,0,L|469:62,1,44.5500013595581,0|0,0:0|0:0,0:0:0:0:
499,175,4452,6,0,P|514:236|494:287,2,113.399996539307,2|2|2,0:2|0:2|0:2,0:0:0:0:
344,161,5276,1,0,3:2:0:0:
414,227,5441,1,8,0:2:0:0:
414,227,5523,1,8,0:2:0:0:
414,227,5605,2,0,L|421:270,1,28.3499991348267,8|8,0:2|0:2,0:0:0:0:
289,349,5770,6,0,P|231:354|183:319,1,109.349996662903,6|0,3:2|0:0,0:0:0:0:
172,330,6100,2,0,L|155:250,1,72.8999977752686,10|0,3:2|0:0,0:0:0:0:
39,119,6430,1,2,3:2:0:0:
103,173,6594,2,0,L|183:156,1,72.8999977752686,2|8,3:2|0:2,0:0:0:0:
270,24,6924,6,0,P|251:67|307:148,1,145.799995550537,2|0,3:2|3:2,0:0:0:0:
469,107,7419,2,0,P|432:102|391:86,1,72.8999977752686,10|0,0:2|0:0,0:0:0:0:
391,245,7748,1,2,3:2:0:0:
391,245,7913,2,0,P|386:208|370:167,1,72.8999977752686,0|8,3:2|0:2,0:0:0:0:
373,174,8243,1,2,0:0:0:0:
272,274,8408,2,0,B|193:256|212:299|121:273,1,145.799995550537,0|10,3:2|0:2,0:0:0:0:
0,100,9067,5,2,3:2:0:0:
72,131,9232,1,2,3:2:0:0:
128,76,9397,1,8,0:2:0:0:
223,146,9561,6,0,P|280:133|381:110,1,145.799995550537,2|0,3:2|3:2,0:0:0:0:
501,190,10056,2,0,P|461:187|423:165,1,72.8999977752686,8|2,0:2|0:0,0:0:0:0:
432,172,10303,1,0,3:2:0:0:
432,172,10386,1,0,3:2:0:0:
357,237,10550,1,2,3:2:0:0:
442,370,10715,2,0,L|423:285,1,72.8999977752686,10|0,0:2|0:0,0:0:0:0:
240,272,11045,6,0,P|196:296|128:295,1,109.349996662903,6|0,3:2|0:0,0:0:0:0:
117,283,11375,2,0,P|127:242|132:199,1,72.8999977752686,10|0,0:2|0:0,0:0:0:0:
4,75,11704,1,2,3:2:0:0:
85,29,11869,2,0,P|95:70|100:113,1,72.8999977752686,2|8,3:2|0:2,0:0:0:0:
291,201,12199,6,0,B|365:183|350:234|447:208,1,145.799995550537,2|0,3:2|3:2,0:0:0:0:
393,18,12693,2,0,P|351:31|304:34,1,72.8999977752686,10|0,0:2|0:0,0:0:0:0:
184,107,13023,1,2,3:2:0:0:
184,107,13188,2,0,P|142:94|95:91,1,72.8999977752686,2|8,3:2|2:2,0:0:0:0:
113,90,13517,1,2,0:0:0:0:
25,252,13682,5,6,3:2:0:0:
113,228,13847,1,0,0:0:0:0:
201,204,14012,1,10,0:2:0:0:
201,204,14177,6,0,L|217:279,1,72.8999977752686,6|0,3:2|0:0,0:0:0:0:
298,383,14506,2,0,L|309:333,1,36.4499988876343,10|8,0:2|2:2,0:0:0:0:
400,173,14671,5,10,0:2:0:0:
404,190,14754,1,0,3:2:0:0:
409,207,14836,2,0,L|420:257,1,36.4499988876343,2|0,3:2|3:2,0:0:0:0:
495,287,15001,6,0,P|426:272|367:308,1,137.700002626419,6|10,3:2|0:2,0:0:0:0:
312,159,15660,5,2,0:2:0:0:
312,159,15825,2,0,L|292:78,1,68.8500013132096,2|8,3:2|0:2,0:0:0:0:
211,73,16155,2,0,P|176:70|135:50,1,68.8500013132096,2|0,3:2|0:0,0:0:0:0:
104,213,16485,2,0,P|124:184|161:158,1,68.8500013132096,2|8,3:2|0:2,0:0:0:0:
36,50,16814,2,0,P|50:81|54:127,1,68.8500013132096,2|0,0:2|3:2,0:0:0:0:
24,235,17144,2,0,P|86:251|165:270,1,137.700002626419,2|2,0:2|3:2,0:0:0:0:
261,370,17638,6,0,B|278:301|225:310|239:232,1,137.700002626419,2|10,3:2|0:2,0:0:0:0:
361,180,18133,2,0,P|411:226|482:219,2,137.700002626419,2|0|0,3:2|3:2|3:2,0:0:0:0:
185,115,19122,5,0,3:2:0:0:
274,58,19287,2,0,L|287:136,1,68.8500013132096,8|0,0:2|0:0,0:0:0:0:
361,180,19616,2,0,P|294:163|233:206,1,137.700002626419,0|8,3:2|0:2,0:0:0:0:
91,152,20111,1,2,3:2:0:0:
185,115,20276,6,0,P|195:169|212:257,1,137.700002626419,2|10,3:2|2:2,0:0:0:0:
154,368,20770,2,0,P|112:305|122:244,2,137.700002626419,2|0|0,3:2|3:2|3:2,0:0:0:0:
48,196,21759,5,0,3:2:0:0:
121,247,21924,2,0,L|195:225,1,68.8500013132096,8|0,0:2|0:0,0:0:0:0:
253,124,22254,2,0,P|190:132|122:76,1,137.700002626419,0|10,3:2|2:2,0:0:0:0:
130,92,22748,1,0,3:2:0:0:
273,36,22913,6,0,B|353:53|353:53|380:35|394:11,1,137.700002626419,2|8,0:2|0:2,0:0:0:0:
488,149,23408,2,0,P|415:136|362:177,1,137.700002626419,2|0,3:2|0:0,0:0:0:0:
366,170,23902,1,8,0:2:0:0:
328,338,24067,6,0,P|368:329|408:312,1,72.8999977752686,2|0,3:2|0:0,0:0:0:0:
156,259,24397,2,0,P|116:250|76:233,1,72.8999977752686,2|8,3:2|0:2,0:0:0:0:
247,383,24726,2,0,L|228:294,1,72.8999977752686,2|0,0:2|3:2,0:0:0:0:
266,81,25056,1,2,3:2:0:0:
393,208,25221,5,8,0:2:0:0:
375,205,25303,1,8,0:2:0:0:
356,202,25386,1,8,0:2:0:0:
338,199,25468,1,8,0:2:0:0:
319,198,25550,2,0,P|258:160|180:179,1,145.799995550537,6|10,3:2|0:2,0:0:0:0:
46,46,26210,5,2,0:2:0:0:
142,28,26375,2,0,P|132:71|126:117,1,64.8,2|8,3:2|0:2,0:0:0:0:
33,171,26704,2,0,B|25:239|72:227|58:300,1,129.6,2|0,3:2|3:2,0:0:0:0:
135,358,27199,2,0,L|208:343,1,64.8,10|0,0:2|0:0,0:0:0:0:
201,254,27528,2,0,L|274:269,1,64.8,0|0,3:2|0:0,0:0:0:0:
405,305,27858,2,0,P|404:342|420:378,1,64.8,10|0,0:2|3:2,0:0:0:0:
467,232,28188,6,0,P|446:173|474:94,1,129.6,2|8,3:2|0:2,0:0:0:0:
462,109,28682,1,0,3:2:0:0:
361,19,28847,2,0,P|368:61|375:96,1,64.8,2|0,0:2|3:2,0:0:0:0:
227,191,29177,1,10,0:2:0:0:
227,191,29506,6,0,P|163:198|112:163,1,129.6,2|8,0:2|0:2,0:0:0:0:
0,104,30001,2,0,L|73:90,1,64.8,0|0,0:0|3:2,0:0:0:0:
138,23,30331,1,0,0:0:0:0:
138,23,30496,2,0,L|211:37,1,64.8,10|0,0:2|3:2,0:0:0:0:
383,131,30825,6,0,P|319:125|264:170,1,129.6,6|10,3:2|0:2,0:0:0:0:
184,235,31320,2,0,L|173:164,1,64.8,2|0,3:2|0:0,0:0:0:0:
321,305,31649,2,0,L|332:234,1,64.8,2|8,3:2|0:2,0:0:0:0:
167,318,31979,6,0,B|89:307|110:349|32:334,1,129.6,2|0,3:2|3:2,0:0:0:0:
184,235,32474,2,0,L|247:248,1,64.8,10|0,0:2|0:0,0:0:0:0:
85,114,32803,2,0,L|98:177,1,64.8,2|0,3:2|0:0,0:0:0:0:
35,256,33133,1,10,0:2:0:0:
35,256,33298,1,0,3:2:0:0:
180,145,33463,6,0,P|254:132|308:179,1,145.799995550537,6|8,0:2|0:2,0:0:0:0:
477,182,33957,1,0,0:0:0:0:
477,182,34122,2,0,L|394:155,1,72.8999977752686,0|0,3:2|0:0,0:0:0:0:
238,311,34452,5,8,0:2:0:0:
328,350,34616,2,0,L|423:330,1,76.9499979452134,6|0,3:2|3:2,0:0:0:0:
318,254,34946,1,0,0:0:0:0:
318,254,35028,1,0,3:2:0:0:
318,254,35111,1,8,0:2:0:0:
133,320,35276,6,0,P|72:333|2:267,1,153.899995890427,8|8,2:2|2:2,0:0:0:0:
140,85,35770,5,8,2:2:0:0:
144,103,35852,1,8,0:2:0:0:
149,121,35935,1,0,3:2:0:0:
0,175,36100,6,0,L|111:201,2,113.399996539307,6|2|2,3:2|0:2|3:2,0:0:0:0:
47,104,36924,2,0,L|31:35,1,56.6999982696534,2|8,0:2|0:2,0:0:0:0:
149,121,37254,2,0,B|208:109|199:147|262:134,1,113.399996539307,2|0,0:2|0:0,0:0:0:0:
386,72,37748,2,0,L|371:193,1,113.399996539307,2|2,0:2|3:2,0:0:0:0:
423,305,38408,1,10,0:2:0:0:
423,305,38737,6,0,P|341:322|277:265,1,170.09999480896,2|0,3:2|3:2,0:0:0:0:
177,311,39397,2,0,L|189:377,1,56.6999982696534,2|0,3:2|0:0,0:0:0:0:
53,271,39726,2,0,L|65:337,1,56.6999982696534,10|0,0:2|3:2,0:0:0:0:
112,142,40056,2,0,P|82:81|99:22,1,113.399996539307,2|2,3:2|0:2,0:0:0:0:
272,89,40550,6,0,L|200:69,1,56.6999982696534,2|0,3:2|3:2,0:0:0:0:
222,193,40880,2,0,L|294:213,1,56.6999982696534,0|8,0:0|0:2,0:0:0:0:
276,208,41210,1,0,3:2:0:0:
491,137,41375,6,0,B|455:164|455:164|407:177|354:136,1,145.799995550537,6|8,3:2|0:2,0:0:0:0:
427,20,41869,1,2,3:2:0:0:
335,55,42034,2,0,P|343:96|351:137,1,72.8999977752686,2|0,3:2|0:0,0:0:0:0:
235,264,42364,2,0,P|227:223|219:182,1,72.8999977752686,8|0,0:2|0:0,0:0:0:0:
151,144,42693,1,0,3:2:0:0:
151,144,43023,6,0,B|110:136|110:136|69:179|6:164,1,145.799995550537,10|2,0:2|3:2,0:0:0:0:
112,40,43517,1,2,2:2:0:0:
81,199,43682,2,0,L|100:277,1,72.8999977752686,10|10,2:2|2:2,0:0:0:0:
87,295,43930,1,8,2:2:0:0:
87,295,44012,6,0,P|145:336|229:319,1,145.799995550537,6|8,3:2|2:2,0:0:0:0:
351,376,44506,2,0,L|333:289,1,72.8999977752686,0|0,3:2|3:2,0:0:0:0:
269,183,44836,1,0,0:0:0:0:
393,227,45001,1,8,2:2:0:0:
347,50,45166,6,0,L|191:77,2,145.799995550537,2|2|2,3:2|3:2|3:2,0:0:0:0:
462,158,45990,2,0,L|512:169,1,36.4499988876343,2|0,3:2|0:0,0:0:0:0:
106,39,46320,5,10,2:2:0:0:
110,67,46402,1,0,3:2:0:0:
114,95,46485,1,0,3:2:0:0:
119,123,46567,1,0,3:2:0:0:
124,151,46649,6,0,P|190:192|259:176,1,145.799995550537,6|0,3:2|0:0,0:0:0:0:
286,159,46979,2,0,P|274:221|266:271,1,97.1999970336915,10|0,2:2|0:0,0:0:0:0:
512,51,47309,1,10,2:2:0:0:
464,134,47474,2,0,P|416:135|366:108,1,97.1999970336915,2|8,3:2|2:2,0:0:0:0:
492,308,47803,1,2,3:2:0:0:
492,308,47886,1,0,3:2:0:0:
492,308,47968,1,8,2:2:0:0:
385,363,48133,2,0,P|377:315|367:267,1,97.1999970336915,2|8,3:2|2:2,0:0:0:0:
367,267,48463,1,2,3:2:0:0:
186,345,48627,6,0,L|81:318,1,97.1999970336915,8|2,2:2|3:2,0:0:0:0:
82,145,48957,1,8,2:2:0:0:
146,222,49122,1,2,3:2:0:0:
222,62,49287,6,0,B|257:51|257:51|309:86|362:64,1,145.799995550537,10|0,2:2|0:0,0:0:0:0:
379,43,49616,1,10,2:2:0:0:
482,112,49781,2,0,P|467:158|462:206,1,97.1999970336915,2|8,2:2|0:2,0:0:0:0:
314,325,50111,2,0,P|329:279|334:231,1,97.1999970336915,2|8,3:2|2:2,0:0:0:0:
110,128,50441,2,0,P|177:203|268:174,1,194.399994067383,2|2,3:2|3:2,0:0:0:0:
171,289,50935,2,0,P|120:305|61:315,1,97.1999970336915,10|0,2:2|3:2,0:0:0:0:
179,71,51265,5,10,2:2:0:0:
259,184,51430,1,2,3:2:0:0:
366,100,51594,1,10,2:2:0:0:
366,100,51759,2,0,L|352:38,1,48.5999985168458,2|0,3:2|0:0,0:0:0:0:
472,22,51924,6,0,B|450:96|450:96|456:138|487:168,1,145.799995550537,12|0,2:2|0:0,0:0:0:0:
486,179,52254,2,0,P|434:187|380:202,1,97.1999970336915,10|0,2:2|0:0,0:0:0:0:
93,241,52583,5,10,2:2:0:0:
235,330,52748,1,2,3:2:0:0:
315,177,52913,1,10,0:2:0:0:
315,177,53078,1,2,3:2:0:0:
186,214,53243,6,0,P|154:163|188:76,1,145.799995550537,8|0,2:2|0:0,0:0:0:0:
210,68,53572,2,0,P|259:87|311:90,1,97.1999970336915,10|0,2:2|3:2,0:0:0:0:
227,300,53902,6,0,B|191:314|191:314|141:278|82:299,1,145.799995550537,12|0,2:2|0:0,0:0:0:0:
62,284,54232,1,10,2:2:0:0:
186,214,54397,1,0,3:2:0:0:
31,138,54561,6,0,P|5:89|65:7,1,145.799995550537,6|0,3:2|0:0,0:0:0:0:
81,28,54891,2,0,P|128:43|188:49,1,97.1999970336915,10|0,2:2|0:0,0:0:0:0:
402,80,55221,5,2,3:2:0:0:
324,26,55386,1,0,0:0:0:0:
215,148,55550,1,10,2:2:0:0:
350,214,55715,1,2,3:2:0:0:
350,214,55880,1,8,2:2:0:0:
158,270,56045,6,0,L|178:380,1,97.1999970336915,6|0,3:2|0:0,0:0:0:0:
367,118,56375,2,0,L|347:228,1,97.1999970336915,6|8,3:2|2:2,0:0:0:0:
266,321,56704,6,0,L|256:269,1,48.5999985168458,2|0,3:2|0:0,0:0:0:0:
224,195,56869,1,8,2:2:0:0:
224,195,56952,1,8,2:2:0:0:
224,195,57034,2,0,L|214:147,1,48.5999985168458,8|8,2:2|2:2,0:0:0:0:
313,45,57199,6,0,B|366:40|405:71|405:71|420:50|451:39,1,145.799995550537,6|0,3:2|0:0,0:0:0:0:
472,52,57528,2,0,P|483:102|494:155,1,97.1999970336915,10|0,2:2|0:0,0:0:0:0:
305,251,57859,1,10,2:2:0:0:
396,311,58023,2,0,P|405:263|416:215,1,97.1999970336915,2|8,3:2|2:2,0:0:0:0:
171,126,58353,1,2,3:2:0:0:
171,126,58436,1,0,3:2:0:0:
171,126,58518,1,8,2:2:0:0:
213,227,58683,2,0,P|259:249|308:250,1,97.1999970336915,2|8,3:2|2:2,0:0:0:0:
304,250,59013,1,2,3:2:0:0:
131,365,59177,6,0,P|98:323|108:268,1,97.1999970336915,8|2,2:2|3:2,0:0:0:0:
49,119,59507,1,8,2:2:0:0:
131,194,59672,1,2,2:2:0:0:
228,20,59836,6,0,B|257:51|295:60|295:60|290:99|316:139,1,145.799995550537,10|0,2:2|0:0,0:0:0:0:
308,125,60166,1,10,2:2:0:0:
478,39,60331,2,0,P|443:70|389:78,1,97.1999970336915,2|8,2:2|0:2,0:0:0:0:
343,232,60660,2,0,P|356:286|376:339,1,97.1999970336915,2|8,3:2|2:2,0:0:0:0:
221,155,60990,2,0,B|157:131|106:164|106:164|82:127|34:113,1,194.399994067383,2|2,3:2|3:2,0:0:0:0:
312,15,61485,2,0,P|295:73|293:120,1,97.1999970336915,10|0,2:2|3:2,0:0:0:0:
170,287,61815,5,10,2:2:0:0:
221,155,61980,1,2,3:2:0:0:
170,287,62144,1,10,2:2:0:0:
262,290,62309,2,0,L|251:227,1,48.5999985168458,2|0,3:2|0:0,0:0:0:0:
88,333,62474,6,0,P|128:371|227:370,1,145.799995550537,12|0,2:2|0:0,0:0:0:0:
231,363,62803,2,0,P|287:381|338:385,1,97.1999970336915,10|0,2:2|0:0,0:0:0:0:
512,251,63133,5,10,2:2:0:0:
322,169,63298,1,2,3:2:0:0:
428,262,63463,1,10,0:2:0:0:
352,315,63627,1,2,3:2:0:0:
472,160,63792,6,0,P|447:92|468:13,1,145.799995550537,8|0,2:2|0:0,0:0:0:0:
442,42,64122,2,0,P|398:70|347:57,1,97.1999970336915,8|0,2:2|3:2,0:0:0:0:
74,148,64452,6,0,B|119:135|162:165|162:165|194:171|220:146,1,145.799995550537,12|0,2:2|0:0,0:0:0:0:
234,142,64782,1,10,2:2:0:0:
172,36,64947,1,0,3:2:0:0:
336,165,65111,6,0,P|326:234|314:319,1,145.799995550537,6|0,3:2|0:0,0:0:0:0:
318,335,65441,2,0,P|266:337|210:365,1,97.1999970336915,10|0,2:2|0:0,0:0:0:0:
0,224,65770,5,2,3:2:0:0:
83,186,65935,1,0,3:2:0:0:
124,316,66100,1,10,2:2:0:0:
41,350,66265,1,2,3:2:0:0:
224,354,66430,5,8,2:2:0:0:
0,224,66595,2,0,L|20:114,1,97.1999970336915,6|0,3:2|0:0,0:0:0:0:
349,231,66924,5,6,3:2:0:0:
150,103,67089,2,0,L|170:-7,1,97.1999970336915,8|2,2:2|3:2,0:0:0:0:
288,86,67419,1,8,2:2:0:0:
306,81,67501,1,8,2:2:0:0:
324,76,67583,2,0,L|381:90,1,48.5999985168458,8|8,2:2|2:2,0:0:0:0:
426,279,67748,6,0,P|354:265|290:319,1,145.799995550537,6|0,3:2|0:0,0:0:0:0:
304,322,68078,1,8,2:2:0:0:
214,210,68243,2,0,L|200:289,1,81,0|0,0:0|3:2,0:0:0:0:
71,336,68572,2,0,L|84:256,1,81,0|8,3:2|2:2,0:0:0:0:
25,136,68902,6,0,P|102:154|165:89,1,162,0|0,3:2|3:2,0:0:0:0:
292,229,69397,2,0,P|241:215|194:206,1,81,8|0,2:2|0:0,0:0:0:0:
214,210,69644,1,0,3:2:0:0:
214,210,69726,1,0,3:2:0:0:
244,305,69891,1,0,3:2:0:0:
365,160,70056,2,0,P|368:120|350:79,1,81,8|0,2:2|3:2,0:0:0:0:
409,242,70386,5,0,0:0:0:0:
409,242,70550,2,0,L|492:225,1,81,0|8,3:2|2:2,0:0:0:0:
350,376,70880,2,0,P|323:326|332:290,1,81,0|0,0:0|3:2,0:0:0:0:
195,324,71210,2,0,P|206:268|236:246,1,81,0|8,3:2|2:2,0:0:0:0:
294,165,71539,6,0,L|275:80,1,81,0|0,3:2|0:0,0:0:0:0:
276,85,71787,1,0,3:2:0:0:
276,85,71869,1,0,3:2:0:0:
205,30,72034,1,8,2:2:0:0:
148,108,72199,2,0,L|156:147,2,40.5,0|0|0,0:0|3:2|3:2,0:0:0:0:
117,230,72528,1,0,3:2:0:0:
155,147,72693,6,0,L|148:108,1,40.5,8|8,2:2|2:2,0:0:0:0:
44,128,72858,2,0,L|52:168,1,40.5,0|0,3:2|0:0,0:0:0:0:
221,253,73023,6,0,L|328:276,1,89.1000027191163,6|0,3:2|3:2,0:0:0:0:
438,127,73353,2,0,P|352:102|287:168,1,178.200005438233,8|0,2:2|3:2,0:0:0:0:
422,291,73847,1,0,3:2:0:0:
377,194,74012,1,8,2:2:0:0:
283,342,74177,2,0,B|235:326|187:363|187:363|141:368|109:326,1,178.200005438233,0|0,3:2|3:2,0:0:0:0:
50,195,74671,2,0,P|101:209|149:216,1,89.1000027191163,8|0,2:2|0:0,0:0:0:0:
306,201,75001,2,0,P|311:152|280:111,1,89.1000027191163,0|0,3:2|3:2,0:0:0:0:
112,86,75332,1,8,2:2:0:0:
112,86,75414,1,8,2:2:0:0:
112,86,75496,1,4,3:2:0:0:
211,47,75660,5,0,0:0:0:0:
211,47,75825,2,0,P|205:94|198:137,1,89.1000027191163,0|8,3:2|2:2,0:0:0:0:
239,259,76155,2,0,P|192:261|152:283,1,89.1000027191163,0|0,0:0|3:2,0:0:0:0:
336,183,76485,2,0,P|357:141|358:95,1,89.1000027191163,0|8,3:2|2:2,0:0:0:0:
353,305,76814,2,0,P|378:344|417:368,1,89.1000027191163,0|0,3:2|0:0,0:0:0:0:
155,280,77144,5,2,3:2:0:0:
246,373,77309,1,0,3:2:0:0:
192,188,77474,1,2,3:2:0:0:
36,357,77638,6,0,L|25:301,1,44.5500013595581,2|0,3:2|0:0,0:0:0:0:
99,152,77803,5,8,2:2:0:0:
95,169,77886,1,8,2:2:0:0:
93,186,77968,1,8,2:2:0:0:
90,203,78050,1,2,3:2:0:0:
87,220,78133,1,0,3:2:0:0:
256,192,79616,5,6,3:2:0:0:
256,192,79781,12,0,85880,0:0:0:0:
