osu file format v14

[General]
AudioFilename: audio.mp3
AudioLeadIn: 0
PreviewTime: 45672
Countdown: 0
SampleSet: Normal
StackLeniency: 0.4
Mode: 0
LetterboxInBreaks: 0
WidescreenStoryboard: 1

[Editor]
Bookmarks: 9672,18815,37101,46244,64529,73672,82815,91958,101101,110244,119387,128529
DistanceSpacing: 0.6
BeatDivisor: 4
GridSize: 32
TimelineZoom: 1.9

[Metadata]
Title:leap in your mind
TitleUnicode:leap in your mind
Artist:solfa feat. Shimotsuki Haruka
ArtistUnicode:solfa feat. 霜月はるか
Creator:strickluke
Version:Sliders
Source:仄暗き時の果てより
Tags:Honoguraki Toki no Hate Yori short version eroge visual novel opening iyuna moonstone sweet heart 結び音リボン Daichi no Oto
BeatmapID:1853546
BeatmapSetID:856454

[Difficulty]
HPDrainRate:7
CircleSize:3
OverallDifficulty:5
ApproachRate:9
SliderMultiplier:2.6
SliderTickRate:1

[Events]
//Background and Video events
//Break Periods
2,21014,81644
//Storyboard Layer 0 (Background)
//Storyboard Layer 1 (Fail)
//Storyboard Layer 2 (Pass)
//Storyboard Layer 3 (Foreground)
//Storyboard Sound Samples

[TimingPoints]
530,571.428571428571,4,1,0,60,1,0
13387,-1000,4,1,0,60,0,0
13958,-100,4,1,0,60,0,0
28244,-200,4,1,0,60,0,0
28244,-200,4,1,0,60,0,0
29958,-400,4,1,0,60,0,0
30101,-400,4,1,0,5,0,0
30244,-400,4,1,0,60,0,0
30387,-400,4,1,0,30,0,0
30529,-400,4,1,0,60,0,0
30672,-400,4,1,0,30,0,0
30815,-400,4,1,0,60,0,0
30958,-400,4,1,0,60,0,0
31101,-400,4,1,0,30,0,0
31244,-400,4,1,0,60,0,0
31387,-400,4,1,0,30,0,0
31529,-400,4,1,0,60,0,0
31672,-400,4,1,0,30,0,0
31815,-400,4,1,0,60,0,0
31958,-200,4,1,0,60,0,0
39101,-200,4,1,0,60,0,0
39244,-200,4,1,0,30,0,0
39387,-200,4,1,0,60,0,0
39529,-200,4,1,0,30,0,0
39672,-200,4,1,0,60,0,0
39815,-200,4,1,0,30,0,0
39958,-200,4,1,0,60,0,0
40101,-200,4,1,0,60,0,0
40244,-200,4,1,0,30,0,0
40387,-200,4,1,0,60,0,0
46244,-200,4,1,0,60,0,0
47958,-1000,4,2,0,60,0,0
48529,-200,4,1,0,60,0,0
49529,-200,4,2,0,60,0,0
50244,-200,4,1,0,60,0,0
52529,-400,4,1,0,60,0,0
53101,-200,4,1,0,60,0,0
57101,-400,4,2,0,60,0,0
57672,-200,4,1,0,60,0,0
63101,-200,4,2,0,60,0,0
63672,-200,4,1,0,60,0,0
67958,-400,4,1,0,60,0,0
69101,-200,4,2,0,60,0,0
69387,-200,4,1,0,60,0,0
80529,-270.27027027027,4,1,0,60,0,0
82244,-100,4,1,0,60,0,0
82815,-66.6666666666667,4,1,0,60,0,1
100529,-100,4,2,0,60,0,1
101101,-100,4,1,0,60,0,1
119101,-100,4,2,0,60,0,1
119387,-200,4,2,0,60,0,0
122529,-200,4,2,0,60,0,0
128529,-200,4,1,0,60,0,0
133101,-200,4,1,0,5,0,0

[HitObjects]
148,134,530,6,0,L|131:34,1,65
373,66,2529,6,0,L|363:131,1,65
346,213,2815,2,0,L|336:278,1,65
363,131,5101,6,0,L|373:66,1,65
138,66,7101,6,0,L|149:131,1,65
165,213,7387,2,0,L|176:278,1,65
256,96,9387,6,0,L|256:32,1,65
256,191,9672,6,0,P|352:223|416:191,1,130
483,59,10244,2,0,L|469:215,1,130
446,311,10672,2,0,L|300:334,1,130
223,345,11101,2,0,L|234:281,1,65
137,289,11387,2,0,L|101:98,1,195
26,17,11958,6,0,P|-6:113|26:177,1,130
105,232,12530,2,0,L|234:243,1,130
435,299,12958,2,0,L|289:322,1,130
363,227,13387,6,0,L|366:211,1,13
285,111,13958,6,0,L|298:188,1,65
419,34,14244,2,0,L|261:81,1,130
142,81,14815,2,0,P|218:118|241:169,1,130
261,299,15244,2,0,L|102:321,2,130
423,271,15958,2,0,P|363:290|427:292,1,130
494,203,16529,6,0,B|478:135|478:135|489:64,1,130
375,186,17101,2,0,P|311:198|227:199,1,130
145,143,17529,2,0,L|172:287,2,130
69,94,18244,2,0,L|51:32,1,65
213,3,18529,2,0,L|203:68,1,65
242,148,18815,6,0,P|363:159|428:149,1,130
504,87,19387,2,0,L|340:168,1,130
298,272,19815,2,0,P|370:276|417:316,2,130
192,334,20529,2,0,B|118:348|118:348|136:255,1,130
67,50,82244,6,0,P|122:114|138:255,1,195
11,274,82815,6,0,L|284:292,1,195.00000743866
463,384,83387,2,0,L|343:330,2,97.50000371933
326,250,83815,2,0,P|417:199|503:236,2,195.00000743866
361,122,84529,2,0,L|163:173,1,195.00000743866
38,277,85101,6,0,B|83:163|83:163|299:106,1,292.50001115799
452,178,85672,2,0,P|329:247|257:244,1,195.00000743866
13,140,86244,2,0,L|34:255,1,97.50000371933
169,94,86529,2,0,L|202:-5,1,97.50000371933
274,247,86815,2,0,P|320:333|487:331,1,195.00000743866
426,335,87387,6,0,P|279:310|129:364,1,292.50001115799
266,348,87958,2,0,L|281:242,1,97.50000371933
173,160,88244,2,0,L|129:50,1,97.50000371933
30,356,88672,6,0,P|43:260|64:165,1,195.00000743866
273,153,89101,2,0,P|279:251|265:347,1,195.00000743866
165,111,89672,6,0,P|234:51|378:178,1,292.50001115799
264,271,90244,6,0,P|148:199|187:68,1,292.50001115799
375,88,90815,6,0,P|370:225|238:256,1,292.50001115799
61,274,91387,6,0,L|372:300,1,292.50001115799
475,279,91958,6,0,P|444:324|248:282,1,195.00000743866
141,143,92529,2,0,L|155:267,2,97.50000371933
46,37,92958,2,0,L|17:252,2,195.00000743866
145,174,93672,2,0,P|222:114|354:129,1,195.00000743866
484,325,94244,6,0,L|282:349,1,195.00000743866
0,158,94815,2,0,L|111:206,2,97.50000371933
169,163,95244,2,0,P|226:243|329:232,1,195.00000743866
419,80,95672,2,0,L|451:299,2,195.00000743866
222,348,96529,6,0,P|234:222|438:44,1,390.00001487732
355,210,97244,2,0,L|321:108,2,97.50000371933
294,72,97815,6,0,L|311:284,1,195.00000743866
68,148,98244,2,0,L|46:358,1,195.00000743866
83,50,98815,6,0,L|188:39,1,97.50000371933
331,123,99101,2,0,L|181:133,1,97.50000371933
341,36,99387,2,0,B|470:65|544:48|544:48,1,195.00000743866
337,140,99815,2,0,B|314:189|319:247|319:247|417:274,1,195.00000743866
499,371,100244,2,0,L|384:380,1,97.50000371933
212,344,100529,6,0,P|275:300|202:233,1,195
109,319,101101,6,0,L|91:217,1,65
