osu file format v14

[General]
AudioFilename: audio.mp3
AudioLeadIn: 0
PreviewTime: 45672
Countdown: 0
SampleSet: Normal
StackLeniency: 0.4
Mode: 0
LetterboxInBreaks: 0
WidescreenStoryboard: 1

[Editor]
Bookmarks: 9672,18815,37101,46244,64529,73672,82815,91958,101101,110244,119387,128529
DistanceSpacing: 1
BeatDivisor: 4
GridSize: 32
TimelineZoom: 1.9

[Metadata]
Title:leap in your mind
TitleUnicode:leap in your mind
Artist:solfa feat. Shimotsuki Haruka
ArtistUnicode:solfa feat. 霜月はるか
Creator:strickluke
Version:Circles
Source:仄暗き時の果てより
Tags:Honoguraki Toki no Hate Yori short version eroge visual novel opening iyuna moonstone sweet heart 結び音リボン Daichi no Oto
BeatmapID:1875925
BeatmapSetID:856454

[Difficulty]
HPDrainRate:7
CircleSize:3
OverallDifficulty:5
ApproachRate:9
SliderMultiplier:2.6
SliderTickRate:1

[Events]
//Background and Video events
//Break Periods
2,13872,45644
//Storyboard Layer 0 (Background)
//Storyboard Layer 1 (Fail)
//Storyboard Layer 2 (Pass)
//Storyboard Layer 3 (Foreground)
//Storyboard Sound Samples

[TimingPoints]
530,571.428571428571,4,1,0,60,1,0
13387,-1000,4,1,0,60,0,0
13958,-100,4,1,0,60,0,0
28244,-200,4,1,0,60,0,0
28244,-200,4,1,0,60,0,0
29958,-400,4,1,0,60,0,0
30101,-400,4,1,0,5,0,0
30244,-400,4,1,0,60,0,0
30387,-400,4,1,0,30,0,0
30529,-400,4,1,0,60,0,0
30672,-400,4,1,0,30,0,0
30815,-400,4,1,0,60,0,0
30958,-400,4,1,0,60,0,0
31101,-400,4,1,0,30,0,0
31244,-400,4,1,0,60,0,0
31387,-400,4,1,0,30,0,0
31529,-400,4,1,0,60,0,0
31672,-400,4,1,0,30,0,0
31815,-400,4,1,0,60,0,0
31958,-200,4,1,0,60,0,0
39101,-200,4,1,0,60,0,0
39244,-200,4,1,0,30,0,0
39387,-200,4,1,0,60,0,0
39529,-200,4,1,0,30,0,0
39672,-200,4,1,0,60,0,0
39815,-200,4,1,0,30,0,0
39958,-200,4,1,0,60,0,0
40101,-200,4,1,0,60,0,0
40244,-200,4,1,0,30,0,0
40387,-200,4,1,0,60,0,0
46244,-200,4,1,0,60,0,0
47958,-1000,4,2,0,60,0,0
48529,-200,4,1,0,60,0,0
49529,-200,4,2,0,60,0,0
50244,-200,4,1,0,60,0,0
52529,-400,4,1,0,60,0,0
53101,-200,4,1,0,60,0,0
57101,-400,4,2,0,60,0,0
57672,-200,4,1,0,60,0,0
63101,-200,4,2,0,60,0,0
63672,-200,4,1,0,60,0,0
67958,-400,4,1,0,60,0,0
69101,-200,4,2,0,60,0,0
69387,-200,4,1,0,60,0,0
80529,-270.27027027027,4,1,0,60,0,0
82244,-100,4,1,0,60,0,0
82815,-66.6666666666667,4,1,0,60,0,1
100529,-100,4,2,0,60,0,1
101101,-100,4,1,0,60,0,1
119101,-100,4,2,0,60,0,1
119387,-200,4,2,0,60,0,0
122529,-200,4,2,0,60,0,0
128529,-200,4,1,0,60,0,0
133101,-200,4,1,0,5,0,0

[HitObjects]
132,161,530,5,0,0:0:0:0:
264,176,672,1,0,0:0:0:0:
271,163,2529,5,0,0:0:0:0:
271,163,2815,1,0,0:0:0:0:
200,292,2958,1,0,0:0:0:0:
189,309,5101,5,0,0:0:0:0:
320,319,5244,1,0,0:0:0:0:
314,326,7101,5,0,0:0:0:0:
314,326,7387,1,0,0:0:0:0:
392,182,7529,1,0,0:0:0:0:
389,161,9387,5,0,0:0:0:0:
315,246,9529,1,0,0:0:0:0:
335,56,9672,5,0,0:0:0:0:
214,115,9958,1,0,0:0:0:0:
82,32,10244,1,0,0:0:0:0:
69,180,10529,1,0,0:0:0:0:
81,151,10672,1,0,0:0:0:0:
92,297,10958,1,0,0:0:0:0:
104,262,11101,1,0,0:0:0:0:
119,291,11244,1,0,0:0:0:0:
171,183,11387,1,0,0:0:0:0:
362,323,11958,5,0,0:0:0:0:
471,248,12244,1,0,0:0:0:0:
271,232,12529,1,0,0:0:0:0:
337,123,12815,1,0,0:0:0:0:
310,71,12958,1,0,0:0:0:0:
399,145,13101,1,0,0:0:0:0:
491,72,13244,1,0,0:0:0:0:
458,125,13387,1,0,0:0:0:0:
401,8,13672,1,0,0:0:0:0:
104,135,46244,5,0,0:0:0:0:
305,104,46387,1,0,0:0:0:0:
290,147,46672,5,0,0:0:0:0:
130,171,46815,1,0,0:0:0:0:
153,198,47101,5,0,0:0:0:0:
281,179,47244,1,0,0:0:0:0:
170,216,47529,5,0,0:0:0:0:
272,200,47815,1,0,0:0:0:0:
232,325,47958,5,0,0:0:0:0:
232,325,48244,1,0,0:0:0:0:
295,166,48529,5,0,0:0:0:0:
324,152,48672,1,0,0:0:0:0:
356,149,48815,1,0,0:0:0:0:
383,165,48958,1,0,0:0:0:0:
398,193,49101,1,0,0:0:0:0:
253,60,49387,5,0,0:0:0:0:
243,28,49529,1,0,0:0:0:0:
191,176,49815,1,0,0:0:0:0:
12,133,50101,5,0,0:0:0:0:
92,177,50244,1,0,0:0:0:0:
85,200,50387,1,0,0:0:0:0:
82,235,50529,1,0,0:0:0:0:
98,287,50672,1,0,0:0:0:0:
179,321,50815,5,0,0:0:0:0:
38,353,50958,1,0,0:0:0:0:
222,200,51244,5,0,0:0:0:0:
252,168,51387,1,0,0:0:0:0:
333,300,51672,5,0,0:0:0:0:
241,289,51815,1,0,0:0:0:0:
341,182,52101,5,0,0:0:0:0:
373,183,52244,1,0,0:0:0:0:
396,196,52387,1,0,0:0:0:0:
429,287,52529,1,0,0:0:0:0:
410,102,52815,1,0,0:0:0:0:
