osu file format v14

[General]
AudioFilename: audio.mp3
AudioLeadIn: 0
PreviewTime: 45672
Countdown: 0
SampleSet: Soft
StackLeniency: 0.7
Mode: 0
LetterboxInBreaks: 0
WidescreenStoryboard: 1

[Editor]
Bookmarks: 9591,25591,27877,37101,46163,64449,73672,82734,91877,101020,110163,128529,133101
DistanceSpacing: 1
BeatDivisor: 4
GridSize: 16
TimelineZoom: 0.8999999

[Metadata]
Title:leap in your mind
TitleUnicode:leap in your mind
Artist:solfa feat. Shimotsuki Haruka
ArtistUnicode:solfa feat. 霜月はるか
Creator:Lasse
Version:Normal
Source:仄暗き時の果てより
Tags:Honoguraki Toki no Hate Yori short version eroge visual novel opening iyuna moonstone sweet heart 結び音リボン Daichi no Oto Kalibe Mir
BeatmapID:1717104
BeatmapSetID:818672

[Difficulty]
HPDrainRate:4
CircleSize:3.4
OverallDifficulty:4
ApproachRate:6
SliderMultiplier:1.99999990463257
SliderTickRate:1

[Events]
//Background and Video events
0,0,"135.jpg",0,0
//Break Periods
2,25872,26908
2,121587,122908
2,126158,127479
//Storyboard Layer 0 (Background)
//Storyboard Layer 1 (Fail)
//Storyboard Layer 2 (Pass)
//Storyboard Layer 3 (Foreground)
//Storyboard Sound Samples

[TimingPoints]
530,571.428571428571,4,2,2,30,1,0
530,-100,4,2,2,30,0,0
9387,-100,4,2,2,40,0,0
9529,-100,4,2,2,25,0,0
9672,-100,4,2,1,65,0,0
9815,-100,4,2,2,65,0,0
18815,-100,4,2,1,65,0,0
18958,-100,4,2,2,65,0,0
25672,-100,4,2,2,50,0,0
27958,-111.111111111111,4,2,1,50,0,0
29672,-111.111111111111,4,2,1,50,0,0
30244,-111.111111111111,4,2,1,50,0,0
36244,-111.111111111111,4,2,2,50,0,0
36529,-111.111111111111,4,2,1,50,0,0
37101,-111.111111111111,4,2,1,50,0,0
38815,-111.111111111111,4,2,1,50,0,0
39387,-111.111111111111,4,2,1,50,0,0
45387,-111.111111111111,4,2,2,50,0,0
45672,-111.111111111111,4,2,1,50,0,0
46101,-111.111111111111,4,2,1,20,0,0
46244,-99.9999999999999,4,2,1,50,0,0
47958,-99.9999999999999,4,2,1,50,0,0
48529,-99.9999999999999,4,2,2,50,0,0
49101,-99.9999999999999,4,2,1,50,0,0
50244,-99.9999999999999,4,2,2,50,0,0
50815,-99.9999999999999,4,2,1,50,0,0
52529,-99.9999999999999,4,2,1,50,0,0
53101,-99.9999999999999,4,2,1,50,0,0
54672,-99.9999999999999,4,2,2,50,0,0
55387,-99.9999999999999,4,2,1,50,0,0
57101,-99.9999999999999,4,2,2,50,0,0
57672,-99.9999999999999,4,2,2,50,0,0
58244,-99.9999999999999,4,2,1,50,0,0
59387,-99.9999999999999,4,2,2,50,0,0
59958,-99.9999999999999,4,2,1,50,0,0
61672,-99.9999999999999,4,2,1,50,0,0
62244,-99.9999999999999,4,2,2,50,0,0
62815,-99.9999999999999,4,2,1,50,0,0
63958,-99.9999999999999,4,2,2,50,0,0
64529,-111.111111111111,4,2,1,60,0,0
64815,-111.111111111111,4,2,2,60,0,0
68529,-111.111111111111,4,2,2,60,0,0
69387,-111.111111111111,4,2,2,60,0,0
70815,-111.111111111111,4,2,2,60,0,0
71387,-111.111111111111,4,2,2,60,0,0
73101,-111.111111111111,4,2,2,60,0,0
73672,-111.111111111111,4,2,1,60,0,0
73958,-111.111111111111,4,2,2,60,0,0
77672,-111.111111111111,4,2,2,60,0,0
78244,-99.9999999999999,4,2,1,60,0,0
80244,-99.9999999999999,4,2,1,50,0,0
81672,-111.111111111111,4,2,1,50,0,0
82244,-111.111111111111,4,2,1,60,0,0
82672,-99.9999999999999,4,2,1,30,0,0
82815,-90.9090909090909,4,2,1,70,0,1
83101,-90.9090909090909,4,2,2,70,0,1
91387,-90.9090909090909,4,2,2,70,0,0
91958,-90.9090909090909,4,2,1,70,0,1
92244,-90.9090909090909,4,2,2,70,0,1
100529,-90.9090909090909,4,2,2,70,0,0
101101,-90.9090909090909,4,2,1,70,0,1
101387,-90.9090909090909,4,2,2,70,0,1
109672,-90.9090909090909,4,2,2,70,0,0
110244,-90.9090909090909,4,2,1,70,0,1
110529,-90.9090909090909,4,2,2,70,0,1
119387,-90.9090909090909,4,2,1,60,0,0
121101,-125,4,2,1,30,0,0
121387,-125,4,2,1,40,0,0
121958,-125,4,2,1,50,0,0
123958,-125,4,2,1,40,0,0
125958,-142.857142857143,4,2,1,35,0,0
128529,-142.857142857143,4,2,1,30,0,0
128672,-142.857142857143,4,2,1,20,0,0
131387,-142.857142857143,4,2,1,10,0,0

[Colours]
Combo1 : 255,192,128
Combo2 : 255,128,128
Combo3 : 255,210,128
Combo4 : 255,150,190

[HitObjects]
67,76,9672,6,0,P|110:54|159:61,1,99.9999904632569,6|8,3:2|0:1,0:0:0:0:
229,134,10244,2,0,L|238:246,1,99.9999904632569,8|8,2:2|0:3,0:0:0:0:
243,288,10672,1,4,0:3:0:0:
243,288,10815,2,0,P|286:310|335:303,1,99.9999904632569,8|4,3:3|3:3,0:0:0:0:
431,273,11387,1,10,2:2:0:0:
398,178,11672,1,8,0:3:0:0:
466,104,11958,6,0,L|472:-2,2,99.9999904632569,10|8|8,2:3|0:1|2:2,0:0:0:0:
499,198,12815,1,8,0:3:0:0:
431,273,13101,2,0,L|312:263,1,99.9999904632569,8|4,3:3|3:3,0:0:0:0:
275,348,13672,2,0,L|185:282,1,99.9999904632569,10|6,2:2|0:3,0:0:0:0:
154,258,14101,1,6,0:3:0:0:
110,232,14244,6,0,L|-7:247,2,99.9999904632569,10|8|8,3:3|0:1|2:2,0:0:0:0:
195,180,15101,1,8,0:3:0:0:
195,180,15244,2,0,L|202:74,1,99.9999904632569,4|8,0:3|3:3,0:0:0:0:
229,38,15672,2,0,P|265:24|329:36,1,99.9999904632569,4|8,3:3|2:2,0:0:0:0:
401,97,16244,1,4,0:3:0:0:
337,174,16530,6,0,P|324:225|346:285,2,99.9999904632569,10|8|8,2:3|0:1|2:2,0:0:0:0:
426,129,17387,1,8,0:3:0:0:
426,129,17530,2,0,P|449:86|449:37,1,99.9999904632569,4|8,0:3|3:3,0:0:0:0:
401,18,17958,2,0,B|366:16|366:16|339:29|339:29|288:26,2,99.9999904632569,4|10|10,3:3|2:2|0:3,0:0:0:0:
482,76,18815,6,0,L|473:183,1,99.9999904632569,6|8,3:2|0:1,0:0:0:0:
407,251,19387,2,0,P|363:263|305:223,1,99.9999904632569,8|8,2:2|0:3,0:0:0:0:
283,202,19815,1,4,0:3:0:0:
283,202,19958,2,0,P|239:179|192:190,1,99.9999904632569,8|4,3:3|3:3,0:0:0:0:
125,265,20530,1,10,2:2:0:0:
28,240,20815,1,8,0:3:0:0:
20,140,21101,6,0,L|16:31,2,99.9999904632569,10|8|8,2:3|0:1|2:2,0:0:0:0:
28,240,21958,1,8,0:3:0:0:
125,265,22244,2,0,L|244:254,1,99.9999904632569,8|4,3:3|3:3,0:0:0:0:
294,327,22815,2,0,L|413:338,1,99.9999904632569,10|4,2:2|0:3,0:0:0:0:
443,336,23244,1,4,0:3:0:0:
491,324,23387,6,0,P|506:279|486:215,2,99.9999904632569,10|8|8,3:3|0:1|2:2,0:0:0:0:
398,362,24244,1,10,0:3:0:0:
398,362,24387,2,0,L|299:353,1,99.9999904632569,4|8,0:3|3:3,0:0:0:0:
256,324,24815,2,0,P|241:266|270:213,1,99.9999904632569,4|4,3:3|3:3,0:0:0:0:
317,152,25387,1,4,3:3:0:0:
410,187,25672,5,10,2:3:0:0:
500,336,27958,6,0,L|489:235,1,89.9999886703495,4|10,3:2|0:1,0:0:0:0:
477,162,28530,1,2,1:2:0:0:
477,162,28672,1,2,0:2:0:0:
387,170,28958,2,0,L|290:156,1,89.9999886703495,2|2,0:2|0:2,0:0:0:0:
226,217,29530,1,2,3:2:0:0:
226,217,29672,2,0,L|219:310,1,89.9999886703495,2|2,1:2|0:2,0:0:0:0:
147,360,30244,6,0,P|103:368|62:351,1,89.9999886703495,2|10,3:2|0:1,0:0:0:0:
5,281,30815,1,2,1:2:0:0:
5,281,30958,1,2,0:2:0:0:
38,197,31244,2,0,L|37:104,1,89.9999886703495,2|2,0:2|0:2,0:0:0:0:
101,43,31815,1,2,0:2:0:0:
101,43,31958,2,0,P|141:25|185:33,1,89.9999886703495,2|2,1:2|0:2,0:0:0:0:
250,96,32529,6,0,L|234:191,2,89.9999886703495,2|8|0,3:2|2:1|1:2,0:0:0:0:
322,42,33387,1,2,3:2:0:0:
397,91,33672,2,0,L|413:185,1,89.9999886703495,8|2,0:3|0:2,0:0:0:0:
482,236,34244,1,2,1:2:0:0:
467,325,34530,1,2,0:2:0:0:
382,356,34815,6,0,L|285:363,2,89.9999886703495,2|8|0,0:2|0:1|1:2,0:0:0:0:
467,325,35672,1,2,0:2:0:0:
482,236,35958,2,0,L|474:135,1,89.9999886703495,0|10,1:2|2:3,0:0:0:0:
440,62,36530,2,0,P|390:34|355:34,1,89.9999886703495,2|2,1:2|0:2,0:0:0:0:
287,88,37101,6,0,B|288:120|288:120|277:150|277:150|276:183,1,89.9999886703495,2|10,3:2|0:1,0:0:0:0:
226,251,37672,2,0,P|162:267|125:253,1,89.9999886703495,2|0,1:2|0:2,0:0:0:0:
98,244,38101,2,0,L|85:155,1,89.9999886703495,2|2,0:2|0:2,0:0:0:0:
107,66,38673,1,2,3:2:0:0:
107,66,38815,2,0,P|148:49|193:56,1,89.9999886703495,2|2,1:2|0:2,0:0:0:0:
275,90,39387,6,0,P|318:100|360:85,1,89.9999886703495,2|10,3:2|0:1,0:0:0:0:
434,34,39958,1,2,1:2:0:0:
434,34,40101,1,2,0:2:0:0:
490,103,40387,2,0,L|495:196,1,89.9999886703495,2|2,0:2|0:2,0:0:0:0:
438,263,40958,1,2,0:2:0:0:
438,263,41101,2,0,B|391:274|391:274|341:255,1,89.9999886703495,2|2,1:2|0:2,0:0:0:0:
294,190,41672,6,0,L|287:83,2,89.9999886703495,2|8|0,3:2|0:1|1:2,0:0:0:0:
263,274,42530,1,2,3:2:0:0:
186,227,42815,2,0,L|170:133,1,89.9999886703495,0|2,0:2|0:2,0:0:0:0:
129,58,43387,1,2,1:2:0:0:
39,65,43673,1,2,0:2:0:0:
19,152,43958,6,0,L|20:253,2,89.9999886703495,2|8|0,3:2|0:1|1:2,0:0:0:0:
39,65,44815,2,0,P|79:45|131:54,2,89.9999886703495,2|0|8,0:2|1:2|2:3,0:0:0:0:
2,147,45672,2,0,L|3:248,1,89.9999886703495,10|0,1:1|0:0,0:0:0:0:
65,315,46244,6,0,P|108:298|171:305,1,99.9999904632569,6|8,3:2|0:3,0:0:0:0:
206,322,46672,1,2,0:2:0:0:
206,322,46815,2,0,P|252:339|301:335,1,99.9999904632569,2|2,1:2|0:2,0:0:0:0:
347,312,47244,2,0,L|364:202,1,99.9999904632569,2|2,1:2|1:2,0:0:0:0:
452,170,47815,1,2,3:2:0:0:
452,170,47958,2,0,L|436:60,1,99.9999904632569,0|2,1:2|3:2,0:0:0:0:
351,19,48530,6,0,L|336:123,1,99.9999904632569,10|10,2:3|2:3,0:0:0:0:
307,159,48958,1,10,2:3:0:0:
307,159,49101,2,0,L|292:263,1,99.9999904632569,2|2,1:2|0:2,0:0:0:0:
260,296,49530,2,0,P|212:318|159:294,1,99.9999904632569,2|2,0:2|1:2,0:0:0:0:
80,271,50101,1,2,1:2:0:0:
80,271,50244,1,6,2:3:0:0:
70,171,50530,1,6,2:3:0:0:
134,94,50815,6,0,P|175:74|229:77,1,99.9999904632569,2|8,3:2|0:3,0:0:0:0:
263,120,51243,1,2,0:2:0:0:
263,120,51386,2,0,L|279:220,1,99.9999904632569,2|2,1:2|0:2,0:0:0:0:
299,264,51815,2,0,P|343:284|393:281,1,99.9999904632569,2|2,1:2|1:2,0:0:0:0:
472,219,52386,1,2,3:2:0:0:
472,219,52529,2,0,L|481:109,1,99.9999904632569,2|0,1:2|3:2,0:0:0:0:
416,41,53101,6,0,B|369:19|369:19|311:45,1,99.9999904632569,2|8,3:2|0:3,0:0:0:0:
299,81,53529,1,2,0:2:0:0:
299,81,53672,2,0,L|286:185,1,99.9999904632569,2|2,1:2|0:2,0:0:0:0:
305,227,54101,2,0,L|292:331,1,99.9999904632569,2|2,1:2|1:2,0:0:0:0:
201,367,54672,1,10,2:3:0:0:
201,367,54815,1,6,2:3:0:0:
113,317,55101,1,6,2:3:0:0:
119,217,55387,6,0,L|123:112,1,99.9999904632569,2|8,3:2|0:3,0:0:0:0:
156,80,55815,1,2,0:2:0:0:
156,80,55958,2,0,B|187:72|187:72|214:78|214:78|260:72,1,99.9999904632569,2|2,1:2|0:2,0:0:0:0:
299,93,56387,1,2,1:2:0:0:
399,73,56672,1,2,1:2:0:0:
399,73,56815,1,2,1:2:0:0:
465,148,57101,2,0,L|469:260,1,99.9999952316285,2|2,1:2|1:2,0:0:0:0:
426,338,57672,6,0,P|381:349|322:322,1,99.9999904632569,10|10,0:3|0:3,0:0:0:0:
304,297,58101,1,10,0:3:0:0:
304,297,58244,2,0,L|296:193,1,99.9999904632569,2|2,1:2|0:2,0:0:0:0:
266,157,58672,2,0,L|258:53,1,99.9999904632569,2|2,0:2|1:2,0:0:0:0:
220,23,59101,1,2,1:2:0:0:
119,19,59387,1,6,0:3:0:0:
80,111,59673,1,10,2:3:0:0:
155,175,59958,6,0,L|161:274,1,99.9999904632569,2|8,3:2|0:3,0:0:0:0:
183,319,60386,1,2,0:2:0:0:
183,319,60529,2,0,P|219:335|289:305,1,99.9999904632569,2|2,1:2|0:2,0:0:0:0:
311,283,60958,2,0,L|317:184,1,99.9999904632569,2|2,1:2|1:2,0:0:0:0:
356,91,61529,1,2,3:2:0:0:
355,91,61672,2,0,P|400:71|450:83,1,99.9999904632569,2|0,1:2|3:2,0:0:0:0:
500,168,62244,6,0,B|494:277,1,99.9999904632569,10|10,2:3|2:3,0:0:0:0:
471,312,62672,1,10,2:3:0:0:
471,312,62815,2,0,B|428:301|428:301|406:308|406:308|356:300,1,99.9999904632569,2|2,1:2|0:2,0:0:0:0:
329,278,63244,2,0,L|316:174,1,99.9999904632569,2|0,0:2|1:2,0:0:0:0:
323,78,63815,1,0,3:2:0:0:
323,78,63958,1,6,0:3:0:0:
235,29,64244,1,10,2:3:0:0:
146,76,64530,6,0,L|41:70,2,89.9999886703495,6|8|0,3:2|0:1|1:0,0:0:0:0:
224,119,65387,1,8,0:1:0:0:
224,119,65530,2,0,B|228:155|228:155|221:173|221:173|228:215,1,89.9999886703495,0|0,1:0|1:0,0:0:0:0:
252,243,65958,2,0,B|267:288|267:288|249:327,1,89.9999886703495,10|0,0:1|1:0,0:0:0:0:
165,359,66530,1,2,0:0:0:0:
83,321,66815,6,0,B|65:281|65:281|80:236,1,89.9999886703495,4|8,0:3|0:1,0:0:0:0:
123,157,67387,2,0,B|128:123|128:123|121:105|121:105|125:69,1,89.9999886703495,0|8,1:0|0:1,0:0:0:0:
204,26,67958,2,0,L|308:34,1,89.9999886703495,8|8,0:1|0:1,0:0:0:0:
382,13,68530,1,2,1:0:0:0:
486,159,69101,6,0,L|470:263,1,89.9999886703495,10|10,0:3|0:1,0:0:0:0:
494,340,69672,1,2,1:2:0:0:
494,340,69815,1,2,0:0:0:0:
405,358,70101,2,0,L|315:339,1,89.9999886703495,2|2,0:0|0:0,0:0:0:0:
228,357,70672,1,10,0:3:0:0:
228,357,70815,2,0,L|216:256,1,89.9999886703495,2|2,1:2|0:0,0:0:0:0:
267,192,71387,6,0,B|298:188|298:188|321:195|321:195|372:188,1,89.9999886703495,10|10,0:3|0:1,0:0:0:0:
443,227,71958,1,2,1:0:0:0:
443,227,72101,1,2,0:0:0:0:
501,158,72387,2,0,P|512:115|494:66,1,89.9999886703495,2|2,0:0|0:0,0:0:0:0:
422,37,72958,1,10,0:3:0:0:
422,37,73101,2,0,L|321:27,1,89.9999886703495,2|2,1:2|0:0,0:0:0:0:
247,58,73672,6,0,B|212:46|212:46|192:50|192:50|150:39,2,89.9999886703495,6|8|0,3:2|0:1|1:0,0:0:0:0:
308,123,74529,1,8,0:1:0:0:
308,123,74672,2,0,B|311:221,1,89.9999886703495,0|0,1:0|1:0,0:0:0:0:
336,250,75101,2,0,L|326:353,1,89.9999886703495,10|0,0:1|1:0,0:0:0:0:
241,367,75672,1,2,0:0:0:0:
156,334,75958,6,0,L|147:244,1,89.9999886703495,10|8,0:3|0:1,0:0:0:0:
121,207,76387,1,8,0:3:0:0:
121,207,76530,2,0,L|130:117,1,89.9999886703495,2|8,1:2|0:1,0:0:0:0:
195,55,77101,2,0,P|230:38|294:41,1,89.9999886703495,2|8,0:2|0:1,0:0:0:0:
365,66,77672,1,10,1:1:0:0:
470,236,78244,6,0,L|462:336,1,99.9999904632569,6|2,3:2|2:0,0:0:0:0:
363,355,78815,2,0,L|342:256,1,99.9999904632569,2|2,1:2|3:2,0:0:0:0:
316,160,79387,1,2,1:2:0:0:
229,109,79672,1,2,3:2:0:0:
131,134,79958,1,2,1:2:0:0:
79,220,80244,2,0,L|79:326,1,99.9999904632569,2|0,3:2|1:0,0:0:0:0:
444,373,81672,6,0,B|440:339|445:314|445:314|429:289|429:289|449:257|439:193,1,179.999977340699,2|2,1:2|0:0,0:0:0:0:
306,24,82815,5,6,3:2:0:0:
261,125,83101,2,0,L|254:236,1,109.999992866516,10|8,0:1|2:2,0:0:0:0:
243,289,83530,1,10,0:1:0:0:
144,336,83815,1,2,0:0:0:0:
54,274,84101,1,2,0:0:0:0:
62,165,84387,1,8,0:3:0:0:
62,165,84530,2,0,L|79:44,1,109.999992866516,10|10,2:2|0:3,0:0:0:0:
181,21,85101,6,0,L|208:128,1,109.999992866516,4|10,0:3|0:1,0:0:0:0:
211,237,85672,1,10,2:2:0:0:
211,237,85815,1,10,0:1:0:0:
271,329,86101,2,0,P|318:347|380:335,1,109.999992866516,2|2,0:0|0:0,0:0:0:0:
466,274,86672,1,10,0:3:0:0:
466,274,86815,2,0,L|471:158,1,109.999992866516,10|8,2:2|0:3,0:0:0:0:
426,62,87387,6,0,P|377:39|305:50,1,109.999992866516,10|8,0:3|0:1,0:0:0:0:
259,132,87958,2,0,L|250:266,1,109.999992866516,8|8,2:2|0:3,0:0:0:0:
244,300,88387,1,8,0:1:0:0:
244,300,88530,2,0,P|194:323|140:310,1,109.999992866516,4|8,3:3|3:1,0:0:0:0:
51,248,89101,1,10,1:1:0:0:
65,138,89387,1,10,1:1:0:0:
156,77,89672,6,0,B|192:70|192:70|222:80|222:80|271:75,1,109.999992866516,10|8,0:3|0:1,0:0:0:0:
315,51,90101,1,8,0:3:0:0:
315,51,90244,2,0,B|351:58|351:58|381:48|381:48|430:53,1,109.999992866516,10|8,2:2|0:1,0:0:0:0:
483,143,90815,2,0,L|471:264,1,109.999998111725,6|6,1:3|1:3,0:0:0:0:
459,309,91244,1,8,3:1:0:0:
459,309,91387,2,0,B|418:300|418:300|390:314|390:314|337:305,1,109.999998111725,10|6,1:3|1:3,0:0:0:0:
293,215,91958,6,0,L|281:97,1,109.999998111725,6|10,3:2|0:1,0:0:0:0:
198,33,92529,1,8,2:2:0:0:
198,33,92673,1,10,0:1:0:0:
115,105,92958,2,0,L|98:235,1,109.999998111725,2|2,0:0|0:0,0:0:0:0:
129,320,93530,1,8,0:3:0:0:
129,320,93673,2,0,P|191:304|249:318,1,109.999998111725,10|10,2:2|0:3,0:0:0:0:
337,353,94244,6,0,P|391:360|443:344,1,109.999998111725,10|10,0:3|0:1,0:0:0:0:
491,245,94815,1,10,2:2:0:0:
491,245,94958,1,10,0:1:0:0:
408,172,95244,2,0,L|399:51,1,109.999998111725,2|2,0:0|0:0,0:0:0:0:
289,64,95815,1,10,0:3:0:0:
289,64,95958,2,0,L|272:182,1,109.999998111725,10|8,2:2|0:3,0:0:0:0:
243,279,96530,6,0,P|194:302|142:289,1,109.999998111725,10|8,0:3|0:1,0:0:0:0:
58,217,97101,2,0,L|48:107,1,109.999998111725,8|8,2:2|0:3,0:0:0:0:
65,58,97530,1,8,0:1:0:0:
65,58,97672,2,0,P|113:34|165:47,1,109.999998111725,4|8,3:3|3:1,0:0:0:0:
264,96,98244,1,10,1:1:0:0:
366,54,98530,1,10,1:1:0:0:
441,133,98815,6,0,B|448:169|448:169|437:204|437:204|443:248,1,109.999998111725,6|10,0:3|0:1,0:0:0:0:
378,330,99387,2,0,B|342:323|342:323|309:336|309:336|263:328,1,109.999998111725,8|10,2:2|0:1,0:0:0:0:
228,364,99815,1,10,0:3:0:0:
228,364,99958,2,0,L|216:243,1,109.999998111725,6|6,1:3|1:3,0:0:0:0:
284,166,100530,2,0,B|335:186|335:186|385:163,1,109.999998111725,10|6,1:3|1:3,0:0:0:0:
397,54,101101,6,0,B|352:21|352:21|298:29,1,109.999998111725,6|10,3:2|0:1,0:0:0:0:
201,81,101672,1,8,2:2:0:0:
201,81,101816,1,10,0:1:0:0:
104,27,102101,1,2,0:0:0:0:
21,99,102387,1,2,0:0:0:0:
62,207,102673,1,8,0:3:0:0:
62,207,102816,2,0,L|69:335,1,109.999998111725,10|10,2:2|0:3,0:0:0:0:
170,357,103387,6,0,L|179:244,1,109.999998111725,4|10,0:3|0:1,0:0:0:0:
256,169,103958,1,10,2:2:0:0:
256,169,104101,1,10,0:1:0:0:
332,248,104387,2,0,L|342:370,1,109.999998111725,2|2,0:0|0:0,0:0:0:0:
454,377,104958,1,10,0:3:0:0:
454,377,105101,2,0,L|460:267,1,109.999998111725,10|10,2:2|0:3,0:0:0:0:
427,161,105673,6,0,B|388:152|388:152|363:161|363:161|320:151,1,109.999998111725,10|8,0:3|0:1,0:0:0:0:
244,72,106244,2,0,B|195:45|195:45|143:61,1,109.999998111725,8|8,2:2|0:3,0:0:0:0:
100,94,106673,1,8,0:1:0:0:
100,94,106816,2,0,L|108:213,1,109.999998111725,4|8,3:3|3:1,0:0:0:0:
80,310,107387,1,10,1:1:0:0:
174,369,107672,1,10,1:1:0:0:
259,297,107958,6,0,B|270:178,1,109.999998111725,10|8,0:3|0:1,0:0:0:0:
303,144,108387,1,8,0:3:0:0:
303,144,108530,2,0,B|310:107|310:107|304:81|304:81|317:33,1,109.999998111725,10|8,2:2|0:1,0:0:0:0:
422,9,109101,2,0,B|433:53|433:53|427:79|427:79|434:116,1,109.999998111725,6|6,1:3|1:3,0:0:0:0:
458,171,109530,1,8,3:1:0:0:
458,171,109672,2,0,B|446:215|446:215|452:241|452:241|445:278,1,109.999998111725,10|6,1:3|1:3,0:0:0:0:
367,356,110244,6,0,L|233:338,1,109.999998111725,6|10,3:2|0:1,0:0:0:0:
149,361,110815,1,8,2:2:0:0:
149,361,110959,1,10,0:1:0:0:
45,324,111244,2,0,P|25:275|37:197,1,109.999998111725,2|2,0:0|0:0,0:0:0:0:
84,123,111816,1,8,0:3:0:0:
84,123,111959,2,0,L|201:114,1,109.999998111725,10|10,2:2|0:3,0:0:0:0:
294,157,112529,6,0,B|311:188|311:188|309:231|309:231|327:285,1,109.999998111725,10|10,0:3|0:1,0:0:0:0:
409,323,113101,1,10,2:2:0:0:
409,323,113244,1,10,0:1:0:0:
491,250,113529,2,0,B|499:215|499:215|486:174|486:174|488:143,1,109.999998111725,2|2,0:0|0:0,0:0:0:0:
431,48,114101,1,10,0:3:0:0:
431,48,114244,2,0,L|305:30,1,109.999998111725,10|8,2:2|0:3,0:0:0:0:
251,117,114815,6,0,B|257:159|257:159|246:192|246:192|248:223,1,109.999998111725,10|8,0:3|0:1,0:0:0:0:
184,315,115387,2,0,B|136:342|136:342|87:312,1,109.999998111725,8|8,2:2|0:3,0:0:0:0:
55,277,115816,1,8,0:1:0:0:
55,277,115958,2,0,B|57:245|57:245|46:212|46:212|52:170,1,109.999998111725,4|8,3:3|3:1,0:0:0:0:
29,61,116530,1,10,1:1:0:0:
124,6,116816,1,10,1:1:0:0:
205,79,117101,6,0,B|248:111|248:111|307:91,1,109.999998111725,6|10,0:3|0:1,0:0:0:0:
397,38,117672,2,0,B|450:19|450:19|493:51,1,109.999998111725,8|10,2:2|0:3,0:0:0:0:
505,111,118101,1,10,0:3:0:0:
505,111,118244,2,0,L|493:232,2,109.999998111725,6|6|10,1:3|1:3|1:3,0:0:0:0:
414,48,119101,1,6,1:3:0:0:
333,122,119387,5,6,3:2:0:0:
256,192,119529,12,2,121387,0:0:0:0:
386,256,123958,6,0,P|150:291|199:58,1,559.99997329712,2|2,3:2|0:2,0:0:0:0:
295,310,128529,6,0,P|349:109|144:136,1,489.999961681368,2|2,3:2|0:0,0:0:0:0:
