osu file format v14

[General]
AudioFilename: audio.mp3
AudioLeadIn: 0
PreviewTime: 45672
Countdown: 0
SampleSet: Soft
StackLeniency: 0.7
Mode: 0
LetterboxInBreaks: 0
WidescreenStoryboard: 1

[Editor]
Bookmarks: 9591,25591,27877,37101,46163,64449,73672,82734,91877,101020,110163,128529,133101
DistanceSpacing: 0.6
BeatDivisor: 8
GridSize: 32
TimelineZoom: 1.4

[Metadata]
Title:leap in your mind
TitleUnicode:leap in your mind
Artist:solfa feat. Shimotsuki Haruka
ArtistUnicode:solfa feat. 霜月はるか
Creator:Lasse
Version:Hard
Source:仄暗き時の果てより
Tags:Honoguraki Toki no Hate Yori short version eroge visual novel opening iyuna moonstone sweet heart 結び音リボン Daichi no Oto Kalibe Mir
BeatmapID:1717389
BeatmapSetID:818672

[Difficulty]
HPDrainRate:5
CircleSize:3.8
OverallDifficulty:6.5
ApproachRate:8
SliderMultiplier:2.23999990463257
SliderTickRate:1

[Events]
//Background and Video events
0,0,"136.jpg",0,0
//Break Periods
2,872,1779
2,3157,4351
2,5443,6351
2,7729,8637
2,25872,27208
2,121587,123208
2,126158,127779
//Storyboard Layer 0 (Background)
//Storyboard Layer 1 (Fail)
//Storyboard Layer 2 (Pass)
//Storyboard Layer 3 (Foreground)
//Storyboard Sound Samples

[TimingPoints]
530,571.428571428571,4,2,2,30,1,0
530,-200,4,2,2,30,0,0
9387,-133.333333333333,4,2,2,40,0,0
9529,-100,4,2,2,25,0,0
9672,-100,4,2,1,65,0,0
9815,-100,4,2,2,65,0,0
18815,-100,4,2,1,65,0,0
18958,-100,4,2,2,65,0,0
25672,-100,4,2,2,50,0,0
27958,-133.333333333333,4,2,1,50,0,0
29672,-133.333333333333,4,2,1,50,0,0
30244,-133.333333333333,4,2,1,50,0,0
36529,-133.333333333333,4,2,1,50,0,0
37101,-133.333333333333,4,2,1,50,0,0
38815,-133.333333333333,4,2,1,50,0,0
39387,-133.333333333333,4,2,1,50,0,0
45244,-133.333333333333,4,2,2,50,0,0
45672,-133.333333333333,4,2,1,50,0,0
46101,-133.333333333333,4,2,1,20,0,0
46244,-125,4,2,1,50,0,0
47958,-125,4,2,1,50,0,0
48529,-125,4,2,2,50,0,0
49101,-125,4,2,1,50,0,0
50244,-125,4,2,2,50,0,0
50815,-125,4,2,1,50,0,0
52529,-125,4,2,1,50,0,0
53101,-125,4,2,1,50,0,0
54672,-125,4,2,2,50,0,0
55387,-125,4,2,1,50,0,0
57101,-125,4,2,2,50,0,0
57672,-125,4,2,2,50,0,0
58244,-125,4,2,1,50,0,0
59387,-125,4,2,2,50,0,0
59958,-125,4,2,1,50,0,0
61672,-125,4,2,1,50,0,0
62244,-125,4,2,2,50,0,0
62815,-125,4,2,1,50,0,0
63958,-125,4,2,2,50,0,0
64529,-111.111111111111,4,2,1,60,0,0
64815,-111.111111111111,4,2,2,60,0,0
68529,-111.111111111111,4,2,2,60,0,0
69387,-111.111111111111,4,2,2,60,0,0
70815,-111.111111111111,4,2,2,60,0,0
71387,-111.111111111111,4,2,2,60,0,0
73101,-111.111111111111,4,2,2,60,0,0
73672,-111.111111111111,4,2,1,60,0,0
73958,-111.111111111111,4,2,2,60,0,0
77672,-111.111111111111,4,2,2,60,0,0
78244,-133.333333333333,4,2,1,60,0,0
80244,-200,4,2,1,50,0,0
81672,-111.111111111111,4,2,1,50,0,0
82244,-133.333333333333,4,2,1,60,0,0
82672,-99.9999999999999,4,2,1,30,0,0
82815,-83.3333333333333,4,2,1,70,0,1
83101,-83.3333333333333,4,2,2,70,0,1
91387,-83.3333333333333,4,2,2,70,0,0
91958,-83.3333333333333,4,2,1,70,0,1
92244,-83.3333333333333,4,2,2,70,0,1
100529,-83.3333333333333,4,2,2,70,0,0
101101,-83.3333333333333,4,2,1,70,0,1
101387,-83.3333333333333,4,2,2,70,0,1
109672,-83.3333333333333,4,2,2,70,0,0
110244,-83.3333333333333,4,2,1,70,0,1
110529,-83.3333333333333,4,2,2,70,0,1
119387,-90.9090909090909,4,2,1,60,0,0
121101,-125,4,2,1,30,0,0
121387,-125,4,2,1,40,0,0
121958,-125,4,2,1,50,0,0
123958,-166.666666666667,4,2,1,40,0,0
125958,-200,4,2,1,35,0,0
126529,-200,4,2,1,35,0,0
128529,-200,4,2,1,30,0,0
128672,-200,4,2,1,20,0,0
131387,-200,4,2,1,10,0,0

[Colours]
Combo1 : 255,192,128
Combo2 : 255,128,128
Combo3 : 255,210,128
Combo4 : 255,150,190

[HitObjects]
121,79,530,6,0,L|154:63,1,27.9999988079071,2|2,0:0|0:0,0:0:0:0:
391,79,2529,5,2,0:0:0:0:
391,79,2815,2,0,L|358:63,1,27.9999988079071,2|2,0:0|0:0,0:0:0:0:
173,189,5101,6,0,L|192:147,1,27.9999988079071,2|2,0:0|0:0,0:0:0:0:
339,189,7101,5,2,0:0:0:0:
339,189,7387,2,0,L|320:147,1,27.9999988079071,2|2,0:0|0:0,0:0:0:0:
256,64,9387,6,0,L|256:112,1,41.9999998140335,0|0,0:0|0:0,0:0:0:0:
324,160,9672,6,0,P|378:149|437:176,2,111.999995231628,6|8|8,3:2|0:1|2:2,0:0:0:0:
206,286,10529,1,8,0:3:0:0:
132,250,10672,1,4,0:3:0:0:
58,295,10815,2,0,L|55:352,1,55.9999976158142,8|8,3:3|3:3,0:0:0:0:
132,250,11101,2,0,L|135:193,1,55.9999976158142,4|4,3:3|3:0,0:0:0:0:
106,114,11387,2,0,P|56:93|-12:99,1,111.999995231628,10|8,2:2|0:3,0:0:0:0:
4,99,11958,6,0,P|55:77|110:80,1,111.999995231628,10|8,2:3|0:1,0:0:0:0:
187,114,12387,1,0,3:1:0:0:
258,69,12529,2,0,L|267:13,1,55.9999976158142,8|0,2:2|0:0,0:0:0:0:
315,135,12815,1,8,0:3:0:0:
315,135,12958,1,4,0:3:0:0:
387,92,13101,2,0,L|392:36,1,55.9999976158142,8|8,3:3|3:3,0:0:0:0:
440,157,13387,2,0,L|447:235,1,55.9999976158142,4|4,3:3|3:0,0:0:0:0:
511,263,13672,5,10,2:2:0:0:
471,80,13958,1,6,0:3:0:0:
471,80,14101,1,6,0:3:0:0:
387,92,14244,2,0,L|272:79,2,111.999995231628,10|8|8,3:3|0:1|2:2,0:0:0:0:
471,237,15101,5,8,0:3:0:0:
402,286,15244,2,0,P|375:291|347:288,1,55.9999976158142,4|8,0:3|3:3,0:0:0:0:
471,237,15529,1,8,3:3:0:0:
485,319,15672,2,0,P|471:341|447:357,1,55.9999976158142,4|4,3:3|3:0,0:0:0:0:
347,288,15958,2,0,L|329:163,1,111.999995231628,8|4,2:2|0:3,0:0:0:0:
214,56,16529,6,0,P|161:36|100:51,2,111.999995231628,10|8|8,2:3|0:1|2:2,0:0:0:0:
331,177,17387,1,8,0:3:0:0:
405,137,17529,1,4,0:3:0:0:
462,195,17672,2,0,L|467:251,1,55.9999976158142,8|8,3:3|3:3,0:0:0:0:
506,123,17958,2,0,L|501:60,1,55.9999976158142,4|4,3:3|3:0,0:0:0:0:
427,24,18244,2,0,B|389:21|389:21|358:36|358:36|318:34,1,111.999995231628,10|0,2:2|0:0,0:0:0:0:
322,38,18815,6,0,B|360:46|360:46|386:68|386:68|424:75,2,111.999995231628,6|8|8,3:2|0:1|2:2,0:0:0:0:
178,125,19672,1,8,0:3:0:0:
178,125,19815,1,4,0:3:0:0:
112,72,19958,2,0,L|107:16,1,55.9999976158142,8|8,3:3|3:3,0:0:0:0:
69,142,20244,2,0,L|74:205,1,55.9999976158142,4|4,3:3|3:0,0:0:0:0:
121,267,20529,2,0,P|170:241|229:249,1,111.999995231628,10|8,2:2|0:3,0:0:0:0:
364,341,21101,6,0,P|412:366|467:360,1,111.999995231628,10|8,2:3|0:1,0:0:0:0:
511,289,21529,1,0,3:1:0:0:
482,209,21672,2,0,L|488:153,1,55.9999976158142,8|0,2:2|0:0,0:0:0:0:
405,233,21958,1,8,0:3:0:0:
405,233,22101,1,4,0:3:0:0:
346,172,22244,2,0,L|338:116,1,55.9999976158142,8|8,3:3|3:3,0:0:0:0:
289,234,22529,2,0,P|255:233|226:217,1,55.9999976158142,4|4,3:3|3:0,0:0:0:0:
173,165,22815,5,10,2:2:0:0:
221,3,23101,1,4,0:3:0:0:
221,3,23244,1,4,0:3:0:0:
298,35,23387,2,0,L|425:28,2,111.999995231628,10|8|8,3:3|0:1|2:2,0:0:0:0:
136,80,24244,5,10,0:3:0:0:
136,80,24387,1,4,0:3:0:0:
71,132,24529,2,0,L|62:198,1,55.9999976158142,8|8,3:3|3:3,0:0:0:0:
9,253,24815,2,0,L|18:319,1,55.9999976158142,4|4,3:3|3:0,0:0:0:0:
96,376,25101,5,4,3:3:0:0:
146,301,25244,1,4,3:3:0:0:
224,345,25387,1,4,3:3:0:0:
256,192,25672,5,10,2:3:0:0:
420,373,27958,5,4,3:2:0:0:
506,269,28244,2,0,L|494:196,1,41.9999998140335,10|0,0:1|0:2,0:0:0:0:
451,170,28529,1,2,1:2:0:0:
451,170,28672,2,0,L|461:121,1,41.9999998140335,2|0,0:2|0:2,0:0:0:0:
424,61,28958,2,0,B|394:45|394:45|370:48|370:48|327:31,2,83.9999996280671,2|2|2,0:2|0:2|3:2,0:0:0:0:
459,128,29672,2,0,L|441:236,1,83.9999996280671,2|2,1:2|0:2,0:0:0:0:
341,322,30244,6,0,L|324:221,1,83.9999996280671,2|10,3:2|0:1,0:0:0:0:
248,130,30815,1,2,1:2:0:0:
248,130,30958,2,0,P|227:129|207:122,1,41.9999998140335,2|0,0:2|0:2,0:0:0:0:
170,55,31244,2,0,P|127:30|66:38,2,83.9999996280671,2|2|2,0:2|0:2|0:2,0:0:0:0:
207,122,31958,2,0,B|212:154|212:154|208:173|208:173|213:216,1,83.9999996280671,2|2,1:2|0:2,0:0:0:0:
90,277,32529,6,0,B|57:272|57:272|39:275|39:275|0:269,2,83.9999996280671,2|8|0,3:2|2:1|1:2,0:0:0:0:
220,354,33387,1,2,3:2:0:0:
220,354,33529,2,0,L|271:349,1,41.9999998140335,2|8,1:2|0:3,0:0:0:0:
341,367,33815,1,2,0:2:0:0:
341,367,33958,2,0,L|356:268,2,83.9999996280671,2|2|2,0:2|1:2|0:2,0:0:0:0:
237,245,34815,6,0,L|222:146,2,83.9999996280671,2|8|0,0:2|0:1|1:2,0:0:0:0:
358,288,35672,1,2,0:2:0:0:
358,288,35815,2,0,P|382:279|414:279,1,41.9999998140335,2|0,0:2|1:2,0:0:0:0:
478,287,36101,1,2,0:2:0:0:
478,287,36244,2,0,P|485:265|493:233,1,41.9999998140335,2|8,3:2|0:3,0:0:0:0:
473,172,36529,2,0,L|462:66,1,83.9999996280671,2|2,1:2|0:2,0:0:0:0:
321,11,37101,5,2,3:2:0:0:
247,125,37387,2,0,P|217:129|184:124,1,41.9999998140335,10|0,0:1|0:2,0:0:0:0:
136,97,37672,1,2,1:2:0:0:
136,97,37815,2,0,P|115:93|94:93,1,41.9999998140335,2|0,0:2|0:2,0:0:0:0:
34,142,38101,2,0,B|17:255,2,83.9999996280671,2|2|2,0:2|0:2|3:2,0:0:0:0:
94,92,38815,2,0,B|134:104|134:104|173:87,1,83.9999996280671,2|2,1:2|0:2,0:0:0:0:
316,37,39387,6,0,B|355:20|355:20|395:32,1,83.9999996280671,2|10,3:2|0:1,0:0:0:0:
494,132,39958,1,2,1:2:0:0:
494,132,40101,2,0,L|489:184,1,41.9999998140335,2|0,0:2|0:2,0:0:0:0:
424,213,40387,2,0,B|392:204|392:204|372:210|372:210|328:200,2,83.9999996280671,2|2|2,0:2|0:2|0:2,0:0:0:0:
489,250,41101,2,0,B|494:282|494:282|489:303|489:303|495:344,1,83.9999996280671,2|2,1:2|0:2,0:0:0:0:
338,286,41672,6,0,B|343:254|343:254|338:233|338:233|344:192,2,83.9999996280671,2|8|0,3:2|0:1|1:2,0:0:0:0:
212,341,42529,1,2,3:2:0:0:
212,341,42672,2,0,L|146:323,1,41.9999998140335,0|0,1:2|0:2,0:0:0:0:
98,351,42958,1,2,0:2:0:0:
98,351,43101,2,0,L|86:300,1,41.9999998140335,2|0,0:2|0:2,0:0:0:0:
28,263,43387,2,0,L|43:164,1,83.9999996280671,2|2,1:2|0:2,0:0:0:0:
149,98,43958,6,0,L|134:-1,2,83.9999996280671,2|8|0,3:2|0:1|1:2,0:0:0:0:
272,165,44815,1,2,0:2:0:0:
272,165,44958,2,0,L|325:157,1,41.9999998140335,2|0,0:2|1:2,0:0:0:0:
377,115,45244,1,8,2:3:0:0:
377,115,45387,2,0,L|430:123,1,41.9999998140335,8|8,2:3|2:3,0:0:0:0:
479,167,45672,2,0,L|488:278,1,83.9999996280671,10|0,1:1|0:0,0:0:0:0:
382,357,46244,5,6,3:2:0:0:
382,357,46387,2,0,L|307:345,1,44.7999980926514,2|8,0:2|0:3,0:0:0:0:
258,365,46672,1,2,0:2:0:0:
258,365,46815,2,0,B|223:353|223:353|200:360|200:360|157:343,1,89.5999961853028,2|2,1:2|0:2,0:0:0:0:
99,382,47244,2,0,L|80:286,1,89.5999961853028,2|2,1:2|1:2,0:0:0:0:
7,159,47815,1,2,3:2:0:0:
7,159,47958,2,0,L|26:65,1,89.5999961853028,0|2,1:2|3:2,0:0:0:0:
177,18,48529,6,0,L|188:106,1,89.5999961853028,10|10,2:3|2:3,0:0:0:0:
257,159,48958,1,10,2:3:0:0:
257,159,49101,2,0,L|299:143,1,44.7999980926514,2|0,1:2|0:2,0:0:0:0:
376,177,49387,1,2,0:2:0:0:
376,177,49529,2,0,L|397:71,1,89.5999961853028,2|2,0:2|1:2,0:0:0:0:
501,212,50101,1,2,1:2:0:0:
501,212,50244,2,0,L|488:312,1,89.5999961853028,6|6,2:3|2:3,0:0:0:0:
360,379,50815,5,2,3:2:0:0:
360,379,50958,2,0,L|373:309,1,44.7999980926514,2|8,0:2|0:3,0:0:0:0:
313,275,51244,1,2,0:2:0:0:
313,275,51387,2,0,L|300:184,1,89.5999961853028,2|2,1:2|0:2,0:0:0:0:
355,127,51815,2,0,L|369:27,1,89.5999961853028,2|2,1:2|1:2,0:0:0:0:
195,23,52387,1,2,3:2:0:0:
195,23,52529,2,0,L|204:131,1,89.5999961853028,2|0,1:2|3:2,0:0:0:0:
70,251,53101,6,0,L|51:163,1,89.5999961853028,2|8,3:2|0:3,0:0:0:0:
98,97,53529,1,2,0:2:0:0:
98,97,53672,2,0,L|128:130,1,44.7999980926514,2|0,1:2|0:2,0:0:0:0:
195,185,53958,1,2,0:2:0:0:
195,185,54101,2,0,L|289:164,2,89.5999961853028,2|2|10,1:2|1:2|2:3,0:0:0:0:
133,238,54815,2,0,B|117:279|117:279|142:345,1,89.5999961853028,6|6,2:3|2:3,0:0:0:0:
284,380,55387,5,2,3:2:0:0:
284,380,55529,2,0,L|349:352,1,44.7999980926514,2|8,0:2|0:3,0:0:0:0:
409,364,55815,1,2,0:2:0:0:
409,364,55958,2,0,L|468:369,1,44.7999980926514,2|0,1:2|0:2,0:0:0:0:
507,308,56244,1,2,0:2:0:0:
507,308,56387,1,2,1:2:0:0:
388,206,56672,1,2,1:2:0:0:
388,206,56815,2,0,L|392:102,2,89.5999961853028,2|2|2,1:2|1:2|1:2,0:0:0:0:
247,292,57672,6,0,L|151:277,1,89.5999961853028,10|10,0:3|0:3,0:0:0:0:
86,312,58101,1,10,0:3:0:0:
86,312,58244,2,0,L|72:256,1,44.7999980926514,2|0,1:2|0:2,0:0:0:0:
23,211,58529,1,2,0:2:0:0:
23,211,58672,2,0,L|42:145,1,44.7999980926514,2|0,0:2|0:2,0:0:0:0:
87,104,58958,2,0,L|75:48,2,44.7999980926514,2|2|2,1:2|1:2|1:2,0:0:0:0:
148,158,59387,2,0,B|186:177|186:177|249:159,1,89.5999961853028,6|10,0:3|2:3,0:0:0:0:
367,76,59958,5,2,3:2:0:0:
367,76,60101,2,0,L|403:51,1,44.7999980926514,2|8,0:2|0:3,0:0:0:0:
482,88,60387,1,2,0:2:0:0:
482,88,60529,2,0,L|477:153,1,44.7999980926514,2|0,1:2|0:2,0:0:0:0:
499,216,60815,1,2,0:2:0:0:
499,216,60958,2,0,L|477:313,1,89.5999961853028,2|2,1:2|1:2,0:0:0:0:
325,353,61529,1,2,3:2:0:0:
325,353,61672,2,0,L|309:254,1,89.5999961853028,2|0,1:2|3:2,0:0:0:0:
232,112,62244,6,0,P|194:88|150:83,1,89.5999961853028,10|10,2:3|2:3,0:0:0:0:
78,119,62672,1,10,2:3:0:0:
78,119,62815,2,0,L|89:229,1,89.5999961853028,2|2,1:2|0:2,0:0:0:0:
34,269,63244,2,0,L|70:365,1,89.5999961853028,2|2,0:2|1:2,0:0:0:0:
225,370,63815,1,0,3:2:0:0:
225,370,63958,2,0,L|264:273,1,89.5999961853028,6|10,0:3|2:3,0:0:0:0:
408,170,64529,6,0,B|447:164|447:164|468:178|468:178|516:175,2,100.799992632294,6|8|0,3:2|0:1|1:0,0:0:0:0:
274,88,65387,1,8,0:1:0:0:
274,88,65529,2,0,B|235:82|235:82|214:96|214:96|166:93,1,100.799992632294,0|0,1:0|1:0,0:0:0:0:
97,56,65958,2,0,L|111:169,1,100.799992632294,10|0,0:1|1:0,0:0:0:0:
33,298,66529,1,2,0:0:0:0:
181,361,66815,6,0,B|220:351|220:351|241:359|241:359|309:362,2,100.799992632294,4|8|0,0:3|0:1|1:0,0:0:0:0:
41,305,67672,1,8,0:1:0:0:
41,305,67815,1,4,0:3:0:0:
41,305,67958,2,0,B|43:268|43:268|30:246|30:246|24:198,1,100.799992632294,8|8,0:1|0:1,0:0:0:0:
53,49,68529,2,0,B|115:67|115:67|173:35|173:35|247:53,1,201.599985264588,2|10,1:0|0:3,0:0:0:0:
245,55,69387,6,0,L|251:114,1,50.399996316147,10|0,0:1|0:0,0:0:0:0:
319,154,69672,1,2,1:2:0:0:
319,154,69815,2,0,L|340:101,1,50.399996316147,2|8,0:0|0:3,0:0:0:0:
393,47,70101,2,0,B|439:32|439:32|501:68,1,100.799992632294,2|2,0:0|0:0,0:0:0:0:
499,225,70672,1,10,0:3:0:0:
499,225,70815,2,0,B|453:251|453:251|407:236,1,100.799992632294,2|2,1:2|0:0,0:0:0:0:
286,127,71387,5,10,0:3:0:0:
217,272,71672,2,0,L|202:337,1,50.399996316147,10|0,0:1|0:0,0:0:0:0:
138,367,71958,1,2,1:0:0:0:
138,367,72101,2,0,P|108:364|81:356,1,50.399996316147,2|8,0:0|0:3,0:0:0:0:
37,295,72387,2,0,L|34:178,1,100.799992632294,2|2,0:0|0:0,0:0:0:0:
133,66,72958,1,10,0:3:0:0:
133,66,73101,2,0,B|186:54|178:85|230:79,1,100.799992632294,2|2,1:2|0:0,0:0:0:0:
386,121,73672,6,0,L|400:21,2,100.799992632294,6|8|0,3:2|0:1|1:0,0:0:0:0:
484,248,74529,1,8,0:1:0:0:
484,248,74672,2,0,P|442:220|392:214,1,100.799992632294,0|0,1:0|1:0,0:0:0:0:
319,249,75101,2,0,P|277:276|227:282,1,100.799992632294,10|0,0:1|1:0,0:0:0:0:
69,248,75672,1,2,0:0:0:0:
176,113,75958,6,0,L|184:225,1,100.799992632294,10|8,0:3|0:1,0:0:0:0:
232,286,76387,1,8,0:3:0:0:
232,286,76529,2,0,B|287:279|275:307|330:300,1,100.799992632294,2|8,1:2|0:1,0:0:0:0:
406,339,76958,1,8,0:3:0:0:
406,339,77101,2,0,L|413:225,1,100.799992632294,2|8,0:2|0:1,0:0:0:0:
509,109,77672,2,0,L|484:4,1,100.799992632294,10|2,1:1|0:0,0:0:0:0:
366,189,78244,6,0,L|284:207,1,83.9999996280671,6|2,3:2|2:0,0:0:0:0:
340,62,78815,2,0,L|258:44,1,83.9999996280671,2|2,1:2|3:2,0:0:0:0:
198,165,79387,1,2,1:2:0:0:
123,53,79672,1,2,3:2:0:0:
257,43,79958,1,2,1:2:0:0:
198,165,80244,6,0,L|193:235,4,55.9999976158142,2|0|8|0|8,3:2|1:0|0:3|1:0|0:3,0:0:0:0:
123,53,81672,5,2,1:2:0:0:
123,53,82244,6,0,B|41:41|41:41|4:73,1,125.999999442101,2|0,0:0|0:0,0:0:0:0:
6,178,82815,5,6,3:2:0:0:
6,178,83101,2,0,B|49:196|49:196|59:240|59:240|121:269,1,134.399990176392,10|8,0:1|2:2,0:0:0:0:
200,239,83529,2,0,L|183:174,1,67.199995088196,10|0,0:1|0:0,0:0:0:0:
256,95,83815,2,0,P|286:107|311:130,1,67.199995088196,2|0,0:0|0:0,0:0:0:0:
184,175,84101,2,0,P|163:148|153:116,1,67.199995088196,2|4,0:0|0:3,0:0:0:0:
191,11,84387,1,8,0:3:0:0:
256,95,84529,2,0,B|302:102|302:102|336:82|336:82|410:100,1,134.399990176392,10|10,2:2|0:3,0:0:0:0:
383,93,85101,5,4,0:3:0:0:
509,267,85387,2,0,L|497:335,1,67.199995088196,10|0,0:1|0:0,0:0:0:0:
393,361,85672,1,10,2:2:0:0:
312,287,85815,2,0,P|284:271|250:270,1,67.199995088196,10|0,0:1|0:0,0:0:0:0:
394,216,86101,2,0,P|389:183|376:153,1,67.199995088196,2|0,0:0|0:0,0:0:0:0:
293,81,86387,2,0,P|259:77|174:11,1,134.399990176392,2|10,0:0|0:3,0:0:0:0:
76,50,86815,2,0,P|61:85|58:144,1,67.199995088196,10|0,2:2|0:0,0:0:0:0:
60,221,87101,1,8,0:3:0:0:
60,221,87244,1,4,0:3:0:0:
165,178,87387,6,0,B|207:168|207:168|243:182|243:182|295:174,2,134.399990176392,10|8|8,0:3|0:1|2:2,0:0:0:0:
15,336,88244,1,8,0:3:0:0:
15,336,88387,2,0,L|94:326,1,67.199995088196,8|4,0:1|3:3,0:0:0:0:
236,305,88672,1,0,3:2:0:0:
236,305,88815,2,0,L|154:283,1,67.199995088196,8|8,3:1|3:3,0:0:0:0:
69,206,89101,2,0,P|54:141|72:77,1,134.399990176392,10|10,1:1|1:1,0:0:0:0:
75,80,89672,6,0,P|138:102|200:79,1,134.399990176392,10|8,0:3|0:1,0:0:0:0:
285,11,90101,1,8,0:3:0:0:
330,108,90244,2,0,B|339:154|339:154|324:195|324:195|336:248,1,134.399990176392,10|8,2:2|0:1,0:0:0:0:
416,306,90672,1,8,0:3:0:0:
473,214,90815,6,0,L|461:127,1,67.199995088196,6|8,1:3|3:1,0:0:0:0:
416,306,91101,2,0,L|428:393,1,67.199995088196,6|8,1:3|3:1,0:0:0:0:
333,237,91387,6,0,L|252:213,1,67.199995088196,10|8,1:3|1:1,0:0:0:0:
239,338,91672,2,0,L|158:362,1,67.199995088196,6|8,1:3|1:1,0:0:0:0:
59,291,91958,6,0,B|54:248|54:248|69:211|69:211|61:160,1,134.399990176392,6|10,3:2|0:1,0:0:0:0:
274,179,92529,1,8,2:2:0:0:
274,179,92672,2,0,L|282:106,1,67.199995088196,10|0,0:1|0:0,0:0:0:0:
208,31,92958,2,0,L|140:40,1,67.199995088196,2|0,0:0|0:0,0:0:0:0:
281,112,93244,2,0,L|349:103,1,67.199995088196,2|4,0:0|0:3,0:0:0:0:
434,38,93529,1,8,0:3:0:0:
493,127,93672,2,0,B|486:173|486:173|506:207|506:207|488:281,1,134.399990176392,10|10,2:2|0:3,0:0:0:0:
494,254,94244,5,10,0:3:0:0:
310,367,94529,2,0,L|218:347,1,67.199995088196,10|0,0:1|0:0,0:0:0:0:
137,366,94815,1,10,2:2:0:0:
54,297,94958,2,0,L|48:216,1,67.199995088196,10|0,0:1|0:0,0:0:0:0:
111,141,95244,2,0,L|117:74,1,67.199995088196,2|0,0:0|0:0,0:0:0:0:
205,193,95529,2,0,B|250:181|250:181|291:200|291:200|352:190,1,134.399990176392,2|10,0:0|0:3,0:0:0:0:
400,108,95958,2,0,B|404:80|404:80|400:69|400:69|404:42,1,67.199995088196,10|0,2:2|0:0,0:0:0:0:
448,205,96244,1,8,0:3:0:0:
448,205,96387,1,4,0:3:0:0:
333,193,96529,6,0,B|291:184|291:184|250:203|250:203|205:191,2,134.399990176392,10|8|8,0:3|0:1|2:2,0:0:0:0:
462,366,97387,1,8,0:3:0:0:
495,263,97529,2,0,L|482:181,1,67.199995088196,8|4,0:1|3:3,0:0:0:0:
462,366,97815,1,0,3:2:0:0:
363,323,97958,2,0,L|281:301,1,67.199995088196,8|8,3:1|3:3,0:0:0:0:
198,348,98244,2,0,B|148:340|148:340|119:353|119:353|66:347,1,134.399990176392,10|10,1:1|1:1,0:0:0:0:
71,351,98815,6,0,L|65:198,1,134.399990176392,6|10,0:3|0:1,0:0:0:0:
19,118,99244,1,10,0:3:0:0:
102,50,99387,2,0,B|143:43|143:43|186:60|186:60|232:52,1,134.399990176392,8|10,2:2|0:1,0:0:0:0:
316,124,99815,1,10,0:3:0:0:
412,85,99958,6,0,B|424:53|424:53|419:20,1,67.199995088196,6|8,1:3|3:1,0:0:0:0:
316,124,100244,2,0,B|304:156|304:156|308:188,1,67.199995088196,6|8,1:3|3:1,0:0:0:0:
455,246,100529,6,0,L|438:163,1,67.199995088196,10|8,1:3|1:1,0:0:0:0:
349,300,100815,2,0,L|366:383,1,67.199995088196,6|8,1:3|1:1,0:0:0:0:
231,250,101101,6,0,B|187:243|187:243|149:261|149:261|101:252,1,134.399990176392,6|10,3:2|0:1,0:0:0:0:
25,51,101672,1,8,2:2:0:0:
25,51,101815,2,0,L|96:35,1,67.199995088196,10|0,0:1|0:0,0:0:0:0:
127,137,102101,2,0,L|198:153,1,67.199995088196,2|0,0:0|0:0,0:0:0:0:
242,44,102387,2,0,L|310:35,1,67.199995088196,2|4,0:0|0:3,0:0:0:0:
391,105,102672,1,8,0:3:0:0:
488,33,102815,2,0,B|474:186,1,134.399990176392,10|10,2:2|0:3,0:0:0:0:
475,166,103387,5,4,0:3:0:0:
504,379,103672,2,0,L|485:292,1,67.199995088196,10|0,0:1|0:0,0:0:0:0:
398,256,103958,1,10,2:2:0:0:
304,307,104101,2,0,L|280:370,1,67.199995088196,10|0,0:1|0:0,0:0:0:0:
236,223,104387,2,0,L|215:158,1,67.199995088196,2|0,0:0|0:0,0:0:0:0:
156,296,104672,2,0,B|111:284|111:284|70:303|70:303|9:293,1,134.399990176392,2|10,0:0|0:3,0:0:0:0:
0,181,105101,2,0,L|33:113,1,67.199995088196,10|0,2:2|0:0,0:0:0:0:
108,22,105387,1,10,0:3:0:0:
177,89,105529,1,4,0:3:0:0:
280,37,105672,6,0,B|322:28|322:28|353:47|353:47|416:41,2,134.399990176392,10|8|8,0:3|0:1|2:2,0:0:0:0:
108,176,106529,1,8,0:3:0:0:
199,233,106672,2,0,L|288:212,1,67.199995088196,8|4,0:1|3:3,0:0:0:0:
362,273,106958,1,0,3:2:0:0:
449,211,107101,2,0,L|452:124,1,67.199995088196,8|8,3:1|3:3,0:0:0:0:
362,273,107387,2,0,B|320:284|320:284|280:310|280:310|235:322,1,134.399990176392,10|10,1:1|1:1,0:0:0:0:
242,325,107958,6,0,L|106:314,1,134.399990176392,10|8,0:3|0:1,0:0:0:0:
10,360,108387,1,8,0:3:0:0:
19,252,108529,2,0,B|30:203|30:203|24:177|24:177|36:120,1,134.399990176392,10|8,2:2|0:1,0:0:0:0:
119,52,108958,1,8,0:3:0:0:
204,118,109101,6,0,L|280:135,1,67.199995088196,6|8,1:3|3:1,0:0:0:0:
119,52,109387,2,0,L|43:35,1,67.199995088196,6|8,1:3|3:1,0:0:0:0:
109,178,109672,5,10,1:3:0:0:
109,178,109815,1,8,1:1:0:0:
204,118,109958,2,0,L|223:53,1,67.199995088196,6|8,1:3|1:1,0:0:0:0:
359,32,110244,6,0,B|402:27|402:27|437:45|437:45|491:41,1,134.399990176392,6|10,3:2|0:1,0:0:0:0:
501,256,110815,1,8,2:2:0:0:
405,205,110958,2,0,L|399:138,1,67.199995088196,10|0,0:1|0:0,0:0:0:0:
335,287,111244,2,0,L|266:279,1,67.199995088196,2|0,0:0|0:0,0:0:0:0:
211,187,111529,2,0,L|279:178,1,67.199995088196,2|4,0:0|0:3,0:0:0:0:
178,316,111815,1,8,0:3:0:0:
123,233,111958,2,0,B|112:189|112:189|120:151|120:151|112:101,1,134.399990176392,10|10,2:2|0:3,0:0:0:0:
112,101,112529,5,10,0:3:0:0:
315,31,112815,2,0,L|397:41,1,67.199995088196,10|0,0:1|0:0,0:0:0:0:
342,138,113101,1,10,2:2:0:0:
236,107,113244,2,0,L|203:30,1,67.199995088196,10|0,0:1|0:0,0:0:0:0:
342,138,113529,2,0,L|292:204,1,67.199995088196,2|0,0:0|0:0,0:0:0:0:
173,200,113815,2,0,B|218:206|218:206|258:184|258:184|300:191,1,134.399990176392,2|10,0:0|0:3,0:0:0:0:
303,304,114244,2,0,L|364:341,1,67.199995088196,10|0,2:2|0:0,0:0:0:0:
496,334,114529,1,8,0:3:0:0:
440,261,114672,1,4,0:3:0:0:
496,171,114815,6,0,B|504:128|504:128|486:97|486:97|492:34,2,134.399990176392,10|8|8,0:3|0:1|2:2,0:0:0:0:
360,338,115672,1,8,0:3:0:0:
285,259,115815,2,0,L|275:184,1,67.199995088196,8|4,0:1|3:3,0:0:0:0:
252,363,116101,1,0,3:2:0:0:
177,284,116244,2,0,L|167:209,1,67.199995088196,8|8,3:1|3:3,0:0:0:0:
131,114,116529,2,0,B|89:103|89:103|49:77|49:77|4:65,1,134.399990176392,10|10,1:1|1:1,0:0:0:0:
11,69,117101,6,0,B|54:69|54:69|99:54|99:54|146:54,1,134.399990176392,6|10,0:3|0:1,0:0:0:0:
257,11,117529,1,8,0:3:0:0:
299,124,117672,2,0,B|307:272,1,134.399990176392,8|10,2:2|0:3,0:0:0:0:
387,347,118101,1,10,0:3:0:0:
484,255,118244,6,0,L|503:167,1,67.199995088196,6|8,1:3|3:1,0:0:0:0:
421,94,118529,2,0,L|405:18,1,67.199995088196,6|8,1:3|3:1,0:0:0:0:
305,160,118815,5,10,1:3:0:0:
220,104,118958,1,8,1:1:0:0:
160,184,119101,2,0,L|150:290,1,67.199995088196,6|8,1:3|1:1,0:0:0:0:
66,115,119387,5,6,3:2:0:0:
256,192,119458,12,2,121387,0:0:0:0:
2,147,123958,6,0,P|172:74|104:246,1,470.399965617372,2|2,3:2|0:2,0:0:0:0:
504,232,128529,6,0,P|363:163|400:316,1,391.9999833107,2|2,3:2|0:0,0:0:0:0:
