osu file format v14

[General]
AudioFilename: audio.mp3
AudioLeadIn: 0
PreviewTime: 45672
Countdown: 0
SampleSet: Soft
StackLeniency: 0.2
Mode: 0
LetterboxInBreaks: 0
WidescreenStoryboard: 1

[Editor]
Bookmarks: 9591,25591,27877,37101,46163,64449,73672,82734,91877,101020,110163,128529,133101
DistanceSpacing: 0.7
BeatDivisor: 4
GridSize: 32
TimelineZoom: 1.9

[Metadata]
Title:leap in your mind
TitleUnicode:leap in your mind
Artist:solfa feat. Shimotsuki Haruka
ArtistUnicode:solfa feat. 霜月はるか
Creator:Lasse
Version:Expert
Source:仄暗き時の果てより
Tags:Honoguraki Toki no Hate Yori short version eroge visual novel opening iyuna moonstone sweet heart 結び音リボン Daichi no Oto Kalibe Mir
BeatmapID:1718542
BeatmapSetID:818672

[Difficulty]
HPDrainRate:6
CircleSize:5
OverallDifficulty:7.8
ApproachRate:8.3
SliderMultiplier:1.99999990463257
SliderTickRate:1

[Events]
//Background and Video events
0,0,"137.jpg",0,0
//Break Periods
//Storyboard Layer 0 (Background)
//Storyboard Layer 1 (Fail)
//Storyboard Layer 2 (Pass)
//Storyboard Layer 3 (Foreground)
//Storyboard Sound Samples

[TimingPoints]
530,571.428571428571,4,2,2,30,1,0
530,-200,4,2,2,30,0,0
9387,-133.333333333333,4,2,2,40,0,0
9529,-100,4,2,2,25,0,0
9672,-100,4,2,1,65,0,0
9815,-100,4,2,2,65,0,0
18815,-100,4,2,1,65,0,0
18958,-100,4,2,2,65,0,0
25672,-100,4,2,2,50,0,0
27958,-133.333333333333,4,2,1,50,0,0
29672,-133.333333333333,4,2,1,50,0,0
30244,-133.333333333333,4,2,1,50,0,0
36244,-133.333333333333,4,2,2,50,0,0
36529,-133.333333333333,4,2,1,50,0,0
37101,-133.333333333333,4,2,1,50,0,0
38815,-133.333333333333,4,2,1,50,0,0
39387,-133.333333333333,4,2,1,50,0,0
45244,-133.333333333333,4,2,2,50,0,0
45672,-200,4,2,1,50,0,0
46101,-133.333333333333,4,2,1,20,0,0
46244,-125,4,2,1,50,0,0
47958,-125,4,2,1,50,0,0
48529,-125,4,2,2,50,0,0
49101,-125,4,2,1,50,0,0
50244,-125,4,2,2,50,0,0
50815,-125,4,2,1,50,0,0
52529,-125,4,2,1,50,0,0
53101,-125,4,2,1,50,0,0
54672,-125,4,2,2,50,0,0
55387,-125,4,2,1,50,0,0
57101,-125,4,2,2,50,0,0
57672,-125,4,2,2,50,0,0
58244,-125,4,2,1,50,0,0
59387,-125,4,2,2,50,0,0
59958,-125,4,2,1,50,0,0
61672,-125,4,2,1,50,0,0
62244,-125,4,2,2,50,0,0
62815,-125,4,2,1,50,0,0
63958,-125,4,2,2,50,0,0
64529,-111.111111111111,4,2,1,60,0,0
64815,-111.111111111111,4,2,2,60,0,0
68529,-111.111111111111,4,2,2,60,0,0
69387,-111.111111111111,4,2,2,60,0,0
70815,-111.111111111111,4,2,2,60,0,0
71387,-111.111111111111,4,2,2,60,0,0
73101,-111.111111111111,4,2,2,60,0,0
73672,-111.111111111111,4,2,1,60,0,0
73958,-111.111111111111,4,2,2,60,0,0
77672,-111.111111111111,4,2,2,60,0,0
78244,-133.333333333333,4,2,1,60,0,0
80244,-266.666666666667,4,2,1,50,0,0
81672,-111.111111111111,4,2,1,50,0,0
82244,-200,4,2,1,60,0,0
82672,-99.9999999999999,4,2,1,30,0,0
82815,-90.9090909090909,4,2,1,70,0,1
83101,-90.9090909090909,4,2,2,70,0,1
91387,-90.9090909090909,4,2,2,70,0,0
91958,-90.9090909090909,4,2,1,70,0,1
92244,-90.9090909090909,4,2,2,70,0,1
100529,-90.9090909090909,4,2,2,70,0,0
101101,-90.9090909090909,4,2,1,70,0,1
101387,-90.9090909090909,4,2,2,70,0,1
109672,-90.9090909090909,4,2,2,70,0,0
110244,-90.9090909090909,4,2,1,70,0,1
110529,-90.9090909090909,4,2,2,70,0,1
119387,-90.9090909090909,4,2,1,60,0,0
121101,-125,4,2,1,30,0,0
121387,-125,4,2,1,40,0,0
121958,-125,4,2,1,40,0,0
123958,-166.666666666667,4,2,1,40,0,0
125958,-200,4,2,1,35,0,0
126529,-200,4,2,1,35,0,0
128529,-333.333333333333,4,2,1,30,0,0
128672,-333.333333333333,4,2,1,20,0,0
131387,-333.333333333333,4,2,1,10,0,0

[Colours]
Combo1 : 255,192,128
Combo2 : 255,128,128
Combo3 : 255,210,128
Combo4 : 255,150,190

[HitObjects]
179,17,530,6,0,B|187:28|187:28|191:43,1,24.9999988079071,2|2,0:0|0:0,0:0:0:0:
383,82,2529,5,2,0:0:0:0:
383,82,2815,2,0,B|375:93|375:93|371:108,1,24.9999988079071,2|2,0:0|0:0,0:0:0:0:
130,246,5101,6,0,B|138:257|138:257|142:272,1,24.9999988079071,2|2,0:0|0:0,0:0:0:0:
399,315,7101,5,2,0:0:0:0:
399,315,7387,2,0,B|391:326|391:326|387:341,1,24.9999988079071,2|2,0:0|0:0,0:0:0:0:
3,369,9387,6,0,B|0:354|0:354|3:344|3:344|3:332,1,37.4999996423721
56,239,9672,6,0,B|112:223|112:223|162:244,1,99.9999952316285,6|8,3:2|0:1,0:0:0:0:
210,276,10101,1,0,3:1:0:0:
105,343,10244,1,8,2:2:0:0:
105,343,10529,5,8,0:3:0:0:
171,365,10672,1,4,0:3:0:0:
210,276,10815,5,8,3:3:0:0:
270,240,10958,1,8,3:3:0:0:
332,274,11101,1,4,3:3:0:0:
272,310,11244,1,4,3:0:0:0:
268,170,11387,5,10,2:2:0:0:
512,45,11672,1,8,0:3:0:0:
512,45,11958,6,0,B|472:24|472:24|385:40,1,99.9999952316285,10|8,2:3|0:1,0:0:0:0:
352,60,12387,1,0,3:1:0:0:
505,138,12529,1,8,2:2:0:0:
505,138,12815,5,8,0:3:0:0:
439,160,12958,1,4,0:3:0:0:
352,60,13101,5,8,3:3:0:0:
375,129,13244,1,8,3:3:0:0:
439,160,13387,1,4,3:3:0:0:
505,138,13529,1,4,3:0:0:0:
418,33,13672,5,10,2:2:0:0:
203,205,13958,1,6,0:3:0:0:
203,205,14101,1,6,0:3:0:0:
146,162,14244,2,0,B|116:153|116:153|78:165|78:165|37:151,2,99.9999952316285,10|8|8,3:3|0:1|2:2,0:0:0:0:
278,108,15101,5,8,0:3:0:0:
212,135,15244,1,4,0:3:0:0:
212,135,15529,5,8,3:3:0:0:
157,90,15672,1,4,3:3:0:0:
87,94,15815,1,4,3:0:0:0:
0,19,15958,5,8,2:2:0:0:
45,317,16244,1,4,0:3:0:0:
45,317,16529,6,0,B|78:304|78:304|106:311|106:311|152:294,1,99.9999952316285,10|8,2:3|0:1,0:0:0:0:
203,269,16958,1,0,3:1:0:0:
62,239,17101,1,8,2:2:0:0:
62,239,17387,5,8,0:3:0:0:
111,186,17529,1,4,0:3:0:0:
249,218,17672,5,8,3:3:0:0:
180,202,17815,1,8,3:3:0:0:
159,134,17958,1,4,3:3:0:0:
207,81,18101,1,4,3:0:0:0:
310,181,18244,5,10,2:2:0:0:
481,27,18529,1,10,0:3:0:0:
481,27,18815,6,0,B|458:58|458:58|469:139,1,99.9999952316285,6|8,3:2|0:1,0:0:0:0:
476,188,19244,1,0,3:1:0:0:
383,59,19387,1,8,2:2:0:0:
383,59,19672,5,8,0:3:0:0:
372,128,19815,1,4,0:3:0:0:
288,176,19958,5,8,3:3:0:0:
272,107,20101,1,8,3:3:0:0:
203,123,20244,1,4,3:3:0:0:
219,192,20387,1,4,3:0:0:0:
272,107,20530,5,10,2:2:0:0:
316,354,20815,1,8,0:3:0:0:
316,354,21101,6,0,B|350:345|350:345|377:358|377:358|443:349,1,99.9999952316285,10|8,2:3|0:1,0:0:0:0:
479,335,21530,1,0,3:1:0:0:
325,279,21672,1,8,2:2:0:0:
325,279,21958,5,8,0:3:0:0:
394,287,22101,1,4,0:3:0:0:
478,177,22244,5,8,3:3:0:0:
436,232,22387,1,8,3:3:0:0:
409,168,22530,1,4,3:3:0:0:
451,113,22672,1,4,3:0:0:0:
505,241,22815,5,10,2:2:0:0:
393,31,23101,1,4,0:3:0:0:
393,31,23244,1,4,0:3:0:0:
343,80,23387,2,0,B|332:112|332:112|341:141|341:141|338:185,2,99.9999952316285,10|8|8,3:3|0:1|2:2,0:0:0:0:
221,2,24244,5,10,0:3:0:0:
282,41,24387,1,4,0:3:0:0:
282,41,24672,5,8,3:3:0:0:
218,75,24815,1,4,3:3:0:0:
156,36,24958,1,4,3:0:0:0:
26,104,25101,5,4,3:3:0:0:
154,109,25244,1,4,3:3:0:0:
91,70,25387,1,4,3:3:0:0:
90,143,25530,1,4,3:0:0:0:
256,192,25672,5,10,2:3:0:0:
403,224,27958,5,4,3:2:0:0:
494,363,28244,2,0,L|487:313,1,37.4999996423721,10|0,0:1|0:2,0:0:0:0:
403,224,28529,5,2,1:2:0:0:
374,285,28672,1,2,0:2:0:0:
365,169,28958,5,2,0:2:0:0:
306,290,29244,1,2,0:2:0:0:
298,174,29529,5,2,3:2:0:0:
269,235,29671,1,2,1:2:0:0:
366,42,29958,5,2,0:2:0:0:
366,42,30244,5,2,3:2:0:0:
512,116,30529,2,0,L|464:111,1,37.4999996423721,10|0,0:1|0:2,0:0:0:0:
366,42,30815,5,2,1:2:0:0:
352,134,30958,1,2,0:2:0:0:
251,72,31244,6,0,B|223:62|223:62|201:68|201:68|164:57,2,74.9999992847443,2|2|2,0:2|0:2|0:2,0:0:0:0:
352,134,31958,5,2,1:2:0:0:
145,165,32244,1,2,0:2:0:0:
145,165,32529,6,0,B|131:197|131:197|133:221|133:221|125:247,2,74.9999992847443,2|8|0,3:2|2:1|1:2,0:0:0:0:
251,72,33387,5,2,3:2:0:0:
281,131,33529,1,2,1:2:0:0:
281,131,33815,5,2,0:2:0:0:
245,188,33958,1,2,0:2:0:0:
289,239,34101,1,0,0:2:0:0:
244,313,34244,5,2,1:2:0:0:
21,216,34529,1,2,0:2:0:0:
21,216,34815,6,0,B|20:189|20:189|14:174|14:174|11:132,2,74.9999992847443,2|8|0,0:2|0:1|1:2,0:0:0:0:
219,320,35672,5,2,0:2:0:0:
205,253,35815,2,0,L|217:206,1,37.4999996423721,2|0,0:2|1:2,0:0:0:0:
98,254,36101,5,2,0:2:0:0:
130,194,36244,2,0,L|121:147,1,37.4999996423721,8|8,2:3|2:3,0:0:0:0:
215,79,36529,5,2,1:2:0:0:
512,192,36815,1,2,0:2:0:0:
512,192,37101,5,2,3:2:0:0:
456,27,37387,2,0,L|449:77,1,37.4999996423721,10|0,0:1|0:2,0:0:0:0:
360,177,37672,5,2,1:2:0:0:
308,52,37815,1,2,0:2:0:0:
401,123,38101,5,2,0:2:0:0:
267,106,38387,1,2,0:2:0:0:
374,60,38672,5,2,3:2:0:0:
293,168,38815,1,2,1:2:0:0:
61,15,39101,5,2,0:2:0:0:
61,15,39387,5,2,3:2:0:0:
52,181,39672,2,0,L|62:133,1,37.4999996423721,10|0,0:1|0:2,0:0:0:0:
185,41,39958,5,2,1:2:0:0:
210,173,40101,1,2,0:2:0:0:
334,114,40387,6,0,B|338:88|338:88|333:65|333:65|344:24,2,74.9999992847443,2|2|2,0:2|0:2|0:2,0:0:0:0:
393,191,41101,5,2,1:2:0:0:
126,266,41387,1,2,0:2:0:0:
126,266,41672,6,0,B|94:250|94:250|70:251|70:251|45:241,2,74.9999992847443,2|8|0,3:2|0:1|1:2,0:0:0:0:
268,323,42530,5,2,3:2:0:0:
203,340,42672,1,0,1:2:0:0:
203,340,42958,5,2,0:2:0:0:
221,276,43101,1,2,0:2:0:0:
285,259,43244,1,0,0:2:0:0:
315,370,43387,5,2,1:2:0:0:
512,233,43672,1,2,0:2:0:0:
512,233,43958,6,0,B|511:206|511:206|502:183|502:183|510:148,2,74.9999992847443,2|8|0,3:2|0:1|1:2,0:0:0:0:
376,326,44815,5,2,0:2:0:0:
381,258,44958,2,0,L|398:213,1,37.4999996423721,2|0,0:2|1:2,0:0:0:0:
512,233,45244,5,8,2:3:0:0:
451,262,45387,1,8,2:3:0:0:
456,194,45529,1,8,2:3:0:0:
477,68,45672,6,0,B|463:87|463:87|458:122|458:122|451:108,1,74.9999964237214,10|0,1:1|0:2,0:0:0:0:
337,30,46244,5,6,3:2:0:0:
308,95,46387,2,0,L|347:102,1,39.9999980926514,2|8,0:2|0:3,0:0:0:0:
236,164,46672,1,2,0:2:0:0:
199,101,46815,2,0,L|239:94,1,39.9999980926514,2|0,1:2|0:2,0:0:0:0:
126,30,47101,1,2,0:2:0:0:
91,92,47244,2,0,L|131:100,1,39.9999980926514,2|8,1:2|0:3,0:0:0:0:
347,102,47529,2,0,L|308:95,1,39.9999980926514,2|0,1:2|1:2,0:0:0:0:
337,30,47815,1,2,3:2:0:0:
370,168,47958,5,0,1:2:0:0:
91,92,48244,1,2,3:2:0:0:
91,92,48529,5,10,2:3:0:0:
50,146,48672,1,10,2:3:0:0:
88,202,48815,1,10,2:3:0:0:
54,261,48958,1,10,2:3:0:0:
82,323,49101,2,0,L|142:328,1,39.9999980926514,2|0,1:2|0:2,0:0:0:0:
237,257,49387,1,2,0:2:0:0:
226,326,49529,2,0,L|189:313,1,39.9999980926514,2|0,0:2|0:2,0:0:0:0:
192,199,49815,2,0,L|242:186,2,39.9999980926514,2|0|0,1:2|1:2|1:2,0:0:0:0:
154,256,50244,5,6,2:3:0:0:
124,194,50387,1,6,2:3:0:0:
162,138,50529,1,6,2:3:0:0:
192,199,50672,1,6,2:3:0:0:
86,251,50815,5,2,3:2:0:0:
54,190,50958,2,0,L|-4:179,1,39.9999980926514,2|8,0:2|0:3,0:0:0:0:
162,138,51244,1,2,0:2:0:0:
230,140,51387,2,0,L|268:95,1,39.9999980926514,2|0,1:2|0:2,0:0:0:0:
221,259,51672,1,2,0:2:0:0:
185,317,51815,2,0,L|204:372,1,39.9999980926514,2|8,1:2|0:3,0:0:0:0:
54,190,52101,2,0,L|-4:179,1,39.9999980926514,2|0,1:2|1:2,0:0:0:0:
230,140,52387,1,2,3:2:0:0:
154,216,52529,5,2,1:2:0:0:
343,26,52815,1,0,3:2:0:0:
343,26,53101,5,2,3:2:0:0:
277,55,53244,2,0,L|270:15,1,39.9999980926514,2|8,0:2|0:3,0:0:0:0:
407,110,53529,1,2,0:2:0:0:
341,139,53672,2,0,L|334:99,1,39.9999980926514,2|0,1:2|0:2,0:0:0:0:
471,194,53958,1,2,0:2:0:0:
405,223,54101,2,0,L|398:183,1,39.9999980926514,2|8,1:2|0:3,0:0:0:0:
270,15,54387,2,0,L|277:55,1,39.9999980926514,2|0,1:2|1:2,0:0:0:0:
255,155,54672,1,10,2:3:0:0:
334,99,54815,5,6,2:3:0:0:
398,183,54958,1,6,2:3:0:0:
482,119,55101,1,6,2:3:0:0:
418,35,55244,1,6,2:3:0:0:
408,109,55387,5,2,3:2:0:0:
334,99,55529,2,0,L|283:93,1,39.9999980926514,2|8,0:2|0:3,0:0:0:0:
398,183,55815,1,2,0:2:0:0:
324,173,55958,2,0,L|273:167,1,39.9999980926514,2|0,1:2|0:2,0:0:0:0:
388,257,56245,1,2,0:2:0:0:
314,247,56387,2,0,L|263:241,1,39.9999980926514,2|8,1:2|0:3,0:0:0:0:
378,331,56672,1,2,1:2:0:0:
304,321,56815,2,0,L|253:315,1,39.9999980926514,2|2,1:2|1:2,0:0:0:0:
215,196,57101,5,2,1:2:0:0:
175,298,57244,1,0,1:2:0:0:
106,212,57387,1,2,1:2:0:0:
106,212,57672,5,10,0:3:0:0:
83,276,57815,1,10,0:3:0:0:
19,253,57958,1,10,0:3:0:0:
42,189,58101,1,10,0:3:0:0:
106,212,58244,2,0,L|163:201,1,39.9999980926514,2|0,1:2|0:2,0:0:0:0:
194,89,58529,1,2,0:2:0:0:
130,66,58672,2,0,L|73:77,1,39.9999980926514,2|0,0:2|0:2,0:0:0:0:
195,158,58958,5,2,1:2:0:0:
254,125,59101,1,2,1:2:0:0:
305,169,59244,1,2,1:2:0:0:
412,107,59387,5,6,0:3:0:0:
457,339,59672,1,10,2:3:0:0:
457,339,59958,5,2,3:2:0:0:
390,308,60101,2,0,L|385:349,1,39.9999980926514,2|8,0:2|0:3,0:0:0:0:
322,236,60387,1,2,0:2:0:0:
386,203,60530,2,0,L|391:241,1,39.9999980926514,2|0,1:2|0:2,0:0:0:0:
460,128,60815,1,2,0:2:0:0:
396,95,60958,2,0,L|390:133,1,39.9999980926514,2|8,1:2|0:3,0:0:0:0:
385,347,61244,2,0,L|390:308,1,39.9999980926514,2|0,1:2|1:2,0:0:0:0:
386,203,61529,1,2,3:2:0:0:
304,239,61672,5,2,1:2:0:0:
244,205,61815,1,2,0:0:0:0:
201,258,61958,1,0,3:2:0:0:
201,258,62244,5,10,2:3:0:0:
261,289,62387,1,10,2:3:0:0:
304,239,62529,1,10,2:3:0:0:
244,205,62672,1,10,2:3:0:0:
201,258,62815,2,0,L|142:248,1,39.9999980926514,2|0,1:2|0:2,0:0:0:0:
90,132,63101,1,2,0:2:0:0:
133,185,63244,2,0,L|192:175,1,39.9999980926514,2|0,0:2|0:2,0:0:0:0:
256,64,63529,5,2,1:2:0:0:
222,123,63672,1,0,1:2:0:0:
160,94,63815,1,0,3:2:0:0:
180,0,63958,5,6,0:3:0:0:
414,188,64244,1,10,2:3:0:0:
414,188,64529,6,0,B|425:159|425:159|418:141|418:141|425:95,2,89.9999929618838,6|8|0,3:2|0:1|1:0,0:0:0:0:
283,347,65387,1,8,0:1:0:0:
302,278,65529,2,0,B|331:268|331:268|357:273|357:273|407:257,1,89.9999929618838,0|0,1:0|1:0,0:0:0:0:
388,263,65958,2,0,B|357:264|357:264|334:278|334:278|300:278,1,89.9999929618838,10|0,0:1|1:0,0:0:0:0:
172,120,66529,1,2,0:0:0:0:
172,120,66815,6,0,B|165:99|165:99|171:69|171:69|156:10,2,89.9999929618838,4|8|0,0:3|0:1|1:0,0:0:0:0:
38,187,67672,1,8,0:1:0:0:
38,187,67815,1,4,0:3:0:0:
17,256,67958,2,0,L|24:321,1,44.9999964809419,8|8,0:1|0:3,0:0:0:0:
107,348,68244,2,0,L|114:291,1,44.9999964809419,8|4,0:1|0:3,0:0:0:0:
186,225,68529,2,0,B|225:211|225:211|281:239,1,89.9999929618838,2|0,1:0|0:0,0:0:0:0:
411,355,69101,5,10,0:3:0:0:
411,355,69387,2,0,L|417:301,1,44.9999964809419,10|0,0:1|0:0,0:0:0:0:
471,151,69672,5,2,1:2:0:0:
407,209,69815,1,2,0:0:0:0:
372,41,70101,5,2,0:0:0:0:
453,67,70387,1,2,0:0:0:0:
324,181,70672,5,10,0:3:0:0:
306,98,70815,1,2,1:2:0:0:
386,123,71101,5,2,0:0:0:0:
81,40,71387,5,10,0:3:0:0:
81,40,71672,2,0,L|75:116,1,44.9999964809419,10|0,0:1|0:0,0:0:0:0:
203,192,71958,5,2,1:0:0:0:
38,245,72101,1,2,0:0:0:0:
56,162,72387,5,2,0:0:0:0:
185,276,72672,1,2,0:0:0:0:
104,302,72958,5,10,0:3:0:0:
139,134,73101,1,2,1:2:0:0:
325,308,73387,5,2,0:0:0:0:
325,308,73672,6,0,B|354:316|354:316|365:332|365:332|419:346,2,89.9999929618838,6|8|0,3:2|0:1|1:0,0:0:0:0:
232,196,74530,1,8,0:1:0:0:
283,146,74672,2,0,B|313:140|313:140|338:149|338:149|389:141,1,89.9999929618838,0|0,1:0|1:0,0:0:0:0:
371,144,75101,2,0,B|340:140|340:140|316:150|316:150|281:146,1,89.9999929618838,10|0,0:1|1:0,0:0:0:0:
103,38,75672,1,2,0:0:0:0:
103,38,75958,6,0,B|110:73|110:73|99:98|99:98|107:140,1,89.9999929618838,10|8,0:3|0:1,0:0:0:0:
226,221,76387,1,8,0:3:0:0:
226,221,76529,2,0,B|192:209|192:209|176:187|176:187|135:173,1,89.9999929618838,2|8,1:2|0:1,0:0:0:0:
6,236,76958,1,8,0:3:0:0:
6,236,77101,2,0,B|32:212|32:212|59:209|59:209|92:181,1,89.9999929618838,2|8,0:2|0:1,0:0:0:0:
80,192,77672,2,0,B|54:216|54:216|27:219|27:219|6:236,1,89.9999929618838,10|2,1:1|0:0,0:0:0:0:
316,112,78244,6,0,B|323:93|323:93|353:63,1,37.4999996423721,6|0,3:2|0:0,0:0:0:0:
176,130,78529,2,0,B|157:124|157:124|127:93,1,37.4999996423721,2|0,2:0|0:0,0:0:0:0:
194,270,78815,2,0,B|187:289|187:289|157:319,1,37.4999996423721,2|0,1:2|0:0,0:0:0:0:
334,252,79101,2,0,B|353:259|353:259|383:289,1,37.4999996423721,2|0,3:2|1:0,0:0:0:0:
335,81,79387,6,0,B|340:64|340:64|367:37,1,37.4999996423721,2|8,1:2|0:3,0:0:0:0:
145,112,79672,2,0,B|128:106|128:106|101:79,1,37.4999996423721,2|0,3:2|0:0,0:0:0:0:
175,301,79958,2,0,B|169:318|169:318|142:345,1,37.4999996423721,2|0,1:2|0:0,0:0:0:0:
365,271,80244,2,0,B|382:276|382:276|409:303,4,37.4999996423721,2|0|8|0|8,3:2|1:0|0:3|1:0|0:3,0:0:0:0:
256,192,81672,5,2,1:2:0:0:
256,192,82244,6,0,L|256:96,1,74.9999964237214,2|0,0:0|0:0,0:0:0:0:
461,24,82815,5,6,3:2:0:0:
461,24,83101,2,0,B|472:62|472:62|465:91|465:91|473:145,1,109.999998111725,10|8,0:1|2:2,0:0:0:0:
319,199,83529,2,0,B|299:178|299:178|273:172,1,54.9999990558624,10|0,0:1|0:0,0:0:0:0:
170,48,83815,6,0,B|187:68|187:68|192:109,1,54.9999990558624,2|0,0:0|0:0,0:0:0:0:
203,238,84101,2,0,B|204:265|204:265|190:289,1,54.9999990558624,2|4,0:0|0:3,0:0:0:0:
28,180,84387,1,8,0:3:0:0:
61,104,84529,2,0,B|86:92|86:92|141:107,1,54.9999990558624,10|0,2:2|0:0,0:0:0:0:
125,247,84815,2,0,B|100:258|100:258|73:252,1,54.9999990558624,10|0,0:3|0:0,0:0:0:0:
170,48,85101,5,4,0:3:0:0:
170,48,85387,2,0,B|185:41|185:41|201:43|201:43|245:37,1,54.9999990558624,10|0,0:1|0:0,0:0:0:0:
424,133,85672,1,10,2:2:0:0:
342,22,85815,2,0,B|335:37|335:37|337:53|337:53|331:97,1,54.9999990558624,10|0,0:1|0:0,0:0:0:0:
434,237,86101,6,0,B|454:234|454:234|471:238|471:238|488:234,1,54.9999990558624,2|0,0:0|0:0,0:0:0:0:
309,176,86387,2,0,B|289:173|289:173|272:177|272:177|254:173,1,54.9999990558624,2|4,0:0|0:3,0:0:0:0:
424,133,86672,1,10,0:3:0:0:
488,234,86815,2,0,B|496:252|496:252|496:269|496:269|504:285,1,54.9999990558624,10|0,2:2|0:0,0:0:0:0:
359,345,87101,1,8,0:3:0:0:
443,370,87244,1,4,0:3:0:0:
315,268,87387,6,0,B|275:258|275:258|258:262|258:262|203:257,2,109.999998111725,10|8|8,0:3|0:1|2:2,0:0:0:0:
491,92,88244,5,8,0:3:0:0:
415,132,88387,2,0,L|340:113,1,54.9999990558624,8|4,0:1|3:3,0:0:0:0:
214,10,88672,5,0,3:2:0:0:
258,85,88815,1,8,3:1:0:0:
204,155,88958,1,8,3:3:0:0:
279,217,89101,5,10,1:1:0:0:
182,158,89244,1,4,1:3:0:0:
279,80,89387,1,10,1:1:0:0:
191,8,89529,1,4,1:3:0:0:
124,64,89672,6,0,B|99:55|99:55|81:56|81:56|63:52|63:52|47:58|47:58|5:50,1,109.999998111725,10|8,0:3|0:1,0:0:0:0:
394,309,90244,2,0,B|419:300|419:300|437:301|437:301|455:297|455:297|471:303|471:303|513:295,1,109.999998111725,10|8,2:2|0:1,0:0:0:0:
315,50,90815,5,6,1:3:0:0:
253,93,90958,1,8,3:1:0:0:
297,154,91101,1,6,1:3:0:0:
359,110,91244,1,8,3:1:0:0:
251,23,91387,5,10,1:3:0:0:
227,157,91530,1,8,1:1:0:0:
361,181,91673,1,6,1:3:0:0:
384,46,91816,1,8,1:1:0:0:
305,102,91958,5,6,3:2:0:0:
305,102,92244,1,10,0:1:0:0:
66,220,92529,5,8,2:2:0:0:
144,259,92672,2,0,B|156:234|156:234|149:202,1,54.9999990558624,10|0,0:1|0:0,0:0:0:0:
120,99,92958,6,0,B|91:99|91:99|50:83,1,54.9999990558624,2|0,0:0|0:0,0:0:0:0:
220,34,93244,2,0,B|249:34|249:34|290:50,1,54.9999990558624,2|4,0:0|0:3,0:0:0:0:
150,207,93530,1,8,0:3:0:0:
120,99,93672,2,0,B|120:70|120:70|136:29,1,54.9999990558624,10|0,2:2|0:0,0:0:0:0:
243,193,93958,2,0,B|243:222|243:222|227:263,1,54.9999990558624,10|0,0:3|0:0,0:0:0:0:
73,321,94244,5,10,0:3:0:0:
73,321,94529,2,0,B|91:326|91:326|100:339|100:339|137:360,1,54.9999990558624,10|0,0:1|0:0,0:0:0:0:
306,283,94815,1,10,2:2:0:0:
150,207,94958,2,0,B|158:223|158:223|156:239|156:239|167:280,1,54.9999990558624,10|0,0:1|0:0,0:0:0:0:
309,168,95244,6,0,B|314:147|314:147|312:132|312:132|320:115,1,54.9999990558624,2|0,0:0|0:0,0:0:0:0:
387,282,95529,2,0,B|381:302|381:302|383:317|383:317|375:334,1,54.9999990558624,2|4,0:0|0:3,0:0:0:0:
480,177,95815,1,10,0:3:0:0:
496,260,95958,2,0,B|504:278|504:278|504:295|504:295|512:311,1,54.9999990558624,10|0,2:2|0:0,0:0:0:0:
371,202,96244,1,8,0:3:0:0:
306,283,96387,1,4,0:3:0:0:
233,194,96530,6,0,B|205:188|205:188|192:184|192:184|171:189|171:189|151:182|151:182|121:183,2,109.999998111725,10|8|8,0:3|0:1|2:2,0:0:0:0:
448,334,97387,5,8,0:3:0:0:
485,254,97530,2,0,L|461:197,1,54.9999990558624,8|4,0:1|3:3,0:0:0:0:
369,47,97815,5,0,3:2:0:0:
289,99,97958,1,8,3:1:0:0:
226,36,98101,1,8,3:3:0:0:
167,117,98244,5,10,1:1:0:0:
230,14,98387,1,4,1:3:0:0:
292,120,98529,1,10,1:1:0:0:
371,24,98672,1,4,1:3:0:0:
422,105,98815,6,0,B|448:105|448:105|478:81,1,54.9999990558624,6|0,0:3|0:0,0:0:0:0:
355,262,99101,2,0,B|368:284|368:284|403:298,1,54.9999990558624,10|8,0:1|0:3,0:0:0:0:
185,282,99387,2,0,B|171:304|171:304|177:342,1,54.9999990558624,8|0,2:2|0:0,0:0:0:0:
82,144,99672,2,0,B|56:144|56:144|26:168,1,54.9999990558624,10|8,0:1|0:3,0:0:0:0:
234,194,99958,5,6,1:3:0:0:
272,125,100101,1,8,3:1:0:0:
221,67,100244,1,6,1:3:0:0:
152,99,100387,1,8,3:1:0:0:
134,194,100529,5,10,1:3:0:0:
43,205,100672,1,8,1:1:0:0:
3,120,100815,1,6,1:3:0:0:
70,57,100958,1,8,1:1:0:0:
81,134,101101,5,6,3:2:0:0:
81,134,101387,1,10,0:1:0:0:
421,101,101672,5,8,2:2:0:0:
346,56,101815,2,0,B|329:52|329:52|305:56|305:56|276:42,1,54.9999990558624,10|0,0:1|0:0,0:0:0:0:
217,285,102101,6,0,B|196:265|196:265|191:209,1,54.9999990558624,2|0,0:0|0:0,0:0:0:0:
326,173,102387,2,0,B|345:192|345:192|349:219,1,54.9999990558624,2|4,0:0|0:3,0:0:0:0:
317,344,102672,1,8,0:3:0:0:
216,357,102815,2,0,B|187:358|187:358|164:344,1,54.9999990558624,10|0,2:2|0:0,0:0:0:0:
275,186,103101,2,0,B|297:172|297:172|326:173,1,54.9999990558624,10|0,0:3|0:0,0:0:0:0:
459,342,103387,5,4,0:3:0:0:
459,342,103672,2,0,B|460:329|460:329|466:312|466:312|467:288,1,54.9999990558624,10|0,0:1|0:0,0:0:0:0:
396,130,103958,1,10,2:2:0:0:
275,186,104101,2,0,B|276:209|276:209|282:226|282:226|283:239,1,54.9999990558624,10|0,0:1|0:0,0:0:0:0:
320,64,104387,6,0,B|336:43|336:43|389:26,1,54.9999990558624,2|0,0:0|0:0,0:0:0:0:
463,195,104672,2,0,B|447:216|447:216|394:233,1,54.9999990558624,2|4,0:0|0:3,0:0:0:0:
253,117,104958,1,10,0:3:0:0:
363,34,105101,2,0,B|389:37|389:37|430:74,1,54.9999990558624,10|0,2:2|0:0,0:0:0:0:
420,225,105387,1,10,0:3:0:0:
335,174,105530,1,4,0:3:0:0:
259,272,105673,6,0,B|257:303|257:303|254:318|254:318|257:340|257:340|254:352|254:352|253:384,2,109.999998111725,10|8|8,0:3|0:1|2:2,0:0:0:0:
92,67,106530,5,8,0:3:0:0:
57,148,106673,2,0,B|59:166|59:166|58:179|58:179|66:206,1,54.9999990558624,8|4,0:1|3:3,0:0:0:0:
165,280,106958,5,0,3:2:0:0:
217,209,107101,1,8,3:1:0:0:
296,246,107244,1,8,3:3:0:0:
326,151,107387,5,10,1:1:0:0:
235,196,107529,1,4,1:3:0:0:
313,259,107672,1,10,1:1:0:0:
233,327,107815,1,4,1:3:0:0:
315,350,107958,6,0,B|333:341|333:341|356:345|356:345|373:354|373:354|394:355|394:355|418:345,1,109.999998111725,10|8,0:3|0:1,0:0:0:0:
172,65,108529,2,0,B|154:56|154:56|131:60|131:60|114:69|114:69|93:70|93:70|68:60,1,109.999998111725,10|8,2:2|0:1,0:0:0:0:
331,226,109101,5,6,1:3:0:0:
390,180,109244,1,8,3:1:0:0:
345,121,109387,1,6,1:3:0:0:
283,166,109530,1,8,3:1:0:0:
394,250,109673,5,10,1:3:0:0:
414,116,109816,1,8,1:1:0:0:
280,96,109959,1,6,1:3:0:0:
261,232,110102,1,8,1:1:0:0:
339,173,110244,5,6,3:2:0:0:
339,173,110530,1,10,0:1:0:0:
43,84,110815,5,8,2:2:0:0:
106,151,110958,2,0,B|123:145|123:145|131:148|131:148|162:146,1,54.9999990558624,10|0,0:1|0:0,0:0:0:0:
299,27,111244,6,0,B|282:21|282:21|267:21|267:21|242:16,1,54.9999990558624,2|0,0:0|0:0,0:0:0:0:
339,173,111529,2,0,B|356:179|356:179|371:179|371:179|396:184,1,54.9999990558624,2|4,0:0|0:3,0:0:0:0:
244,108,111816,1,8,0:3:0:0:
226,212,111958,2,0,B|230:233|230:233|230:248|230:248|236:265,1,54.9999990558624,10|0,2:2|0:0,0:0:0:0:
145,66,112244,2,0,B|140:44|140:44|140:29|140:29|134:12,1,54.9999990558624,10|0,0:3|0:0,0:0:0:0:
3,180,112530,5,10,0:3:0:0:
3,180,112815,2,0,B|26:169|26:169|63:172,1,54.9999990558624,10|0,0:1|0:0,0:0:0:0:
155,287,113101,1,10,2:2:0:0:
60,305,113244,2,0,B|43:280|43:280|41:255,1,54.9999990558624,10|0,0:1|0:0,0:0:0:0:
236,265,113529,6,0,B|242:240|242:240|235:211,1,54.9999990558624,2|0,0:0|0:0,0:0:0:0:
145,66,113815,2,0,B|138:90|138:90|145:119,1,54.9999990558624,2|4,0:0|0:3,0:0:0:0:
373,183,114101,1,10,0:3:0:0:
332,72,114244,2,0,B|314:64|314:64|297:64|297:64|280:56,1,54.9999990558624,10|0,2:2|0:0,0:0:0:0:
235,211,114530,1,8,0:3:0:0:
299,157,114673,1,4,0:3:0:0:
410,249,114816,6,0,B|411:283|411:283|420:298|420:298|421:311|421:311|417:331|417:331|424:360,2,109.999998111725,10|8|8,0:3|0:1|2:2,0:0:0:0:
126,14,115673,5,8,0:3:0:0:
66,107,115816,2,0,B|76:126|76:126|75:141|75:141|85:172,1,54.9999990558624,8|4,0:1|3:3,0:0:0:0:
286,210,116101,5,0,3:2:0:0:
198,176,116244,1,8,3:1:0:0:
151,257,116387,1,8,3:3:0:0:
81,159,116530,5,10,1:1:0:0:
176,174,116672,1,4,1:3:0:0:
135,271,116815,1,10,1:1:0:0:
237,304,116958,1,4,1:3:0:0:
135,368,117101,6,0,B|115:367|115:367|98:372|98:372|64:369,1,54.9999990558624,6|0,0:3|0:0,0:0:0:0:
304,265,117387,2,0,B|324:264|324:264|341:269|341:269|375:266,1,54.9999990558624,10|8,0:1|0:3,0:0:0:0:
91,183,117672,2,0,B|71:182|71:182|54:187|54:187|20:184,1,54.9999990558624,8|0,2:2|0:0,0:0:0:0:
303,94,117958,2,0,B|323:93|323:93|340:98|340:98|374:95,1,54.9999990558624,10|8,0:3|0:3,0:0:0:0:
147,26,118244,5,6,1:3:0:0:
223,79,118387,1,8,3:1:0:0:
150,137,118530,1,6,1:3:0:0:
221,197,118673,1,8,3:1:0:0:
152,265,118815,5,10,1:3:0:0:
242,200,118958,1,8,1:1:0:0:
128,133,119101,1,6,1:3:0:0:
244,73,119244,1,8,1:1:0:0:
117,2,119387,5,6,3:2:0:0:
256,192,119458,12,0,121101,0:0:0:0:
99,146,121387,6,0,L|78:55,1,79.9999961853028,2|0,0:2|2:2,0:0:0:0:
178,97,121958,6,0,L|180:15,1,79.9999961853028,2|0,0:2|2:2,0:0:0:0:
256,128,122529,5,2,0:2:0:0:
256,320,123958,5,2,3:2:0:0:
413,146,125958,6,0,L|427:82,1,49.9999976158143,2|0,0:2|2:2,0:0:0:0:
334,97,126529,6,0,L|332:30,1,49.9999976158143,2|0,0:2|0:2,0:0:0:0:
256,128,127100,5,2,0:2:0:0:
463,227,128529,6,0,B|446:165|446:165|430:226|430:226|485:288|485:288|448:336|448:336|387:324|387:324|304:351|304:351|351:308,1,479.99996246338,2|2,3:2|0:0,0:0:0:0:
