osu file format v14

[General]
AudioFilename: audio.mp3
AudioLeadIn: 0
PreviewTime: 45672
Countdown: 0
SampleSet: Soft
StackLeniency: 0.4
Mode: 0
LetterboxInBreaks: 0
WidescreenStoryboard: 1

[Editor]
Bookmarks: 9591,18815,25591,27877,46163,64449,73672,82734,91877,101020,110163,128529,133101
DistanceSpacing: 1.8
BeatDivisor: 4
GridSize: 32
TimelineZoom: 1.6

[Metadata]
Title:leap in your mind
TitleUnicode:leap in your mind
Artist:solfa feat. Shimotsuki Haruka
ArtistUnicode:solfa feat. 霜月はるか
Creator:Lasse
Version:Despair
Source:仄暗き時の果てより
Tags:Honoguraki Toki no Hate Yori short version eroge visual novel opening iyuna moonstone sweet heart 結び音リボン Daichi no Oto Kalibe Mir
BeatmapID:1716490
BeatmapSetID:818672

[Difficulty]
HPDrainRate:7
CircleSize:4
OverallDifficulty:9
ApproachRate:9.3
SliderMultiplier:2.23999990463257
SliderTickRate:1

[Events]
//Background and Video events
0,0,"138.jpg",0,0
//Break Periods
//Storyboard Layer 0 (Background)
//Storyboard Layer 1 (Fail)
//Storyboard Layer 2 (Pass)
//Storyboard Layer 3 (Foreground)
//Storyboard Sound Samples

[TimingPoints]
530,571.428571428571,4,2,2,30,1,0
530,-200,4,2,2,30,0,0
9387,-133.333333333333,4,2,2,40,0,0
9529,-133.333333333333,4,2,2,25,0,0
9672,-100,4,2,1,65,0,0
9815,-100,4,2,2,65,0,0
18815,-100,4,2,1,65,0,0
18958,-100,4,2,2,65,0,0
25672,-100,4,2,2,50,0,0
27958,-133.333333333333,4,2,1,50,0,0
29672,-266.666666666667,4,2,1,50,0,0
30244,-133.333333333333,4,2,1,50,0,0
36244,-133.333333333333,4,2,2,50,0,0
36529,-266.666666666667,4,2,1,50,0,0
37101,-133.333333333333,4,2,1,50,0,0
38815,-266.666666666667,4,2,1,50,0,0
39387,-133.333333333333,4,2,1,50,0,0
45244,-133.333333333333,4,2,2,50,0,0
45672,-400,4,2,1,50,0,0
46101,-400,4,2,1,20,0,0
46244,-125,4,2,1,50,0,0
47958,-250,4,2,1,50,0,0
48529,-125,4,2,2,50,0,0
49101,-125,4,2,1,50,0,0
50244,-125,4,2,2,50,0,0
50815,-125,4,2,1,50,0,0
52529,-250,4,2,1,50,0,0
53101,-125,4,2,1,50,0,0
54672,-125,4,2,2,50,0,0
55387,-125,4,2,1,50,0,0
57101,-250,4,2,2,50,0,0
57672,-125,4,2,2,50,0,0
58244,-125,4,2,1,50,0,0
59387,-250,4,2,2,50,0,0
59958,-125,4,2,1,50,0,0
61672,-250,4,2,1,50,0,0
62244,-125,4,2,2,50,0,0
62815,-125,4,2,1,50,0,0
63958,-250,4,2,2,50,0,0
64529,-100,4,2,1,60,0,0
64815,-100,4,2,2,60,0,0
68529,-400,4,2,2,60,0,0
69387,-100,4,2,2,60,0,0
70815,-200,4,2,2,60,0,0
71387,-100,4,2,2,60,0,0
73101,-200,4,2,2,60,0,0
73672,-100,4,2,1,60,0,0
73958,-100,4,2,2,60,0,0
77672,-200,4,2,2,60,0,0
78244,-133.333333333333,4,2,1,60,0,0
80244,-266.666666666667,4,2,1,50,0,0
82244,-400,4,2,1,60,0,0
82672,-400,4,2,1,30,0,0
82815,-83.3333333333333,4,2,1,70,0,1
83101,-83.3333333333333,4,2,2,70,0,1
91387,-83.3333333333333,4,2,2,70,0,0
91958,-83.3333333333333,4,2,1,70,0,1
92244,-83.3333333333333,4,2,2,70,0,1
100529,-83.3333333333333,4,2,2,70,0,0
101101,-83.3333333333333,4,2,1,70,0,1
101387,-83.3333333333333,4,2,2,70,0,1
109672,-83.3333333333333,4,2,2,70,0,0
110244,-83.3333333333333,4,2,1,70,0,1
110529,-83.3333333333333,4,2,2,70,0,1
119387,-125,4,2,1,60,0,0
121101,-125,4,2,1,30,0,0
121387,-125,4,2,1,40,0,0
121958,-142.857142857143,4,2,1,40,0,0
123958,-142.857142857143,4,2,1,40,0,0
125958,-166.666666666667,4,2,1,35,0,0
126529,-200,4,2,1,35,0,0
128529,-400,4,2,1,30,0,0
128672,-512.820512820513,4,2,1,20,0,0
131387,-512.820512820513,4,2,1,10,0,0

[Colours]
Combo1 : 255,192,128
Combo2 : 255,128,128
Combo3 : 255,210,128
Combo4 : 255,150,190

[HitObjects]
87,28,530,6,0,L|94:73,1,27.9999988079071,2|2,0:0|0:0,0:0:0:0:
431,79,2529,5,2,0:0:0:0:
480,192,2815,2,0,L|470:241,1,27.9999988079071,2|2,0:0|0:0,0:0:0:0:
87,356,5101,6,0,L|94:311,1,27.9999988079071,2|2,0:0|0:0,0:0:0:0:
431,305,7101,5,2,0:0:0:0:
480,192,7387,2,0,L|470:143,1,27.9999988079071,2|2,0:0|0:0,0:0:0:0:
256,352,9387,6,0,L|256:288,1,41.9999998140335,0|0,0:0|0:0,0:0:0:0:
339,183,9672,6,0,P|393:172|452:199,1,111.999995231628,6|8,3:2|0:1,0:0:0:0:
331,270,10101,1,0,3:1:0:0:
244,173,10244,2,0,P|254:138|275:108,1,55.9999976158142,8|0,2:2|0:0,0:0:0:0:
413,0,10529,5,8,0:3:0:0:
409,95,10672,1,4,0:3:0:0:
263,121,10815,5,8,3:3:0:0:
190,37,10958,1,8,3:3:0:0:
80,58,11101,1,4,3:3:0:0:
43,163,11244,1,4,3:0:0:0:
118,244,11387,2,0,P|137:280|139:359,1,111.999995231628,10|8,2:2|0:3,0:0:0:0:
119,355,11958,6,0,P|95:304|95:248,1,111.999995231628,10|8,2:3|0:1,0:0:0:0:
173,107,12387,1,0,3:1:0:0:
244,227,12529,2,0,P|210:242|153:237,1,55.9999976158142,8|0,2:2|0:0,0:0:0:0:
290,55,12815,5,8,0:3:0:0:
335,192,12958,1,4,0:3:0:0:
413,3,13101,5,8,3:3:0:0:
312,58,13244,1,8,3:3:0:0:
332,170,13387,1,4,3:3:0:0:
444,185,13529,1,4,3:0:0:0:
492,83,13672,5,10,2:2:0:0:
471,92,13958,1,6,0:3:0:0:
413,3,14101,1,6,0:3:0:0:
332,170,14244,2,0,P|266:174|218:156,2,111.999995231628,10|8|8,3:3|0:1|2:2,0:0:0:0:
352,161,15101,5,8,0:3:0:0:
312,58,15244,1,4,0:3:0:0:
223,159,15387,5,8,3:3:0:0:
120,99,15529,1,8,3:3:0:0:
16,158,15672,1,4,3:3:0:0:
15,277,15815,1,4,3:0:0:0:
117,337,15958,6,0,P|149:337|196:329,1,55.9999976158142,8|0,2:2|0:0,0:0:0:0:
223,159,16244,2,0,P|253:150|301:146,1,55.9999976158142,4|0,0:3|0:0,0:0:0:0:
408,352,16529,6,0,P|352:349|300:329,1,111.999995231628,10|8,2:3|0:1,0:0:0:0:
277,147,16958,1,0,3:1:0:0:
464,172,17101,2,0,P|476:196|489:260,1,55.9999976158142,8|0,2:2|0:0,0:0:0:0:
279,236,17387,5,8,0:3:0:0:
361,94,17529,1,4,0:3:0:0:
464,172,17672,5,8,3:3:0:0:
363,213,17815,1,8,3:3:0:0:
277,147,17958,1,4,3:3:0:0:
294,40,18101,1,4,3:0:0:0:
396,4,18244,6,0,L|451:-3,1,55.9999976158142,10|0,2:2|0:0,0:0:0:0:
363,213,18529,2,0,L|302:221,1,55.9999976158142,10|0,0:3|0:0,0:0:0:0:
155,4,18815,6,0,P|191:53|200:114,1,111.999995231628,6|8,3:2|0:1,0:0:0:0:
77,235,19244,1,0,3:1:0:0:
30,67,19387,2,0,P|36:39|53:13,1,55.9999976158142,8|0,2:2|0:0,0:0:0:0:
194,206,19672,5,8,0:3:0:0:
77,235,19815,1,4,0:3:0:0:
119,115,19958,5,8,3:3:0:0:
205,186,20101,1,8,3:3:0:0:
309,147,20244,1,4,3:3:0:0:
223,76,20387,1,4,3:0:0:0:
119,115,20529,2,0,P|58:112|0:73,1,111.999995231628,10|8,2:2|0:3,0:0:0:0:
21,66,21101,6,0,P|82:69|140:108,1,111.999995231628,10|8,2:3|0:1,0:0:0:0:
180,241,21529,1,0,3:1:0:0:
24,235,21672,2,0,P|9:217|2:158,1,55.9999976158142,8|0,2:2|0:0,0:0:0:0:
125,93,21958,5,8,0:3:0:0:
165,224,22101,1,4,0:3:0:0:
208,81,22244,5,8,3:3:0:0:
158,202,22387,1,8,3:3:0:0:
237,305,22529,1,4,3:3:0:0:
365,288,22672,1,4,3:0:0:0:
415,169,22815,5,10,2:2:0:0:
394,159,23101,1,4,0:3:0:0:
245,179,23244,1,4,0:3:0:0:
365,288,23387,2,0,L|482:306,2,111.999995231628,10|8|8,3:3|0:1|2:2,0:0:0:0:
347,301,24244,5,10,0:3:0:0:
478,383,24387,1,4,0:3:0:0:
412,216,24529,5,8,3:3:0:0:
330,315,24672,1,8,3:3:0:0:
203,293,24815,1,4,3:3:0:0:
158,172,24958,1,4,3:0:0:0:
240,72,25101,5,4,3:3:0:0:
213,272,25244,1,4,3:3:0:0:
13,245,25387,1,4,3:3:0:0:
40,45,25529,1,4,3:0:0:0:
158,172,25672,5,10,2:3:0:0:
456,283,27958,5,4,3:2:0:0:
474,265,28244,2,0,P|494:270|512:280,1,41.9999998140335,10|0,0:1|0:2,0:0:0:0:
445,190,28529,1,2,1:2:0:0:
445,190,28672,2,0,P|460:175|478:164,1,41.9999998140335,2|0,0:2|0:2,0:0:0:0:
365,177,28958,2,0,P|360:156|359:135,1,41.9999998140335,2|0,0:2|0:2,0:0:0:0:
313,239,29244,2,0,P|292:233|274:222,1,41.9999998140335,2|8,0:2|0:3,0:0:0:0:
340,314,29529,1,2,3:2:0:0:
340,314,29672,6,0,P|324:328|306:339,1,41.9999998140335,2|2,1:2|0:2,0:0:0:0:
221,153,30244,6,0,P|223:132|218:104,1,41.9999998140335,2|0,3:2|0:2,0:0:0:0:
180,225,30529,2,0,P|164:238|145:247,1,41.9999998140335,10|0,0:1|0:2,0:0:0:0:
174,49,30815,1,2,1:2:0:0:
174,49,30958,2,0,P|156:36|130:27,1,41.9999998140335,2|0,0:2|0:2,0:0:0:0:
27,147,31244,2,0,L|136:143,2,83.9999996280671,2|2|2,0:2|0:2|0:2,0:0:0:0:
144,246,31958,6,0,P|163:237|180:224,1,41.9999998140335,2|0,1:2|0:2,0:0:0:0:
174,49,32244,2,0,P|157:36|137:28,1,41.9999998140335,2|0,0:2|0:2,0:0:0:0:
283,134,32529,6,0,L|304:24,2,83.9999996280671,2|8|0,3:2|2:1|1:2,0:0:0:0:
292,157,33387,1,2,3:2:0:0:
363,186,33529,2,0,P|388:186|413:174,1,41.9999998140335,2|8,1:2|0:3,0:0:0:0:
292,157,33815,1,2,0:2:0:0:
302,232,33958,2,0,P|314:253|337:269,1,41.9999998140335,2|0,0:2|0:2,0:0:0:0:
231,202,34244,2,0,P|218:223|216:251,1,41.9999998140335,2|0,1:2|0:2,0:0:0:0:
221,125,34529,2,0,P|196:125|171:137,1,41.9999998140335,2|0,0:2|0:2,0:0:0:0:
81,287,34815,6,0,P|119:304|185:300,2,83.9999996280671,2|8|0,0:2|0:1|1:2,0:0:0:0:
65,266,35672,1,2,0:2:0:0:
27,195,35815,2,0,P|12:175|-11:156,1,41.9999998140335,2|0,0:2|1:2,0:0:0:0:
65,266,36101,1,2,0:2:0:0:
107,197,36244,2,0,P|116:174|121:144,1,41.9999998140335,8|8,2:3|2:3,0:0:0:0:
145,267,36529,6,0,P|169:264|197:253,1,41.9999998140335,2|2,1:2|0:2,0:0:0:0:
471,113,37101,5,2,3:2:0:0:
473,87,37387,2,0,P|491:78|511:74,1,41.9999998140335,10|0,0:1|0:2,0:0:0:0:
403,47,37672,1,2,1:2:0:0:
403,47,37815,2,0,P|405:25|412:6,1,41.9999998140335,2|0,0:2|0:2,0:0:0:0:
333,87,38101,2,0,P|315:73|301:58,1,41.9999998140335,2|0,0:2|0:2,0:0:0:0:
332,168,38387,2,0,P|311:176|290:179,1,41.9999998140335,2|8,0:2|0:3,0:0:0:0:
400,210,38672,1,2,3:2:0:0:
400,210,38815,6,0,P|396:230|389:250,1,41.9999998140335,2|2,1:2|0:2,0:0:0:0:
163,77,39387,6,0,P|166:56|173:36,1,41.9999998140335,2|0,3:2|0:2,0:0:0:0:
270,138,39672,2,0,P|250:145|229:149,1,41.9999998140335,10|0,0:1|0:2,0:0:0:0:
269,14,39958,1,2,1:2:0:0:
269,14,40101,2,0,P|285:28|298:44,1,41.9999998140335,2|0,0:2|0:2,0:0:0:0:
163,77,40387,2,0,L|70:70,2,83.9999996280671,2|2|2,0:2|0:2|0:2,0:0:0:0:
270,138,41101,2,0,P|286:151|300:167,1,41.9999998140335,2|0,1:2|0:2,0:0:0:0:
110,207,41387,2,0,P|113:186|120:166,1,41.9999998140335,2|0,0:2|0:2,0:0:0:0:
268,265,41672,6,0,P|304:273|365:251,2,83.9999996280671,2|8|0,3:2|0:1|1:2,0:0:0:0:
245,254,42529,1,2,3:2:0:0:
255,178,42672,2,0,P|267:156|290:140,1,41.9999998140335,0|0,1:2|0:2,0:0:0:0:
245,254,42958,1,2,0:2:0:0:
185,207,43101,2,0,P|172:186|170:158,1,41.9999998140335,2|0,0:2|0:2,0:0:0:0:
175,284,43387,2,0,P|150:284|125:272,1,41.9999998140335,2|0,1:2|0:2,0:0:0:0:
237,331,43672,2,0,P|224:352|201:368,1,41.9999998140335,2|0,0:2|0:2,0:0:0:0:
255,178,43958,6,0,P|293:161|359:165,2,83.9999996280671,2|8|0,3:2|0:1|1:2,0:0:0:0:
238,197,44815,1,2,0:2:0:0:
187,135,44958,2,0,P|192:111|205:81,1,41.9999998140335,2|0,0:2|1:2,0:0:0:0:
238,197,45244,1,8,2:3:0:0:
159,211,45387,1,8,2:3:0:0:
187,135,45529,1,8,2:3:0:0:
210,273,45672,6,0,P|205:297|192:327,1,41.9999998140335,10|0,1:1|0:2,0:0:0:0:
28,354,46244,5,6,3:2:0:0:
14,275,46387,2,0,P|21:246|36:215,1,44.7999980926514,2|8,0:2|0:3,0:0:0:0:
28,354,46672,1,2,0:2:0:0:
27,232,46815,2,0,P|47:210|76:191,1,44.7999980926514,2|0,1:2|0:2,0:0:0:0:
28,354,47101,1,2,0:2:0:0:
59,201,47244,2,0,P|87:191|121:189,1,44.7999980926514,2|8,1:2|0:3,0:0:0:0:
219,198,47529,2,0,P|198:188|180:175,1,44.7999980926514,2|0,1:2|1:2,0:0:0:0:
300,186,47815,1,2,3:2:0:0:
181,175,47958,6,0,P|168:156|159:136,1,44.7999980926514,0|2,1:2|3:2,0:0:0:0:
160,115,48529,5,10,2:3:0:0:
199,190,48672,1,10,2:3:0:0:
270,235,48815,1,10,2:3:0:0:
353,238,48958,1,10,2:3:0:0:
426,199,49101,2,0,P|449:180|470:153,1,44.7999980926514,2|0,1:2|0:2,0:0:0:0:
353,238,49387,1,2,0:2:0:0:
459,169,49529,2,0,P|469:141|474:107,1,44.7999980926514,2|0,0:2|0:2,0:0:0:0:
432,55,49815,2,0,P|423:34|418:12,2,44.7999980926514,2|0|0,1:2|1:2|1:0,0:0:0:0:
379,118,50244,5,6,2:3:0:0:
304,147,50387,1,6,2:3:0:0:
225,133,50529,1,6,2:3:0:0:
165,79,50672,1,6,2:3:0:0:
241,54,50815,5,2,3:2:0:0:
225,133,50958,2,0,P|203:151|169:160,1,44.7999980926514,2|8,0:2|0:3,0:0:0:0:
241,54,51244,1,2,0:2:0:0:
187,157,51387,2,0,P|158:161|125:152,1,44.7999980926514,2|0,1:2|0:2,0:0:0:0:
241,54,51672,1,2,0:2:0:0:
142,159,51815,2,0,P|115:148|90:124,1,44.7999980926514,2|8,1:2|0:3,0:0:0:0:
241,54,52101,2,0,P|268:65|293:89,1,44.7999980926514,2|0,1:2|1:2,0:0:0:0:
164,46,52387,1,2,3:2:0:0:
280,74,52529,6,0,P|297:97|307:130,1,44.7999980926514,2|0,1:2|3:2,0:0:0:0:
306,133,53101,5,2,3:2:0:0:
245,185,53244,2,0,P|224:189|201:187,1,44.7999980926514,2|8,0:2|0:3,0:0:0:0:
306,133,53529,1,2,0:2:0:0:
201,187,53672,2,0,P|180:180|162:168,1,44.7999980926514,2|0,1:2|0:2,0:0:0:0:
306,133,53958,1,2,0:2:0:0:
161,167,54101,2,0,P|146:149|136:130,1,44.7999980926514,2|8,1:2|0:3,0:0:0:0:
53,36,54387,2,0,P|67:53|77:72,1,44.7999980926514,2|0,1:2|1:2,0:0:0:0:
1,205,54672,5,10,2:3:0:0:
58,148,54815,1,6,2:3:0:0:
136,130,54958,1,6,2:3:0:0:
212,152,55101,1,6,2:3:0:0:
266,208,55244,1,6,2:3:0:0:
190,226,55387,5,2,3:2:0:0:
212,152,55529,2,0,P|242:135|277:124,1,44.7999980926514,2|8,0:2|0:3,0:0:0:0:
190,226,55815,1,2,0:2:0:0:
251,131,55958,2,0,P|285:131|321:139,1,44.7999980926514,2|0,1:2|0:2,0:0:0:0:
190,226,56244,1,2,0:2:0:0:
295,132,56387,2,0,P|324:149|351:174,1,44.7999980926514,2|8,1:2|0:3,0:0:0:0:
190,226,56672,1,2,1:2:0:0:
136,171,56815,1,2,1:2:0:0:
116,96,56958,1,2,1:2:0:0:
136,21,57101,6,0,P|150:11|170:3,1,22.3999990463257,2|0,1:2|1:2,0:0:0:0:
136,171,57387,2,0,P|122:181|102:189,1,22.3999990463257,2|0,1:2|1:2,0:0:0:0:
42,117,57672,5,10,0:3:0:0:
116,96,57815,1,10,0:3:0:0:
190,116,57958,1,10,0:3:0:0:
244,170,58101,1,10,0:3:0:0:
263,243,58244,2,0,P|258:274|249:299,1,44.7999980926514,2|0,1:2|0:2,0:0:0:0:
244,170,58529,1,2,0:2:0:0:
254,286,58672,2,0,P|234:310|213:327,1,44.7999980926514,2|0,0:2|0:2,0:0:0:0:
244,170,58958,1,2,1:2:0:0:
317,191,59101,1,2,1:2:0:0:
369,245,59244,1,2,1:2:0:0:
387,317,59387,6,0,L|378:354,1,22.3999990463257,6|4,0:3|2:3,0:0:0:0:
317,191,59672,2,0,L|326:154,1,22.3999990463257,10|8,2:3|2:3,0:0:0:0:
412,0,59958,5,2,3:2:0:0:
476,45,60101,2,0,P|487:68|494:97,1,44.7999980926514,2|8,0:2|0:3,0:0:0:0:
412,0,60387,1,2,0:2:0:0:
492,86,60529,2,0,P|490:111|481:140,1,44.7999980926514,2|0,1:2|0:2,0:0:0:0:
412,0,60815,1,2,0:2:0:0:
485,130,60958,2,0,P|470:151|448:171,1,44.7999980926514,2|8,1:2|0:3,0:0:0:0:
348,199,61244,2,0,P|370:200|391:206,1,44.7999980926514,2|0,1:2|1:2,0:0:0:0:
273,216,61529,1,2,3:2:0:0:
391,206,61672,6,0,P|411:218|427:233,1,44.7999980926514,2|0,1:2|3:2,0:0:0:0:
438,252,62244,5,10,2:3:0:0:
425,329,62387,1,10,2:3:0:0:
351,356,62529,1,10,2:3:0:0:
290,305,62672,1,10,2:3:0:0:
303,226,62815,2,0,P|308:205|324:169,1,44.7999980926514,2|0,1:2|0:2,0:0:0:0:
290,305,63101,1,2,0:2:0:0:
316,183,63244,2,0,P|330:167|362:144,1,44.7999980926514,2|0,0:2|0:2,0:0:0:0:
290,305,63529,1,2,1:2:0:0:
228,254,63672,1,0,1:2:0:0:
200,180,63815,1,0,3:2:0:0:
212,101,63958,6,0,P|217:85|222:68,1,22.3999990463257,6|4,0:3|2:3,0:0:0:0:
6,9,64244,2,0,P|1:25|-4:42,1,22.3999990463257,10|8,2:3|2:3,0:0:0:0:
101,153,64529,6,0,P|104:94|94:27,2,111.999995231628,6|8|0,3:2|0:1|1:0,0:0:0:0:
89,178,65387,1,8,0:1:0:0:
149,96,65529,2,0,P|199:72|254:75,1,111.999995231628,0|0,1:0|1:0,0:0:0:0:
339,208,65958,6,0,P|288:231|233:228,1,111.999995231628,10|0,0:1|1:0,0:0:0:0:
213,210,66529,2,0,P|209:177|217:149,1,55.9999976158142,2|0,0:0|0:0,0:0:0:0:
434,164,66815,6,0,P|437:219|418:274,2,111.999995231628,4|8|0,0:3|0:1|1:0,0:0:0:0:
418,142,67672,1,8,0:1:0:0:
339,208,67815,1,4,0:3:0:0:
264,137,67958,2,0,P|234:124|188:120,1,55.9999976158142,8|8,0:1|0:3,0:0:0:0:
132,253,68244,2,0,P|162:266|208:270,1,55.9999976158142,8|4,0:1|0:3,0:0:0:0:
101,83,68529,6,0,P|67:102|52:121,1,55.9999976158142,2|10,1:0|0:3,0:0:0:0:
54,143,69387,6,0,P|78:129|105:123,1,55.9999976158142,10|0,0:1|0:0,0:0:0:0:
81,261,69672,1,2,1:2:0:0:
81,261,69815,2,0,P|56:247|38:226,1,55.9999976158142,2|8,0:0|0:3,0:0:0:0:
169,178,70101,2,0,P|169:206|160:232,1,55.9999976158142,2|0,0:0|0:0,0:0:0:0:
185,94,70387,2,0,P|209:79|236:74,1,55.9999976158142,2|0,0:0|0:0,0:0:0:0:
105,122,70672,1,10,0:3:0:0:
105,122,70815,6,0,P|79:108|61:87,1,55.9999976158142,2|2,1:2|0:0,0:0:0:0:
391,82,71387,5,10,0:3:0:0:
407,60,71672,2,0,P|413:33|411:6,1,55.9999976158142,10|0,0:1|0:0,0:0:0:0:
432,151,71958,1,2,1:0:0:0:
432,151,72101,2,0,P|457:143|480:128,1,55.9999976158142,2|8,0:0|0:3,0:0:0:0:
365,218,72387,2,0,P|384:235|408:248,1,55.9999976158142,2|0,0:0|0:0,0:0:0:0:
273,193,72672,2,0,P|267:218|268:246,1,55.9999976158142,2|0,0:0|0:0,0:0:0:0:
248,100,72958,1,10,0:3:0:0:
248,100,73101,6,0,P|222:108|199:123,1,55.9999976158142,2|2,1:2|0:0,0:0:0:0:
401,347,73672,6,0,L|531:335,2,111.999995231628,6|8|0,3:2|0:1|1:0,0:0:0:0:
383,326,74529,1,8,0:1:0:0:
456,215,74672,2,0,P|469:163|449:91,1,111.999995231628,0|0,1:0|1:0,0:0:0:0:
272,56,75101,6,0,P|259:108|279:180,1,111.999995231628,10|0,0:1|1:0,0:0:0:0:
295,176,75672,2,0,P|332:176|353:161,1,55.9999976158142,2|0,0:0|0:0,0:0:0:0:
167,30,75958,6,0,P|112:23|61:46,1,111.999995231628,10|8,0:3|0:1,0:0:0:0:
85,157,76387,1,8,0:3:0:0:
233,112,76529,2,0,P|211:61|166:29,1,111.999995231628,2|8,1:2|0:1,0:0:0:0:
85,157,76958,1,8,0:3:0:0:
194,211,77101,2,0,P|227:166|232:111,1,111.999995231628,2|8,0:2|0:1,0:0:0:0:
105,246,77672,6,0,P|115:272|139:296,1,55.9999976158142,10|2,1:1|0:0,0:0:0:0:
480,238,78244,6,0,P|472:219|460:202,1,41.9999998140335,6|0,3:2|0:0,0:0:0:0:
468,321,78529,2,0,P|460:340|448:358,1,41.9999998140335,2|0,2:0|0:0,0:0:0:0:
460,202,78815,2,0,P|442:189|423:181,1,41.9999998140335,2|0,1:2|0:0,0:0:0:0:
448,358,79101,2,0,P|430:370|411:378,1,41.9999998140335,2|0,3:2|1:0,0:0:0:0:
424,181,79387,2,0,P|401:178|381:181,1,41.9999998140335,2|8,1:2|0:3,0:0:0:0:
412,378,79672,2,0,P|390:379|369:376,1,41.9999998140335,2|0,3:2|0:0,0:0:0:0:
383,181,79958,2,0,P|361:189|345:202,1,41.9999998140335,2|0,1:2|0:0,0:0:0:0:
370,376,80244,6,0,P|350:366|334:353,4,41.9999998140335,2|0|8|0|8,3:2|1:0|0:3|1:0|0:3,0:0:0:0:
316,49,81672,5,2,1:2:0:0:
316,49,82244,6,0,L|269:42,1,41.9999982118607,2|0,0:0|0:0,0:0:0:0:
58,208,82815,5,6,3:2:0:0:
73,230,83101,2,0,P|139:233|199:177,1,134.399990176392,10|8,0:1|2:2,0:0:0:0:
275,43,83529,2,0,P|261:73|257:106,1,67.199995088196,10|0,0:1|0:0,0:0:0:0:
351,266,83815,6,0,P|364:296|368:329,1,67.199995088196,2|0,0:0|0:0,0:0:0:0:
414,185,84101,2,0,P|447:188|478:201,1,67.199995088196,2|4,0:0|0:3,0:0:0:0:
312,170,84387,1,8,0:3:0:0:
376,90,84529,2,0,P|395:63|422:42,1,67.199995088196,10|0,2:2|0:0,0:0:0:0:
274,75,84815,2,0,P|260:45|255:11,1,67.199995088196,10|0,0:3|0:0,0:0:0:0:
312,170,85101,5,4,0:3:0:0:
294,190,85387,2,0,P|260:186|229:174,1,67.199995088196,10|0,0:1|0:0,0:0:0:0:
156,138,85672,1,10,2:2:0:0:
18,86,85815,2,0,P|51:90|83:102,1,67.199995088196,10|0,0:1|0:0,0:0:0:0:
161,220,86101,6,0,P|166:253|179:283,1,67.199995088196,2|0,0:0|0:0,0:0:0:0:
224,92,86387,2,0,P|218:58|205:28,1,67.199995088196,2|4,0:0|0:3,0:0:0:0:
88,184,86672,1,10,0:3:0:0:
229,174,86815,2,0,L|295:164,1,67.199995088196,10|0,2:2|0:0,0:0:0:0:
504,101,87101,1,8,0:3:0:0:
355,59,87244,1,4,0:3:0:0:
411,246,87387,6,0,L|398:392,2,134.399990176392,10|8|8,0:3|0:1|2:2,0:0:0:0:
430,227,88244,5,8,0:3:0:0:
277,313,88387,1,8,0:1:0:0:
417,132,88529,5,4,3:3:0:0:
371,301,88672,1,0,3:2:0:0:
343,74,88815,5,8,3:1:0:0:
430,227,88958,1,8,3:3:0:0:
248,85,89101,5,10,1:1:0:0:
417,132,89244,1,4,1:3:0:0:
190,161,89387,5,10,1:1:0:0:
343,74,89529,1,4,1:3:0:0:
202,255,89672,6,0,P|137:276|51:231,1,134.399990176392,10|8,0:3|0:1,0:0:0:0:
190,161,90101,1,8,0:3:0:0:
290,219,90244,2,0,P|295:250|292:286,1,67.199995088196,10|0,2:2|0:0,0:0:0:0:
83,322,90529,2,0,P|75:290|76:254,1,67.199995088196,8|8,0:1|0:3,0:0:0:0:
190,161,90815,5,6,1:3:0:0:
290,219,90958,1,8,3:1:0:0:
376,140,91101,1,6,1:3:0:0:
328,34,91244,1,8,3:1:0:0:
212,47,91387,5,10,1:3:0:0:
290,219,91529,1,8,1:1:0:0:
328,34,91672,1,6,1:3:0:0:
190,161,91815,1,8,1:1:0:0:
376,140,91958,5,6,3:2:0:0:
396,158,92244,2,0,P|428:165|460:156,1,67.199995088196,10|0,0:1|0:0,0:0:0:0:
328,34,92529,1,8,2:2:0:0:
290,219,92672,2,0,P|314:241|346:249,1,67.199995088196,10|0,0:1|0:0,0:0:0:0:
212,47,92958,6,0,P|187:24|155:16,1,67.199995088196,2|0,0:0|0:0,0:0:0:0:
135,236,93244,2,0,P|166:226|189:202,1,67.199995088196,2|4,0:0|0:3,0:0:0:0:
155,16,93529,1,8,0:3:0:0:
9,74,93672,2,0,P|1:105|10:138,1,67.199995088196,10|0,2:2|0:0,0:0:0:0:
135,236,93958,2,0,P|166:226|189:202,1,67.199995088196,10|0,0:3|0:0,0:0:0:0:
25,52,94244,5,10,0:3:0:0:
9,74,94529,2,0,P|1:105|10:138,1,67.199995088196,10|0,0:1|0:0,0:0:0:0:
135,236,94815,1,10,2:2:0:0:
151,110,94958,2,0,P|128:87|95:78,1,67.199995088196,10|0,0:1|0:0,0:0:0:0:
0,291,95244,6,0,P|22:313|55:322,1,67.199995088196,2|0,0:0|0:0,0:0:0:0:
231,294,95529,2,0,P|254:270|264:238,1,67.199995088196,2|4,0:0|0:3,0:0:0:0:
135,236,95815,1,10,0:3:0:0:
197,374,95958,2,0,P|228:383|261:375,1,67.199995088196,10|0,2:2|0:0,0:0:0:0:
361,137,96244,1,8,0:3:0:0:
201,169,96387,1,4,0:3:0:0:
350,289,96529,6,0,L|465:363,2,134.399990176392,10|8|8,0:3|0:1|2:2,0:0:0:0:
327,275,97387,5,8,0:3:0:0:
512,250,97529,1,8,0:1:0:0:
296,205,97672,5,4,3:3:0:0:
488,263,97815,1,0,3:2:0:0:
304,127,97958,5,8,3:1:0:0:
460,262,98101,1,8,3:3:0:0:
350,63,98244,5,10,1:1:0:0:
436,247,98387,1,4,1:3:0:0:
421,30,98529,5,10,1:1:0:0:
422,222,98672,1,4,1:3:0:0:
232,47,98815,6,0,P|257:25|288:12,1,67.199995088196,6|0,0:3|0:0,0:0:0:0:
262,231,99101,2,0,P|295:236|328:232,1,67.199995088196,10|8,0:1|0:3,0:0:0:0:
141,80,99387,2,0,P|135:46|139:13,1,67.199995088196,8|0,2:2|0:0,0:0:0:0:
166,247,99672,2,0,P|177:278|197:305,1,67.199995088196,10|8,0:1|0:3,0:0:0:0:
268,135,99958,5,6,1:3:0:0:
141,80,100101,1,8,3:1:0:0:
31,161,100244,1,6,1:3:0:0:
47,297,100387,1,8,3:1:0:0:
172,350,100529,5,10,1:3:0:0:
141,80,100672,1,8,1:1:0:0:
47,297,100815,1,6,1:3:0:0:
268,135,100958,1,8,1:1:0:0:
31,161,101101,5,6,3:2:0:0:
44,184,101387,2,0,P|77:189|118:183,1,67.199995088196,10|0,0:1|0:0,0:0:0:0:
217,39,101672,1,8,2:2:0:0:
36,23,101815,2,0,P|16:49|3:81,1,67.199995088196,10|0,0:1|0:0,0:0:0:0:
237,261,102101,6,0,P|256:234|269:202,1,67.199995088196,2|0,0:0|0:0,0:0:0:0:
217,39,102387,2,0,P|183:35|150:40,1,67.199995088196,2|4,0:0|0:3,0:0:0:0:
44,184,102672,1,8,0:3:0:0:
180,295,102815,2,0,P|210:281|236:260,1,67.199995088196,10|0,2:2|0:0,0:0:0:0:
150,40,103101,2,0,P|119:53|93:74,1,67.199995088196,10|0,0:3|0:0,0:0:0:0:
67,306,103387,5,4,0:3:0:0:
49,285,103672,2,0,P|40:241|42:203,1,67.199995088196,10|0,0:1|0:0,0:0:0:0:
204,114,103958,1,10,2:2:0:0:
235,293,104101,2,0,P|201:322|167:340,1,67.199995088196,10|0,0:1|0:0,0:0:0:0:
204,114,104387,6,0,P|237:84|271:66,1,67.199995088196,2|0,0:0|0:0,0:0:0:0:
296,318,104672,2,0,P|253:303|221:283,1,67.199995088196,2|4,0:0|0:3,0:0:0:0:
256,73,104958,1,10,0:3:0:0:
427,137,105101,2,0,P|436:181|434:219,1,67.199995088196,10|0,2:2|0:0,0:0:0:0:
234,292,105387,1,10,0:3:0:0:
204,114,105529,1,4,0:3:0:0:
435,203,105672,6,0,L|448:338,2,134.399990176392,10|8|8,0:3|0:1|2:2,0:0:0:0:
412,189,106529,5,8,0:3:0:0:
470,350,106672,1,8,0:1:0:0:
342,149,106815,5,4,3:3:0:0:
472,259,106958,1,0,3:2:0:0:
260,148,107101,5,8,3:1:0:0:
428,179,107244,1,8,3:3:0:0:
188,188,107387,5,10,1:1:0:0:
349,131,107529,1,4,1:3:0:0:
145,258,107672,5,10,1:1:0:0:
256,128,107815,1,4,1:3:0:0:
182,344,107958,6,0,P|116:347|63:306,1,134.399990176392,10|8,0:3|0:1,0:0:0:0:
71,116,108387,1,8,0:3:0:0:
217,196,108529,2,0,P|231:226|236:263,1,67.199995088196,10|0,2:2|0:0,0:0:0:0:
71,116,108815,2,0,P|73:82|88:48,1,67.199995088196,8|8,0:1|0:3,0:0:0:0:
297,26,109101,5,6,1:3:0:0:
320,194,109244,1,8,3:1:0:0:
489,171,109387,1,6,1:3:0:0:
465,2,109529,1,8,3:1:0:0:
297,26,109672,5,10,1:3:0:0:
489,171,109815,1,8,1:1:0:0:
465,2,109958,1,6,1:3:0:0:
320,194,110101,1,8,1:1:0:0:
512,339,110244,5,6,3:2:0:0:
503,313,110529,2,0,P|474:294|443:281,1,67.199995088196,10|0,0:1|0:0,0:0:0:0:
206,286,110815,1,8,2:2:0:0:
288,361,110958,2,0,P|319:348|346:329,1,67.199995088196,10|0,0:1|0:0,0:0:0:0:
364,117,111244,6,0,P|337:96|307:81,1,67.199995088196,2|0,0:0|0:0,0:0:0:0:
149,250,111529,2,0,P|175:270|205:285,1,67.199995088196,2|4,0:0|0:3,0:0:0:0:
377,204,111815,1,8,0:3:0:0:
226,68,111958,2,0,P|194:80|167:99,1,67.199995088196,10|0,2:2|0:0,0:0:0:0:
377,204,112244,2,0,P|408:191|435:172,1,67.199995088196,10|0,0:3|0:0,0:0:0:0:
279,1,112529,5,10,0:3:0:0:
278,28,112815,2,0,P|256:53|226:68,1,67.199995088196,10|0,0:1|0:0,0:0:0:0:
0,92,113101,1,10,2:2:0:0:
82,16,113244,2,0,P|111:30|134:55,1,67.199995088196,10|0,0:1|0:0,0:0:0:0:
49,272,113529,6,0,P|28:243|20:202,1,67.199995088196,2|0,0:0|0:0,0:0:0:0:
279,237,113815,2,0,P|264:269|232:297,1,67.199995088196,2|4,0:0|0:3,0:0:0:0:
20,212,114101,1,10,0:3:0:0:
134,55,114244,2,0,P|169:51|209:64,1,67.199995088196,10|0,2:2|0:0,0:0:0:0:
241,291,114529,1,8,0:3:0:0:
101,148,114672,1,4,0:3:0:0:
300,59,114815,6,0,L|444:35,2,134.399990176392,10|8|8,0:3|0:1|2:2,0:0:0:0:
274,52,115672,5,8,0:3:0:0:
458,49,115815,1,8,0:1:0:0:
209,120,115958,5,4,3:3:0:0:
366,26,116101,1,0,3:2:0:0:
185,211,116244,5,8,3:1:0:0:
274,52,116387,1,8,3:3:0:0:
211,302,116529,5,10,1:1:0:0:
209,120,116672,1,4,1:3:0:0:
279,368,116815,5,10,1:1:0:0:
186,211,116958,1,4,1:3:0:0:
410,95,117101,6,0,P|447:90|500:100,1,67.199995088196,6|0,0:3|0:0,0:0:0:0:
420,286,117387,2,0,P|458:287|509:273,1,67.199995088196,10|8,0:1|0:3,0:0:0:0:
283,62,117672,2,0,P|305:31|349:1,1,67.199995088196,8|0,2:2|0:0,0:0:0:0:
291,334,117958,2,0,P|316:361|361:386,1,67.199995088196,10|8,0:3|0:3,0:0:0:0:
25,145,118244,5,6,1:3:0:0:
192,14,118387,1,8,3:1:0:0:
264,234,118529,1,6,1:3:0:0:
97,361,118672,1,8,3:1:0:0:
25,145,118815,5,10,1:3:0:0:
264,234,118958,1,8,1:1:0:0:
97,361,119101,1,6,1:3:0:0:
192,14,119244,1,8,1:1:0:0:
445,269,119387,5,6,3:2:0:0:
256,192,119458,12,0,121101,0:0:0:0:
46,106,121387,6,0,L|76:18,1,89.5999961853028,2|0,0:2|2:2,0:0:0:0:
138,116,121958,6,0,L|217:64,1,78.399994269562,2|0,0:2|2:2,0:0:0:0:
184,193,122529,5,2,0:2:0:0:
256,256,123958,5,2,3:2:0:0:
466,106,125958,6,0,L|436:18,1,67.199995088196,2|0,0:2|2:2,0:0:0:0:
374,116,126529,6,0,L|317:78,1,55.9999976158142,2|0,0:2|0:2,0:0:0:0:
328,193,127101,5,2,0:2:0:0:
88,139,128529,6,0,B|39:94|71:17|154:23|180:89|138:138|138:138|96:187|115:260|115:260|123:215|155:190,1,447.999980926514,2|2,3:2|0:0,0:0:0:0:
