osu file format v14

[General]
AudioFilename: audio.mp3
AudioLeadIn: 0
PreviewTime: 244159
Countdown: 0
SampleSet: Soft
StackLeniency: 0.3
Mode: 0
LetterboxInBreaks: 0
WidescreenStoryboard: 0

[Editor]
Bookmarks: 9730,28016,46302,64587,82873,101159,119445,137730,156016,174302,192587,210873,229159,247445,265730
DistanceSpacing: 1.7
BeatDivisor: 8
GridSize: 4
TimelineZoom: 2.3

[Metadata]
Title:leap in your mind
TitleUnicode:leap in your mind
Artist:solfa feat. Shimotsuki Haruka
ArtistUnicode:solfa feat. 霜月はるか
Creator:Hey lululu
Version:That love destroys the world
Source:仄暗き時の果てより
Tags:Honoguraki Toki no Hate Yori full version eroge visual novel opening iyuna moonstone sweet heart 結び音リボン~Daichi no Oto~ Kalibe Godkei lu^3 japanese video game rock
BeatmapID:2844710
BeatmapSetID:1376340

[Difficulty]
HPDrainRate:6
CircleSize:4.2
OverallDifficulty:9
ApproachRate:9.1
SliderMultiplier:2.4
SliderTickRate:1

[Events]
//Background and Video events
0,0,"BG.jpg",0,0
//Break Periods
2,122216,135416
//Storyboard Layer 0 (Background)
//Storyboard Layer 1 (Fail)
//Storyboard Layer 2 (Pass)
//Storyboard Layer 3 (Foreground)
//Storyboard Layer 4 (Overlay)
//Storyboard Sound Samples

[TimingPoints]
588,571.428571428571,4,2,1,50,1,0
9587,-100,4,2,1,5,0,0
9730,-62.5,4,2,1,65,0,0
10302,-133.333333333333,4,2,1,65,0,0
12016,-79.9999999999999,4,2,1,65,0,0
12445,-133.333333333333,4,2,1,65,0,0
14302,-100,4,2,1,65,0,0
14873,-133.333333333333,4,2,1,65,0,0
16587,-90.9090909090909,4,2,1,65,0,0
17802,-90.9090909090909,4,2,1,5,0,0
17873,-90.9090909090909,4,2,1,65,0,0
18873,-66.6666666666667,4,2,1,65,0,0
19445,-100,4,2,1,65,0,0
25730,-100,4,2,1,40,0,0
26873,-100,4,2,1,40,0,0
26945,-100,4,2,1,5,0,0
27016,-100,4,2,1,40,0,0
27088,-100,4,2,1,5,0,0
27159,-100,4,2,1,40,0,0
27231,-100,4,2,1,5,0,0
27302,-100,4,2,1,40,0,0
27374,-100,4,2,1,5,0,0
27445,-100,4,2,1,40,0,0
27480,-100,4,2,1,5,0,0
27587,-100,4,2,1,40,0,0
27622,-100,4,2,1,5,0,0
27730,-100,4,2,1,40,0,0
27765,-100,4,2,1,5,0,0
27873,-100,4,2,1,40,0,0
27908,-100,4,2,1,5,0,0
28016,-125,4,2,1,60,0,0
29730,-111.111111111111,4,2,1,60,0,0
29945,-111.111111111111,4,2,1,5,0,0
30016,-100,4,2,1,60,0,0
30230,-100,4,2,1,5,0,0
30302,-125,4,2,1,60,0,0
34302,-100,4,2,1,60,0,0
34873,-125,4,2,1,60,0,0
36587,-133.333333333333,4,2,1,60,0,0
37159,-125,4,2,1,60,0,0
38873,-111.111111111111,4,2,1,60,0,0
39088,-111.111111111111,4,2,1,5,0,0
39159,-100,4,2,1,60,0,0
39373,-100,4,2,1,5,0,0
39445,-125,4,2,1,60,0,0
41159,-100,4,2,1,60,0,0
43445,-133.333333333333,4,2,1,60,0,0
44016,-100,4,2,1,60,0,0
45730,-133.333333333333,4,2,1,60,0,0
46302,-100,4,2,1,50,0,0
63730,-55.5555555555556,4,2,1,50,0,0
64587,-153.846153846153,4,2,1,60,0,0
68587,-125,4,2,1,60,0,0
69159,-100,4,2,1,60,0,0
73730,-125,4,2,1,60,0,0
80587,-125,4,2,1,40,0,0
81730,-100,4,2,1,40,0,0
81802,-100,4,2,1,5,0,0
81873,-100,4,2,1,40,0,0
81945,-100,4,2,1,5,0,0
82016,-100,4,2,1,40,0,0
82088,-100,4,2,1,5,0,0
82159,-100,4,2,1,40,0,0
82231,-100,4,2,1,5,0,0
82302,-100,4,2,1,40,0,0
82337,-100,4,2,1,5,0,0
82444,-100,4,2,1,40,0,0
82479,-100,4,2,1,5,0,0
82587,-100,4,2,1,40,0,0
82622,-100,4,2,1,5,0,0
82730,-100,4,2,1,40,0,0
82765,-100,4,2,1,5,0,0
82873,-52.6315789473684,4,2,2,75,0,0
82909,-52.6315789473684,4,2,1,75,0,0
83373,-52.6315789473684,4,2,1,5,0,0
83445,-66.6666666666667,4,2,1,75,0,0
85302,-58.8235294117647,4,2,1,75,0,0
85730,-66.6666666666667,4,2,1,75,0,0
86587,-111.111111111111,4,2,1,75,0,0
86873,-66.6666666666667,4,2,1,75,0,0
87445,-62.5,4,2,1,75,0,0
88016,-66.6666666666667,4,2,1,75,0,0
89373,-66.6666666666667,4,2,1,5,0,0
89445,-66.6666666666667,4,2,1,75,0,0
89730,-100,4,2,1,75,0,0
90016,-76.9230769230769,4,2,1,75,0,0
90302,-58.8235294117647,4,2,1,75,0,0
90516,-58.8235294117647,4,2,1,5,0,0
90587,-100,4,2,1,75,0,0
90730,-58.8235294117647,4,2,1,75,0,0
92016,-50,4,2,2,75,0,0
92052,-50,4,2,1,75,0,0
92587,-66.6666666666667,4,2,1,75,0,0
94016,-111.111111111111,4,2,1,75,0,0
94302,-55.5555555555556,4,2,1,75,0,0
94587,-100,4,2,1,75,0,0
95016,-66.6666666666667,4,2,1,75,0,0
95302,-58.8235294117647,4,2,1,75,0,0
96587,-71.4285714285714,4,2,1,75,0,0
97159,-58.8235294117647,4,2,1,75,0,0
97373,-58.8235294117647,4,2,1,5,0,0
97445,-58.8235294117647,4,2,1,75,0,0
97873,-100,4,2,1,75,0,0
98016,-58.8235294117647,4,2,1,75,0,0
98516,-58.8235294117647,4,2,1,5,0,0
98587,-58.8235294117647,4,2,1,75,0,0
98873,-50,4,2,1,75,0,0
99087,-50,4,2,1,5,0,0
99159,-50,4,2,1,75,0,0
99659,-50,4,2,1,5,0,0
99730,-100,4,2,1,75,0,0
99873,-66.6666666666667,4,2,1,75,0,0
101159,-52.6315789473684,4,2,2,75,0,0
101195,-52.6315789473684,4,2,1,75,0,0
101659,-52.6315789473684,4,2,1,5,0,0
101730,-66.6666666666667,4,2,1,75,0,0
103587,-58.8235294117647,4,2,1,75,0,0
104016,-66.6666666666667,4,2,1,75,0,0
104873,-111.111111111111,4,2,1,75,0,0
105159,-66.6666666666667,4,2,1,75,0,0
105730,-62.5,4,2,1,75,0,0
106302,-66.6666666666667,4,2,1,75,0,0
107659,-66.6666666666667,4,2,1,5,0,0
107730,-66.6666666666667,4,2,1,75,0,0
108016,-100,4,2,1,75,0,0
108302,-76.9230769230769,4,2,1,75,0,0
108587,-58.8235294117647,4,2,1,75,0,0
108802,-58.8235294117647,4,2,1,5,0,0
108873,-100,4,2,1,75,0,0
109016,-58.8235294117647,4,2,1,75,0,0
110302,-50,4,2,2,75,0,0
110337,-50,4,2,1,75,0,0
110873,-66.6666666666667,4,2,1,75,0,0
112302,-111.111111111111,4,2,1,75,0,0
112587,-55.5555555555556,4,2,1,75,0,0
112873,-100,4,2,1,75,0,0
113302,-66.6666666666667,4,2,1,75,0,0
113587,-58.8235294117647,4,2,1,75,0,0
114873,-71.4285714285714,4,2,1,75,0,0
115445,-58.8235294117647,4,2,1,75,0,0
115659,-58.8235294117647,4,2,1,5,0,0
115730,-58.8235294117647,4,2,1,75,0,0
116159,-100,4,2,1,75,0,0
116302,-58.8235294117647,4,2,1,75,0,0
116802,-58.8235294117647,4,2,1,5,0,0
116873,-58.8235294117647,4,2,1,75,0,0
117159,-50,4,2,1,75,0,0
117373,-50,4,2,1,5,0,0
117445,-50,4,2,1,75,0,0
118016,-100,4,2,1,75,0,0
118159,-66.6666666666667,4,2,1,75,0,0
121445,-66.6666666666667,4,2,1,50,0,0
137730,-133.333333333333,4,2,1,40,0,0
149230,-133.333333333333,4,2,1,40,0,0
154587,-100,4,2,1,40,0,0
155445,-222.222222222221,4,2,1,40,0,0
156016,-100,4,2,1,60,0,0
162516,-100,4,2,1,5,0,0
162587,-100,4,2,1,60,0,0
162802,-100,4,2,1,5,0,0
162873,-100,4,2,1,60,0,0
166802,-100,4,2,1,5,0,0
166873,-100,4,2,1,60,0,0
167087,-100,4,2,1,5,0,0
167158,-100,4,2,1,60,0,0
167373,-100,4,2,1,5,0,0
167444,-100,4,2,1,60,0,0
173444,-55.5555555555556,4,2,1,60,0,0
174302,-153.846153846154,4,2,1,65,0,0
178302,-125,4,2,1,65,0,0
178873,-100,4,2,1,65,0,0
183445,-117.647058823529,4,2,1,65,0,0
190302,-111.111111111111,4,2,1,40,0,0
191445,-100,4,2,1,40,0,0
191517,-100,4,2,1,5,0,0
191588,-100,4,2,1,40,0,0
191660,-100,4,2,1,5,0,0
191731,-100,4,2,1,40,0,0
191803,-100,4,2,1,5,0,0
191874,-100,4,2,1,40,0,0
191946,-100,4,2,1,5,0,0
192016,-58.8235294117647,4,2,1,60,0,0
192516,-58.8235294117647,4,2,1,5,0,0
192587,-52.6315789473684,4,2,2,75,0,0
192623,-52.6315789473684,4,2,1,75,0,0
193087,-52.6315789473684,4,2,1,5,0,0
193159,-66.6666666666667,4,2,1,75,0,0
195016,-58.8235294117647,4,2,1,75,0,0
195444,-66.6666666666667,4,2,1,75,0,0
196301,-111.111111111111,4,2,1,75,0,0
196587,-66.6666666666667,4,2,1,75,0,0
197159,-62.5,4,2,1,75,0,0
197730,-66.6666666666667,4,2,1,75,0,0
199087,-66.6666666666667,4,2,1,5,0,0
199159,-66.6666666666667,4,2,1,75,0,0
199444,-100,4,2,1,75,0,0
199730,-76.9230769230769,4,2,1,75,0,0
200016,-58.8235294117647,4,2,1,75,0,0
200230,-58.8235294117647,4,2,1,5,0,0
200301,-100,4,2,1,75,0,0
200444,-58.8235294117647,4,2,1,75,0,0
201730,-50,4,2,2,75,0,0
201766,-50,4,2,1,75,0,0
202301,-66.6666666666667,4,2,1,75,0,0
203730,-111.111111111111,4,2,1,75,0,0
204016,-55.5555555555556,4,2,1,75,0,0
204301,-100,4,2,1,75,0,0
204730,-66.6666666666667,4,2,1,75,0,0
205016,-58.8235294117647,4,2,1,75,0,0
206301,-71.4285714285714,4,2,1,75,0,0
206873,-58.8235294117647,4,2,1,75,0,0
207087,-58.8235294117647,4,2,1,5,0,0
207159,-58.8235294117647,4,2,1,75,0,0
207587,-100,4,2,1,75,0,0
207730,-58.8235294117647,4,2,1,75,0,0
208230,-58.8235294117647,4,2,1,5,0,0
208302,-58.8235294117647,4,2,1,75,0,0
208587,-50,4,2,1,75,0,0
208802,-50,4,2,1,5,0,0
208873,-50,4,2,1,75,0,0
209373,-50,4,2,1,5,0,0
209444,-100,4,2,1,75,0,0
209587,-66.6666666666667,4,2,1,75,0,0
210873,-52.6315789473684,4,2,2,75,0,0
210909,-52.6315789473684,4,2,1,75,0,0
211373,-52.6315789473684,4,2,1,5,0,0
211445,-66.6666666666667,4,2,1,75,0,0
213302,-58.8235294117647,4,2,1,75,0,0
213730,-66.6666666666667,4,2,1,75,0,0
214587,-111.111111111111,4,2,1,75,0,0
214873,-66.6666666666667,4,2,1,75,0,0
215445,-62.5,4,2,1,75,0,0
216016,-66.6666666666667,4,2,1,75,0,0
217373,-66.6666666666667,4,2,1,5,0,0
217445,-66.6666666666667,4,2,1,75,0,0
217730,-100,4,2,1,75,0,0
218016,-76.9230769230769,4,2,1,75,0,0
218302,-58.8235294117647,4,2,1,75,0,0
218516,-58.8235294117647,4,2,1,5,0,0
218587,-100,4,2,1,75,0,0
218730,-58.8235294117647,4,2,1,75,0,0
220016,-50,4,2,2,75,0,0
220052,-50,4,2,1,75,0,0
220587,-66.6666666666667,4,2,1,75,0,0
222016,-111.111111111111,4,2,1,75,0,0
222301,-55.5555555555556,4,2,1,75,0,0
222587,-100,4,2,1,75,0,0
223016,-66.6666666666667,4,2,1,75,0,0
223302,-58.8235294117647,4,2,1,75,0,0
224587,-71.4285714285714,4,2,1,75,0,0
225159,-58.8235294117647,4,2,1,75,0,0
225373,-58.8235294117647,4,2,1,5,0,0
225445,-58.8235294117647,4,2,1,75,0,0
225873,-100,4,2,1,75,0,0
226016,-58.8235294117647,4,2,1,75,0,0
226516,-58.8235294117647,4,2,1,5,0,0
226587,-58.8235294117647,4,2,1,75,0,0
226873,-50,4,2,1,75,0,0
227087,-50,4,2,1,5,0,0
227159,-133.333333333333,4,2,1,75,0,0
227445,-50,4,2,1,75,0,0
227730,-100,4,2,1,75,0,0
227873,-66.6666666666667,4,2,1,75,0,0
229159,-111.111111111111,4,2,1,75,0,0
231445,-100,4,2,1,60,0,0
237159,-100,4,2,1,40,0,0
237231,-100,4,2,1,5,0,0
237302,-100,4,2,1,40,0,0
237374,-100,4,2,1,5,0,0
237445,-100,4,2,1,40,0,0
237517,-100,4,2,1,5,0,0
237588,-100,4,2,1,40,0,0
237660,-100,4,2,1,5,0,0
237731,-100,4,2,1,40,0,0
237766,-100,4,2,1,5,0,0
237873,-100,4,2,1,40,0,0
237908,-100,4,2,1,5,0,0
238016,-100,4,2,1,40,0,0
238051,-100,4,2,1,5,0,0
238159,-100,4,2,1,40,0,0
238194,-100,4,2,1,5,0,0
238302,-100,4,2,1,30,0,0
246730,-100,4,2,1,5,0,0
246873,-250,4,2,1,50,0,0
247373,-250,4,2,1,5,0,0
247445,-40,4,2,2,75,0,0
247480,-40,4,2,1,75,0,0
247945,-40,4,2,1,5,0,0
248016,-58.8235294117647,4,2,1,75,0,0
248659,-58.8235294117647,4,2,1,5,0,0
248730,-58.8235294117647,4,2,1,75,0,0
251730,-100,4,2,1,75,0,0
252016,-58.8235294117647,4,2,1,75,0,0
254016,-133.333333333333,4,2,1,75,0,0
254302,-58.8235294117647,4,2,1,75,0,0
255445,-100,4,2,1,75,0,0
255730,-58.8235294117647,4,2,1,75,0,0
256587,-47.6190476190476,4,2,2,75,0,0
256623,-47.6190476190476,4,2,1,75,0,0
257087,-47.6190476190476,4,2,1,5,0,0
257159,-47.6190476190476,4,2,1,75,0,0
258873,-45.4545454545455,4,2,1,75,0,0
259873,-76.9230769230769,4,2,1,75,0,0
260016,-100,4,2,1,75,0,0
260302,-66.6666666666667,4,2,1,75,0,0
260587,-52.6315789473684,4,2,1,75,0,0
260802,-52.6315789473684,4,2,1,5,0,0
260873,-100,4,2,1,75,0,0
261016,-66.6666666666667,4,2,1,75,0,0
261159,-52.6315789473684,4,2,1,75,0,0
262016,-58.8235294117647,4,2,1,75,0,0
263159,-50,4,2,1,75,0,0
263373,-50,4,2,1,5,0,0
263445,-133.333333333333,4,2,1,75,0,0
263730,-100,4,2,1,75,0,0
264016,-71.4285714285714,4,2,1,75,0,0
264302,-58.8235294117647,4,2,1,75,0,0
265159,-58.8235294117647,4,2,1,75,0,0
265730,-40,4,2,2,75,0,0
265766,-40,4,2,1,75,0,0
266230,-40,4,2,1,5,0,0
266301,-58.8235294117647,4,2,1,75,0,0
266945,-58.8235294117647,4,2,1,5,0,0
267016,-58.8235294117647,4,2,1,75,0,0
270015,-100,4,2,1,75,0,0
270301,-58.8235294117647,4,2,1,75,0,0
272301,-133.333333333333,4,2,1,75,0,0
272587,-58.8235294117647,4,2,1,75,0,0
273730,-100,4,2,1,75,0,0
274015,-58.8235294117647,4,2,1,75,0,0
274872,-47.6190476190476,4,2,2,75,0,0
274909,-47.6190476190476,4,2,1,75,0,0
275373,-47.6190476190476,4,2,1,5,0,0
275445,-47.6190476190476,4,2,1,75,0,0
277158,-45.4545454545455,4,2,1,75,0,0
278158,-76.9230769230769,4,2,1,75,0,0
278301,-100,4,2,1,75,0,0
278587,-66.6666666666667,4,2,1,75,0,0
278872,-52.6315789473684,4,2,1,75,0,0
279087,-52.6315789473684,4,2,1,5,0,0
279158,-100,4,2,1,75,0,0
279301,-66.6666666666667,4,2,1,75,0,0
279444,-52.6315789473684,4,2,1,75,0,0
280301,-58.8235294117647,4,2,1,75,0,0
281444,-50,4,2,1,75,0,0
281659,-50,4,2,1,5,0,0
281730,-133.333333333333,4,2,1,75,0,0
282015,-100,4,2,1,75,0,0
282301,-71.4285714285714,4,2,1,75,0,0
282587,-58.8235294117647,4,2,1,75,0,0
284016,-58.8235294117647,4,2,1,40,0,0
286302,-58.8235294117647,4,2,1,5,0,0

[Colours]
Combo1 : 217,186,121
Combo2 : 200,81,81

[HitObjects]
256,192,7445,12,0,9587,0:0:0:0:
16,70,9730,6,0,B|189:43|132:87|308:56,1,288,4|0,1:2|1:2,0:0:0:0:
465,143,10302,6,0,L|346:107,1,90.0000034332277,8|0,1:2|1:2,0:0:0:0:
258,250,10730,2,0,L|357:230,1,90.0000034332277,8|8,1:2|1:2,0:0:0:0:
271,179,11159,2,0,L|283:232,1,45.0000017166138,0|0,1:2|1:2,0:0:0:0:
213,330,11445,5,10,1:2:0:0:
300,357,11587,1,0,1:2:0:0:
300,357,11659,1,0,1:2:0:0:
300,357,11730,1,2,1:1:0:0:
376,316,11873,1,0,1:2:0:0:
308,367,12016,6,0,B|166:339|219:394|83:357,1,225,2|0,1:2|1:2,0:0:0:0:
98,217,12587,6,0,P|94:192|73:115,1,90.0000034332277,8|0,1:2|1:2,0:0:0:0:
186,245,13016,1,8,1:2:0:0:
153,310,13159,1,0,0:0:0:0:
254,251,13302,1,8,1:2:0:0:
329,315,13445,1,0,1:2:0:0:
290,328,13587,1,0,1:2:0:0:
354,239,13730,2,0,P|398:246|442:256,1,90.0000034332277,8|0,1:2|1:2,0:0:0:0:
503,225,14159,1,0,1:2:0:0:
434,137,14302,6,0,P|389:144|334:83,1,120,2|0,1:2|1:2,0:0:0:0:
264,182,14730,2,0,P|234:225|165:232,1,120,0|0,1:2|0:0,0:0:0:0:
14,176,15159,1,2,1:2:0:0:
93,139,15302,6,0,P|109:138|189:155,1,90.0000034332277,8|8,1:2|1:2,0:0:0:0:
242,182,15730,1,0,1:2:0:0:
340,144,15873,1,0,1:2:0:0:
405,268,16016,1,8,1:2:0:0:
405,268,16302,2,0,L|395:326,1,45.0000017166138,2|0,1:1|1:2,0:0:0:0:
443,195,16587,6,0,P|487:115|532:128,1,132.00000402832,2|0,1:2|1:2,0:0:0:0:
443,195,17016,1,0,1:2:0:0:
298,144,17159,2,0,L|229:164,1,66.0000020141602,8|0,1:2|0:0,0:0:0:0:
164,217,17445,1,0,1:2:0:0:
113,47,17587,6,0,L|232:69,1,99.0000030212403,8|0,1:2|0:0,0:0:0:0:
281,70,17873,1,10,1:2:0:0:
237,155,18016,1,2,1:2:0:0:
346,93,18159,1,2,1:2:0:0:
245,243,18302,5,8,1:2:0:0:
170,190,18445,1,0,1:2:0:0:
238,319,18587,1,0,1:2:0:0:
328,209,18730,1,0,1:2:0:0:
168,282,18873,6,0,B|113:323|37:340|-18:248|85:289,1,180.000006866455,4|0,1:2|1:2,0:0:0:0:
130,355,19302,1,0,1:2:0:0:
265,306,19445,2,0,B|304:315|304:315|333:338|333:338|381:353,1,120,8|0,1:2|1:2,0:0:0:0:
434,250,19873,6,0,L|372:271,1,60,8|0,1:2|1:0,0:0:0:0:
512,208,20159,5,8,1:2:0:0:
379,102,20302,2,0,L|398:173,1,60,0|0,1:2|1:2,0:0:0:0:
253,342,20587,5,10,1:2:0:0:
274,275,20730,1,0,1:2:0:0:
274,275,20802,1,0,1:2:0:0:
274,275,20873,1,2,1:1:0:0:
149,218,21016,1,0,1:2:0:0:
163,144,21159,2,0,P|165:107|158:3,1,120,2|0,1:2|1:2,0:0:0:0:
70,183,21587,5,0,1:2:0:0:
152,110,21730,2,0,L|91:84,1,60,8|0,1:2|0:0,0:0:0:0:
27,113,22016,1,0,1:2:0:0:
143,219,22159,2,0,P|145:235|148:357,1,120,8|8,1:2|1:2,0:0:0:0:
227,261,22587,5,0,1:2:0:0:
343,338,22730,1,0,1:2:0:0:
391,181,22873,1,10,1:2:0:0:
315,268,23016,1,0,1:2:0:0:
474,194,23159,1,0,1:2:0:0:
310,191,23302,5,0,1:2:0:0:
391,272,23445,2,0,B|438:255|464:294|522:288,1,120,2|0,1:2|1:2,0:0:0:0:
240,384,24016,2,0,P|222:354|232:260,1,120,8|2,1:2|1:2,0:0:0:0:
283,177,24445,1,8,1:2:0:0:
416,163,24587,5,0,0:0:0:0:
351,136,24730,1,8,1:2:0:0:
326,195,24873,1,0,1:2:0:0:
199,232,25016,5,0,1:2:0:0:
199,232,25087,1,0,1:0:0:0:
199,232,25159,1,8,1:2:0:0:
110,267,25302,1,0,1:2:0:0:
36,211,25445,2,0,L|27:182,2,30,0|0|0,1:2|0:0|1:2,0:0:0:0:
265,326,25730,5,4,1:1:0:0:
196,336,26016,1,0,1:0:0:0:
196,336,26159,2,0,P|223:326|263:325,1,60,0|8,1:0|1:2,0:0:0:0:
294,260,26445,2,0,P|240:241|173:241,1,120,0|8,0:0|1:3,0:0:0:0:
76,192,26873,6,0,L|114:201,1,30,10|0,0:3|0:0,0:0:0:0:
115,167,27016,2,0,L|151:159,1,30,10|0,0:3|0:0,0:0:0:0:
194,205,27159,2,0,L|241:216,1,30,10|0,0:3|0:0,0:0:0:0:
265,143,27302,2,0,L|315:131,1,30,10|0,0:3|0:0,0:0:0:0:
390,189,27445,6,0,L|412:182,1,15,8|0,0:3|0:0,0:0:0:0:
433,111,27587,6,0,L|447:122,1,15,8|0,0:3|0:0,0:0:0:0:
384,45,27730,6,0,L|374:64,1,15,8|0,0:3|0:0,0:0:0:0:
278,107,27873,6,0,L|274:122,1,15,8|0,0:3|0:0,0:0:0:0:
354,259,28016,5,4,1:2:0:0:
110,349,28302,2,0,P|116:321|118:289,1,48,0|0,1:2|1:2,0:0:0:0:
194,383,28587,1,8,1:2:0:0:
208,308,28730,2,0,P|210:333|216:358,1,48,2|0,0:2|0:0,0:0:0:0:
325,341,29016,2,0,B|364:355|371:371|414:386,2,96,2|2|2,1:2|1:2|1:2,0:0:0:0:
421,228,29730,6,0,P|458:224|485:183,1,80.9999975280763,8|0,1:2|0:0,0:0:0:0:
483,191,30016,6,0,P|430:196|399:245,1,90,2|0,1:2|0:0,0:0:0:0:
335,153,30302,5,0,1:0:0:0:
335,153,30445,1,0,0:0:0:0:
268,91,30587,2,0,P|231:84|205:68,1,48,0|0,1:2|1:2,0:0:0:0:
142,137,30873,1,8,1:2:0:0:
142,137,31016,2,0,P|105:144|79:160,1,48,2|0,0:2|0:0,0:0:0:0:
267,194,31302,2,0,P|321:206|363:234,2,96,2|2|2,1:2|1:2|1:2,0:0:0:0:
123,262,32016,2,0,L|110:313,1,48,8|0,1:2|0:0,0:0:0:0:
52,241,32302,2,0,L|39:292,1,48,2|0,1:2|0:0,0:0:0:0:
169,176,32587,6,0,B|157:120|145:143|132:75,1,96,0|0,1:0|1:2,0:0:0:0:
195,22,33016,1,0,1:2:0:0:
174,95,33159,1,8,1:2:0:0:
70,18,33302,2,0,P|59:48|44:67,1,48,2|0,0:2|0:0,0:0:0:0:
34,109,33587,2,0,P|23:79|8:60,1,48,2|0,1:2|0:0,0:0:0:0:
0,185,33873,1,2,1:2:0:0:
248,129,34159,1,2,1:2:0:0:
353,177,34302,6,0,P|387:172|426:158,1,60,8|0,1:2|0:0,0:0:0:0:
490,206,34587,2,0,P|456:201|417:187,1,60,2|0,1:2|0:0,0:0:0:0:
251,215,34873,6,0,L|137:232,1,96,0|0,1:0|1:2,0:0:0:0:
73,193,35302,1,0,1:2:0:0:
4,225,35445,1,8,1:2:0:0:
78,331,35587,2,0,P|86:303|91:272,1,48,2|0,0:2|0:0,0:0:0:0:
140,121,35873,2,0,P|141:175|158:231,2,96,2|2|2,1:2|1:2|1:2,0:0:0:0:
213,282,36587,6,0,B|279:286|293:325|354:322,1,135.000005149841,8|0,1:2|0:0,0:0:0:0:
413,265,37159,5,0,1:0:0:0:
346,76,37445,2,0,P|349:46|358:23,1,48,0|0,1:2|1:2,0:0:0:0:
296,150,37730,1,8,1:2:0:0:
213,173,37873,2,0,P|190:180|166:192,1,48,2|0,0:2|0:0,0:0:0:0:
93,125,38159,2,0,P|48:120|-9:104,2,96,2|2|2,1:2|1:2|1:2,0:0:0:0:
255,75,38873,6,0,P|292:53|323:26,1,80.9999975280763,8|0,1:2|0:0,0:0:0:0:
320,28,39159,6,0,P|311:72|320:131,1,90,2|0,1:2|0:0,0:0:0:0:
365,184,39445,5,0,1:0:0:0:
365,184,39587,1,0,0:0:0:0:
436,137,39730,2,0,P|460:147|488:153,1,48,0|0,1:2|1:2,0:0:0:0:
329,272,40016,1,8,1:2:0:0:
249,256,40159,2,0,P|241:282|227:316,1,48,2|0,0:2|0:0,0:0:0:0:
122,353,40445,2,0,L|6:369,2,96,2|2|2,1:2|1:2|1:2,0:0:0:0:
326,363,41159,6,0,P|346:328|351:300,1,60,8|0,1:2|0:0,0:0:0:0:
370,357,41445,2,0,P|337:332|322:308,1,60,2|0,1:2|0:0,0:0:0:0:
465,220,41730,6,0,B|483:169|513:175|524:114,2,120,0|0|8,1:0|1:2|1:2,0:0:0:0:
499,317,42445,1,2,0:2:0:0:
363,230,42730,2,0,P|372:201|387:175,1,60,2|0,1:2|1:0,0:0:0:0:
296,154,43016,2,0,P|287:125|272:98,1,60,2|0,1:2|0:0,0:0:0:0:
370,66,43302,1,2,1:2:0:0:
197,23,43445,6,0,B|161:56|107:62|79:27|98:18|142:26,1,135.000005149841,8|0,1:2|0:0,0:0:0:0:
291,0,44016,5,0,1:0:0:0:
291,0,44159,1,0,0:0:0:0:
370,66,44302,2,0,P|408:56|435:49,1,60,0|0,1:2|1:2,0:0:0:0:
312,194,44587,1,8,1:2:0:0:
257,141,44730,2,0,P|196:121|131:124,1,120,2|2,0:2|1:2,0:0:0:0:
45,196,45159,5,0,0:0:0:0:
126,334,45302,1,2,1:2:0:0:
156,229,45445,1,0,0:0:0:0:
96,257,45587,1,2,1:2:0:0:
26,383,45730,6,0,P|13:335|42:377,1,135.000005149841,4|0,1:3|0:0,0:0:0:0:
239,356,46302,5,4,1:2:0:0:
300,187,46445,2,0,L|289:43,1,120,0|0,1:2|1:2,0:0:0:0:
345,26,46873,1,8,1:2:0:0:
345,26,47159,1,0,1:2:0:0:
376,158,47302,6,0,P|372:179|367:264,1,90,2|0,1:2|0:0,0:0:0:0:
263,171,47587,2,0,P|262:194|284:267,1,90,2|0,1:2|0:0,0:0:0:0:
332,310,47873,1,2,1:2:0:0:
175,354,48016,5,8,1:2:0:0:
259,297,48159,1,0,1:2:0:0:
259,297,48230,1,0,0:0:0:0:
259,297,48302,2,0,L|244:376,1,60,0|0,1:2|1:2,0:0:0:0:
56,321,48587,5,4,1:1:0:0:
70,252,48730,1,0,0:0:0:0:
143,225,48873,1,2,1:2:0:0:
169,318,49016,1,2,1:2:0:0:
82,178,49159,2,0,P|84:145|155:110,1,120,10|2,1:2|1:2,0:0:0:0:
237,83,49587,6,0,P|233:100|216:147,1,60,2|0,1:2|0:0,0:0:0:0:
348,239,49873,2,0,P|350:258|371:309,1,60,2|0,1:2|1:2,0:0:0:0:
230,384,50159,1,0,1:2:0:0:
293,174,50302,5,2,1:2:0:0:
256,197,50445,1,0,1:2:0:0:
274,262,50587,5,2,1:2:0:0:
250,234,50730,1,0,1:2:0:0:
421,140,50873,5,4,1:1:0:0:
340,232,51016,2,0,B|323:171|352:179|336:103,1,120,0|0,1:2|1:2,0:0:0:0:
431,230,51445,1,8,1:2:0:0:
267,156,51587,5,0,0:0:0:0:
267,156,51659,1,0,0:0:0:0:
267,156,51730,1,0,1:2:0:0:
330,42,51873,2,0,P|300:51|268:76,1,60,2|0,1:2|0:0,0:0:0:0:
173,231,52159,2,0,P|184:202|188:168,1,60,2|0,1:2|1:2,0:0:0:0:
210,103,52445,1,2,1:2:0:0:
106,127,52587,6,0,P|121:124|156:111,1,30,8|0,1:2|0:0,0:0:0:0:
215,0,52730,2,0,P|216:16|213:44,1,30,0|0,1:2|0:0,0:0:0:0:
210,103,52873,1,0,1:2:0:0:
4,10,53159,5,4,1:1:0:0:
17,6,53302,2,0,P|28:5|129:41,1,120,0|2,0:0|1:2,0:0:0:0:
300,97,53730,2,0,P|320:95|418:60,1,120,10|2,1:2|1:2,0:0:0:0:
420,71,54087,1,0,0:0:0:0:
420,71,54159,2,0,P|407:93|397:134,1,60,2|0,1:2|0:0,0:0:0:0:
290,245,54445,2,0,P|294:277|311:314,1,60,2|0,1:2|1:2,0:0:0:0:
363,345,54730,1,0,1:2:0:0:
377,263,54873,5,2,1:2:0:0:
282,372,55016,1,2,1:2:0:0:
290,245,55159,5,2,1:2:0:0:
442,338,55302,1,0,1:2:0:0:
228,316,55445,5,4,1:1:0:0:
228,316,55587,2,0,P|193:323|94:335,1,120,0|0,1:2|1:2,0:0:0:0:
362,236,56016,2,0,P|389:244|495:263,1,120,8|0,1:2|1:2,0:0:0:0:
410,175,56445,6,0,P|430:151|428:116,1,60,2|0,1:2|1:0,0:0:0:0:
268,252,56730,1,2,1:2:0:0:
343,277,56873,2,0,P|368:275|407:238,1,60,0|2,1:2|1:2,0:0:0:0:
253,128,57159,1,8,1:2:0:0:
186,167,57302,1,0,1:2:0:0:
186,167,57373,1,0,0:0:0:0:
186,167,57445,1,0,1:2:0:0:
252,203,57587,1,0,1:2:0:0:
309,17,57730,5,4,1:1:0:0:
234,60,57873,1,0,0:0:0:0:
274,0,58016,1,0,1:2:0:0:
318,97,58159,1,2,1:2:0:0:
166,21,58302,6,0,P|130:28|41:41,1,120,10|2,1:2|1:2,0:0:0:0:
0,93,58730,6,0,P|10:101|69:121,1,60,2|0,1:2|0:0,0:0:0:0:
114,134,59016,1,2,1:2:0:0:
193,131,59159,5,0,1:2:0:0:
317,103,59302,5,0,1:2:0:0:
453,175,59445,5,2,1:2:0:0:
433,193,59587,1,2,1:2:0:0:
431,179,59730,1,2,1:2:0:0:
451,192,59873,1,0,1:2:0:0:
340,213,60016,6,0,B|296:184|236:214|274:243|225:282|183:268,1,180,4|0,1:1|1:2,0:0:0:0:
52,193,60587,5,8,1:2:0:0:
136,327,60730,2,0,L|143:365,2,30,0|0|0,0:0|0:0|1:2,0:0:0:0:
53,275,61016,6,0,P|48:297|29:344,1,60,2|0,1:2|0:0,0:0:0:0:
178,177,61302,2,0,P|206:168|245:142,1,60,2|0,1:2|1:2,0:0:0:0:
145,246,61587,1,2,1:2:0:0:
259,296,61730,2,0,B|321:304|297:334|374:344,1,120,8|0,1:2|1:2,0:0:0:0:
482,302,62159,5,0,1:2:0:0:
482,302,62230,1,0,0:0:0:0:
482,302,62302,1,4,1:1:0:0:
421,255,62445,1,0,0:0:0:0:
446,179,62587,1,0,1:2:0:0:
497,234,62730,1,2,1:2:0:0:
362,164,62873,5,10,1:2:0:0:
369,100,63016,1,0,0:0:0:0:
310,185,63159,1,2,1:2:0:0:
360,26,63302,5,2,1:2:0:0:
369,100,63445,1,0,0:0:0:0:
294,1,63587,1,2,1:2:0:0:
310,185,63730,6,0,B|281:152|267:100|390:97|344:-12|217:20|267:117|325:92,1,215.999993408203,0|2,1:2|1:2,0:0:0:0:
320,110,64159,5,0,0:0:0:0:
397,140,64302,5,2,1:2:0:0:
512,149,64445,5,0,0:0:0:0:
280,189,64587,6,0,B|106:182|185:315|4:303,1,311.999985717774,4|0,1:2|1:2,0:0:0:0:
6,303,66016,2,0,B|92:299|53:366|144:360,1,155.999992858887,2|2,1:2|1:2,0:0:0:0:
215,312,66730,1,0,0:0:0:0:
345,383,66873,6,0,B|292:368|293:275|323:229|409:247|415:314|354:305,1,233.999989288331,2|0,1:2|1:2,0:0:0:0:
256,208,68016,2,0,B|244:151|214:168|207:92,1,116.999994644165,0|0,0:0|1:2,0:0:0:0:
296,83,68587,6,0,B|287:173|245:150|229:229,1,144,8|0,1:2|0:0,0:0:0:0:
296,289,69159,5,0,1:2:0:0:
165,329,69445,2,0,L|226:312,1,60,2|0,1:2|1:2,0:0:0:0:
296,289,69730,1,10,1:2:0:0:
100,265,69873,2,0,L|161:248,1,60,0|0,0:0|1:2,0:0:0:0:
203,120,70159,2,0,P|190:85|175:-4,2,120,2|2|2,1:2|1:2|1:2,0:0:0:0:
320,145,70873,2,0,P|346:131|367:110,1,60,10|0,1:2|0:0,0:0:0:0:
187,237,71159,2,0,P|161:223|140:202,1,60,2|0,1:2|0:0,0:0:0:0:
296,289,71445,5,0,1:2:0:0:
427,329,71730,2,0,L|365:312,1,60,2|0,1:2|0:0,0:0:0:0:
296,289,72016,1,10,1:2:0:0:
492,265,72159,2,0,L|429:248,1,60,2|0,1:2|0:0,0:0:0:0:
323,116,72445,2,0,P|333:175|358:242,2,120,2|2|0,1:2|1:2|1:2,0:0:0:0:
512,27,73159,2,0,P|498:57|488:82,1,60,8|0,1:2|0:0,0:0:0:0:
409,0,73445,2,0,P|403:32|401:59,1,60,2|0,0:0|0:0,0:0:0:0:
221,218,73730,6,0,B|124:201|167:131|46:115,1,192,4|8,1:2|1:2,0:0:0:0:
200,113,74445,1,0,0:0:0:0:
200,113,74587,2,0,P|212:81|214:48,1,48,0|0,1:2|1:2,0:0:0:0:
271,2,74873,1,0,1:2:0:0:
271,2,75016,1,0,1:2:0:0:
194,0,75159,2,0,P|198:47|216:92,1,96,2|8,1:2|1:2,0:0:0:0:
308,136,75587,1,0,0:0:0:0:
413,58,75730,2,0,P|404:101|398:125,1,48,2|0,1:2|0:0,0:0:0:0:
401,224,76016,6,0,P|445:257|448:296,1,96,2|0,1:2|1:2,0:0:0:0:
318,207,76445,1,0,1:2:0:0:
274,275,76587,2,0,B|228:284|245:304|183:320,1,96,8|0,1:2|1:2,0:0:0:0:
337,332,77016,1,8,1:2:0:0:
168,229,77159,2,0,P|179:188|182:121,1,96,0|0,0:0|1:2,0:0:0:0:
152,243,77587,1,0,1:2:0:0:
273,95,77730,2,0,P|262:54|259:-13,1,96,8|0,1:2|1:2,0:0:0:0:
406,171,78302,5,4,1:2:0:0:
305,187,78588,1,0,1:2:0:0:
206,171,78873,1,8,1:2:0:0:
108,198,79159,1,0,1:2:0:0:
79,239,79445,5,2,1:3:0:0:
146,212,79588,1,2,0:3:0:0:
226,191,79731,5,2,1:3:0:0:
303,210,79873,1,2,0:3:0:0:
377,258,80016,5,10,1:2:0:0:
476,231,80159,1,2,0:3:0:0:
476,231,80302,1,2,1:3:0:0:
256,330,80587,6,0,B|245:344|217:369|217:369|231:340|232:302|232:302|262:271|262:271|265:250|256:221|256:221|277:142|277:142|258:174|240:187,1,336,4|8,1:1|1:3,0:0:0:0:
178,52,81730,6,0,L|190:92,1,30,10|0,0:3|0:0,0:0:0:0:
307,40,81873,2,0,L|287:76,1,30,10|0,0:3|0:0,0:0:0:0:
409,140,82016,2,0,L|369:151,1,30,10|0,0:3|0:0,0:0:0:0:
390,282,82159,2,0,L|353:262,1,30,10|0,0:3|0:0,0:0:0:0:
259,135,82302,6,0,L|246:158,1,15,8|0,0:3|0:0,0:0:0:0:
322,199,82445,6,0,L|296:206,1,15,8|0,0:3|0:0,0:0:0:0:
277,244,82587,6,0,L|253:231,1,15,8|0,0:3|0:0,0:0:0:0:
228,217,82730,6,0,L|220:191,1,15,8|0,0:3|0:0,0:0:0:0:
237,181,82873,6,0,P|417:147|502:325,1,398.999989345551,6|0,1:0|0:0,0:0:0:0:
425,260,83445,2,0,P|417:233|419:159,1,90.0000034332277,8|0,1:2|0:0,0:0:0:0:
427,14,83730,5,2,1:2:0:0:
351,35,83873,2,0,P|384:7|442:29,1,90.0000034332277,8|0,1:2|0:0,0:0:0:0:
271,160,84159,5,0,1:0:0:0:
242,87,84302,1,2,1:2:0:0:
344,166,84445,1,2,1:2:0:0:
178,268,84587,2,0,B|132:300|67:284|50:244|50:244|66:257|119:266,2,180.000006866455,8|0|4,1:2|1:0|1:2,0:0:0:0:
44,366,85302,6,0,P|144:312|233:320,1,204.000003890991,2|0,1:2|1:0,0:0:0:0:
421,325,85730,6,0,P|409:298|384:274,1,45.0000017166138,8|0,1:2|0:0,0:0:0:0:
311,216,85873,1,2,1:2:0:0:
421,325,86016,5,0,0:0:0:0:
508,192,86159,2,0,P|468:147|483:222,1,180.000006866455,2|0,1:2|1:0,0:0:0:0:
467,230,86516,1,0,1:0:0:0:
467,230,86587,2,0,L|459:188,1,26.9999991760254,0|0,3:0|0:0,0:0:0:0:
444,130,86730,2,0,L|452:90,1,26.9999991760254,0|0,3:0|0:0,0:0:0:0:
416,0,86873,5,8,1:2:0:0:
347,12,87016,1,0,1:0:0:0:
290,30,87159,1,2,1:2:0:0:
210,42,87302,1,2,1:2:0:0:
41,99,87445,6,0,P|68:97|256:132,1,192,6|0,1:2|1:0,0:0:0:0:
354,210,87873,1,0,1:0:0:0:
214,228,88016,6,0,P|228:210|260:195,1,45.0000017166138,8|0,1:2|0:0,0:0:0:0:
349,103,88159,2,0,L|452:125,1,90.0000034332277,2|0,1:2|1:0,0:0:0:0:
354,210,88445,6,0,P|340:192|308:177,1,45.0000017166138,8|0,1:2|0:0,0:0:0:0:
204,112,88587,1,2,1:2:0:0:
96,270,88730,5,0,1:0:0:0:
96,270,88802,1,0,1:0:0:0:
96,270,88873,1,0,1:0:0:0:
216,206,89016,1,0,1:0:0:0:
144,175,89159,2,0,B|147:224|112:244|116:308,1,135.000005149841,10|0,1:2|0:0,0:0:0:0:
155,366,89445,5,2,3:0:0:0:
19,278,89587,1,2,3:0:0:0:
7,384,89730,6,0,P|35:373|61:359,1,60,4|0,1:2|0:0,0:0:0:0:
231,130,90016,2,0,P|219:167|215:206,1,77.9999964294435,0|0,1:2|0:0,0:0:0:0:
449,379,90302,2,0,P|425:339|320:331,1,153.000002918243,8|0,1:2|0:0,0:0:0:0:
304,349,90587,2,0,L|310:320,1,30,2|0,1:2|0:0,0:0:0:0:
428,187,90730,6,0,B|439:156|439:156|468:172|468:172|427:204,1,102.000001945496,8|0,1:2|0:0,0:0:0:0:
226,279,91016,6,0,B|215:258|195:239|195:239|221:249|247:276,1,102.000001945496,8|0,1:2|0:0,0:0:0:0:
347,340,91302,6,0,B|369:353|369:353|312:339,1,51.0000009727478,0|0,1:0|0:0,0:0:0:0:
52,310,91445,6,0,B|218:298|174:240|346:221,1,306.000005836487,10|2,1:2|0:3,0:0:0:0:
92,203,92016,6,0,B|45:197|57:102|189:113|196:247,1,240,6|0,1:0|1:0,0:0:0:0:
53,348,92445,1,2,0:0:0:0:
148,115,92587,5,8,1:2:0:0:
224,214,92730,2,0,P|197:253|131:245,1,90.0000034332277,2|0,1:2|0:0,0:0:0:0:
387,117,93016,6,0,P|427:117|461:172,1,90.0000034332277,8|0,1:2|0:0,0:0:0:0:
491,257,93302,1,2,1:2:0:0:
292,108,93445,5,0,1:0:0:0:
317,179,93587,1,0,1:0:0:0:
177,78,93730,1,8,1:2:0:0:
356,25,93873,1,0,1:0:0:0:
356,25,93945,1,0,1:0:0:0:
356,25,94016,2,0,L|417:34,1,53.9999983520508,0|0,1:0|0:0,0:0:0:0:
177,78,94302,6,0,B|116:67|88:-19|88:-19|94:47|37:77,1,215.999993408203,6|2,1:2|1:3,0:0:0:0:
0,123,94730,1,0,1:0:0:0:
229,151,94873,6,0,L|264:145,1,30,8|0,1:2|0:0,0:0:0:0:
267,178,95016,2,0,L|198:164,1,45.0000017166138,2|0,1:2|0:0,0:0:0:0:
148,150,95159,1,0,1:0:0:0:
269,63,95302,2,0,P|251:112|262:281,1,204.000003890991,6|0,1:2|1:0,0:0:0:0:
286,348,95730,5,0,1:0:0:0:
200,311,95873,1,0,1:0:0:0:
151,257,96016,5,8,1:2:0:0:
269,193,96159,1,0,1:2:0:0:
335,129,96302,5,8,1:2:0:0:
167,57,96445,1,8,1:2:0:0:
5,100,96587,6,0,B|36:130|106:113|106:113|64:171,1,167.999994873047,6|0,1:2|1:0,0:0:0:0:
69,163,97016,1,2,0:0:0:0:
124,365,97159,6,0,B|167:357|167:357|222:325|222:325|287:315,1,153.000002918243,8|0,1:2|0:0,0:0:0:0:
359,361,97445,1,0,1:0:0:0:
251,347,97587,6,0,B|226:341|199:346|199:346|172:333|142:336,1,102.000001945496,8|0,1:2|0:0,0:0:0:0:
357,259,97873,6,0,P|351:275|349:290,1,30,8|0,1:2|0:0,0:0:0:0:
359,361,98016,2,0,P|350:340|345:311,1,51.0000009727478,8|0,0:0|0:0,0:0:0:0:
397,182,98159,5,0,1:0:0:0:
512,48,98302,2,0,P|472:12|501:65,1,153.000002918243,8|0,1:2|0:0,0:0:0:0:
501,68,98587,2,0,P|468:31|415:39,1,102.000001945496,2|0,1:2|0:0,0:0:0:0:
156,123,98873,6,0,B|113:103|112:173|200:195|265:100,1,180,2|0,1:3|0:0,0:0:0:0:
317,53,99159,5,2,1:2:0:0:
156,123,99302,1,2,1:2:0:0:
0,23,99445,2,0,P|51:-16|15:43,1,180,8|0,1:2|0:0,0:0:0:0:
8,40,99730,2,0,L|-2:93,1,30,2|0,1:2|0:0,0:0:0:0:
0,258,99873,5,8,1:2:0:0:
189,202,100159,5,0,1:0:0:0:
181,270,100302,1,0,1:2:0:0:
201,202,100445,1,0,1:2:0:0:
343,280,100587,5,10,1:2:0:0:
257,247,100730,1,0,1:2:0:0:
119,222,100873,5,10,1:2:0:0:
0,258,101016,1,8,1:2:0:0:
282,355,101159,6,0,B|357:366|384:373|516:354|526:274|535:209|416:209|383:273|396:343,1,398.999989345551,6|0,1:0|0:0,0:0:0:0:
275,262,101730,2,0,B|221:275|233:290|165:309,1,90.0000034332277,8|0,1:2|0:0,0:0:0:0:
151,209,102016,5,2,1:2:0:0:
251,95,102159,2,0,P|303:111|287:162,1,90.0000034332277,8|0,1:2|0:0,0:0:0:0:
38,244,102445,5,0,1:0:0:0:
19,164,102587,1,0,1:0:0:0:
97,118,102730,1,0,1:0:0:0:
342,212,102873,6,0,B|417:209|445:158|525:157,2,180.000006866455,8|0|4,1:2|1:0|1:2,0:0:0:0:
345,84,103587,6,0,P|308:35|167:1,1,204.000003890991,2|0,1:2|0:0,0:0:0:0:
417,26,104016,6,0,P|440:16|473:-4,1,45.0000017166138,8|0,1:2|0:0,0:0:0:0:
367,174,104159,1,2,1:2:0:0:
230,118,104302,5,0,0:0:0:0:
66,214,104445,2,0,B|56:239|13:237|25:157|93:150|152:191|149:267,1,180.000006866455,2|0,1:2|1:0,0:0:0:0:
204,352,104873,2,0,P|213:331|228:315,1,26.9999991760254,0|0,3:0|0:0,0:0:0:0:
237,253,105016,2,0,P|258:244|280:243,1,26.9999991760254,0|0,3:0|0:0,0:0:0:0:
363,336,105159,5,8,1:2:0:0:
440,359,105302,1,0,1:0:0:0:
512,353,105445,1,2,1:2:0:0:
435,376,105587,1,2,1:2:0:0:
206,336,105730,6,0,P|110:343|22:388,1,192,6|0,1:2|0:0,0:0:0:0:
151,246,106159,1,0,1:0:0:0:
21,141,106302,6,0,P|35:113|55:101,1,45.0000017166138,8|0,1:2|0:0,0:0:0:0:
108,44,106445,2,0,P|167:73|181:116,1,90.0000034332277,2|0,1:2|1:0,0:0:0:0:
279,184,106730,6,0,P|257:186|227:196,1,45.0000017166138,8|0,1:2|0:0,0:0:0:0:
151,246,106873,1,2,1:2:0:0:
351,318,107016,5,0,1:0:0:0:
377,344,107087,1,0,1:0:0:0:
413,350,107159,1,0,1:0:0:0:
507,333,107302,1,0,1:0:0:0:
392,240,107445,2,0,P|378:180|375:98,1,135.000005149841,10|0,1:2|0:0,0:0:0:0:
442,65,107730,5,2,3:0:0:0:
300,152,107873,1,2,3:0:0:0:
228,4,108016,6,0,P|213:36|214:73,1,60,4|0,1:2|0:0,0:0:0:0:
54,122,108302,2,0,P|72:156|104:176,1,77.9999964294435,0|0,1:2|0:0,0:0:0:0:
256,245,108587,2,0,B|315:216|315:216|307:235|307:235|230:276,1,153.000002918243,8|0,1:2|0:0,0:0:0:0:
182,311,108873,2,0,L|133:294,1,30,2|0,1:2|0:0,0:0:0:0:
326,362,109016,6,0,B|381:369|392:329|392:329|379:347|359:351,1,102.000001945496,8|0,1:2|0:0,0:0:0:0:
169,210,109302,6,0,B|159:179|159:179|189:114,1,102.000001945496,8|0,1:2|0:0,0:0:0:0:
416,41,109587,6,0,B|430:28|430:28|397:46,1,51.0000009727478,0|0,1:0|0:0,0:0:0:0:
208,1,109730,6,0,B|321:14|369:90|493:106,1,306.000005836487,10|2,1:2|0:3,0:0:0:0:
512,27,110302,6,0,B|403:65|403:65|398:70|398:70|281:112,1,240,6|0,1:0|1:0,0:0:0:0:
450,194,110730,1,2,0:0:0:0:
296,301,110873,5,8,1:2:0:0:
398,373,111016,2,0,P|441:362|454:290,1,90.0000034332277,2|0,1:2|0:0,0:0:0:0:
219,200,111302,6,0,P|196:238|238:298,1,90.0000034332277,8|0,1:2|0:0,0:0:0:0:
369,188,111587,1,2,1:2:0:0:
256,129,111730,5,0,1:0:0:0:
146,77,111873,1,0,1:0:0:0:
33,123,112016,1,8,1:2:0:0:
151,0,112159,5,0,1:0:0:0:
159,8,112230,1,0,1:0:0:0:
159,8,112302,2,0,L|169:83,1,53.9999983520508,0|0,1:0|0:0,0:0:0:0:
88,220,112587,6,0,B|17:186|17:186|-3:155|-3:155|136:219,1,215.999993408203,6|2,1:2|1:3,0:0:0:0:
177,248,113016,1,0,1:0:0:0:
87,351,113159,6,0,L|142:338,1,30,8|0,1:2|0:0,0:0:0:0:
142,338,113302,2,0,L|98:327,1,45.0000017166138,2|0,1:2|0:0,0:0:0:0:
21,297,113445,1,0,1:0:0:0:
244,371,113587,2,0,P|219:292|235:163,1,204.000003890991,6|0,1:2|0:0,0:0:0:0:
324,0,114016,5,0,1:0:0:0:
294,102,114159,1,0,1:0:0:0:
222,171,114302,5,8,1:2:0:0:
162,36,114445,1,0,1:2:0:0:
68,0,114587,5,8,1:2:0:0:
13,212,114730,1,8,1:2:0:0:
0,77,114873,6,0,P|65:94|118:189,1,167.999994873047,6|0,1:2|1:0,0:0:0:0:
117,175,115302,1,2,1:2:0:0:
345,243,115445,6,0,P|406:224|442:125,1,153.000002918243,8|0,1:2|0:0,0:0:0:0:
414,72,115730,1,0,1:0:0:0:
366,164,115873,6,0,P|397:224|437:247,1,102.000001945496,8|0,1:2|0:0,0:0:0:0:
272,384,116159,6,0,L|235:371,1,30,8|0,1:2|0:0,0:0:0:0:
187,313,116302,2,0,L|247:288,1,51.0000009727478,8|0,1:2|0:0,0:0:0:0:
256,200,116445,5,0,1:0:0:0:
153,62,116587,2,0,P|97:68|79:171,1,153.000002918243,8|0,1:2|0:0,0:0:0:0:
29,132,116873,2,0,P|46:185|112:214,1,102.000001945496,2|0,1:2|0:0,0:0:0:0:
372,117,117159,6,0,B|412:79|492:90|492:90|452:89|429:115,1,180,2|0,1:3|0:0,0:0:0:0:
353,196,117445,2,0,P|329:190|305:146,1,60,2|0,1:2|0:0,0:0:0:0:
235,120,117587,2,0,P|222:98|236:50,1,60,2|0,1:2|0:0,0:0:0:0:
322,11,117730,5,8,1:2:0:0:
300,85,117873,1,0,0:0:0:0:
286,187,118016,1,2,1:2:0:0:
264,261,118159,1,8,1:2:0:0:
182,339,118302,5,8,1:2:0:0:
68,273,118445,1,8,1:2:0:0:
256,192,118587,5,8,1:2:0:0:
388,152,118730,1,8,1:2:0:0:
182,82,118873,6,0,P|149:112|143:156,1,90.0000034332277,2|0,1:2|1:2,0:0:0:0:
329,301,119159,2,0,P|363:269|354:201,1,90.0000034332277,2|0,1:2|1:2,0:0:0:0:
256,192,119445,5,4,1:2:0:0:
256,192,119516,12,2,121445,0:0:0:0:
43,91,122016,5,2,0:0:0:0:
256,192,136016,12,4,137730,0:0:0:0:
247,19,138016,5,2,0:0:0:0:
263,91,138302,1,0,0:0:0:0:
263,91,138445,1,0,0:0:0:0:
276,15,138730,1,0,0:0:0:0:
303,83,139016,1,0,0:0:0:0:
316,6,139302,5,2,0:3:0:0:
191,69,139445,1,2,0:3:0:0:
0,0,139730,6,0,P|41:4|101:18,1,90.0000034332277,0|2,1:0|0:0,0:0:0:0:
122,89,140159,1,2,0:0:0:0:
122,89,140302,1,2,0:0:0:0:
122,89,140445,1,2,0:0:0:0:
237,204,140587,1,2,1:2:0:0:
208,82,140730,6,0,L|195:141,1,45.0000017166138,0|0,1:0|3:0,0:0:0:0:
156,155,141016,2,0,L|163:209,1,45.0000017166138
237,204,141302,2,0,L|223:260,1,45.0000017166138
162,280,141587,1,2,0:3:0:0:
261,352,141730,1,2,1:3:0:0:
35,283,142016,1,0,0:0:0:0:
354,333,142302,6,0,P|227:259|156:283,1,225.000008583069,0|0,3:0|0:0,0:0:0:0:
256,337,143159,2,0,P|212:365|31:267,1,270.000010299683,0|0,3:0|0:0,0:0:0:0:
109,61,144587,6,0,L|171:78,1,45.0000017166138,2|0,3:2|0:0,0:0:0:0:
109,61,144873,1,0,1:0:0:0:
35,154,145016,6,0,L|132:139,1,90.0000034332277,0|0,3:0|0:0,0:0:0:0:
227,99,145445,2,0,L|460:120,1,225.000008583069,0|0,3:0|0:0,0:0:0:0:
451,119,146302,1,2,0:0:0:0:
379,294,146873,5,2,1:3:0:0:
398,228,147016,1,2,0:0:0:0:
352,289,147159,2,0,P|355:307|399:377,1,90.0000034332277
349,349,147587,2,0,P|367:361|395:369,1,45.0000017166138
238,331,147873,6,0,B|191:338|203:356|135:364,2,90.0000034332277,2|0|0,0:0|0:0|0:0,0:0:0:0:
153,361,148587,1,2,1:2:0:0:
6,189,148873,6,0,P|48:192|109:212,1,90.0000034332277,0|2,0:0|0:0,0:0:0:0:
165,245,149302,1,2,0:0:0:0:
165,245,149445,1,2,0:0:0:0:
353,159,149730,5,0,0:0:0:0:
335,170,149873,1,0,0:0:0:0:
270,140,150159,1,0,0:0:0:0:
329,92,150445,1,0,0:0:0:0:
243,102,150730,5,2,1:3:0:0:
378,169,150873,1,2,1:2:0:0:
149,96,151159,1,0,0:0:0:0:
411,43,151445,6,0,P|332:131|233:90,1,225.000008583069,0|0,3:0|0:0,0:0:0:0:
311,205,152302,2,0,P|271:167|105:188,1,225.000008583069,0|2,3:0|0:0,0:0:0:0:
1,310,153159,6,0,P|20:303|54:278,1,45.0000017166138
15,192,153445,2,0,P|36:201|56:223,1,45.0000017166138
90,350,153730,6,0,P|71:302|126:139,1,225.000008583069,2|0,3:1|0:0,0:0:0:0:
143,287,154587,2,0,P|175:187|8:153,1,300,2|0,3:2|0:0,0:0:0:0:
120,144,155445,6,0,P|160:138|202:117,1,80.9999975280763,4|0,1:3|0:0,0:0:0:0:
273,40,156016,5,4,1:2:0:0:
399,0,156159,2,0,P|383:62|375:125,1,120,2|0,1:2|1:2,0:0:0:0:
405,217,156587,1,8,1:2:0:0:
405,217,156873,1,0,1:2:0:0:
378,334,157016,1,2,1:2:0:0:
378,334,157302,6,0,L|366:375,1,30,2|0,1:2|0:0,0:0:0:0:
269,355,157445,2,0,L|279:394,1,30,0|0,1:2|0:0,0:0:0:0:
187,260,157587,2,0,L|175:301,1,30,2|0,1:2|0:0,0:0:0:0:
109,326,157730,5,8,1:2:0:0:
257,214,157873,1,0,1:2:0:0:
257,214,157945,1,0,1:0:0:0:
257,214,158016,2,0,L|240:129,1,60,0|0,1:2|1:2,0:0:0:0:
148,23,158302,5,4,1:1:0:0:
51,6,158445,1,0,0:0:0:0:
93,76,158587,1,2,1:2:0:0:
170,38,158730,1,2,1:2:0:0:
363,59,158873,6,0,P|424:63|503:75,1,120,10|2,1:2|1:2,0:0:0:0:
282,13,159302,2,0,P|273:49|259:77,1,60,2|0,1:2|0:0,0:0:0:0:
430,145,159587,2,0,P|439:181|453:209,1,60,2|0,1:2|1:2,0:0:0:0:
502,276,159873,1,0,1:2:0:0:
375,347,160016,5,2,1:2:0:0:
388,299,160159,1,0,1:2:0:0:
292,262,160302,5,2,1:2:0:0:
279,214,160445,1,0,1:2:0:0:
240,342,160587,5,4,1:1:0:0:
156,293,160730,2,0,P|88:308|44:340,1,120,0|0,1:2|1:2,0:0:0:0:
58,227,161159,1,8,1:2:0:0:
179,192,161302,1,2,0:0:0:0:
179,192,161373,1,2,0:0:0:0:
179,192,161445,1,0,1:2:0:0:
242,279,161587,1,2,1:2:0:0:
242,279,161873,6,0,P|301:267|387:258,1,120,2|2,1:2|1:2,0:0:0:0:
496,349,162302,2,0,P|520:317|509:265,1,90,8|0,1:2|0:0,0:0:0:0:
435,229,162587,2,0,B|392:245|400:263|345:289,1,90,0|0,1:2|0:0,0:0:0:0:
288,187,162873,5,4,1:1:0:0:
361,15,163016,2,0,P|397:61|349:124,1,120,2|2,0:0|1:2,0:0:0:0:
242,90,163445,2,0,L|210:82,1,30,10|0,1:2|0:0,0:0:0:0:
174,162,163587,2,0,L|203:154,1,30,2|0,0:0|0:0,0:0:0:0:
288,187,163730,1,2,1:2:0:0:
153,249,163873,2,0,B|109:262|106:293|45:319,1,120,2|2,1:2|1:2,0:0:0:0:
5,236,164302,1,0,1:2:0:0:
5,236,164445,1,0,1:2:0:0:
92,182,164587,5,2,1:2:0:0:
247,270,164730,1,2,1:2:0:0:
255,190,164873,5,2,1:2:0:0:
90,320,165016,1,0,1:2:0:0:
363,384,165159,5,4,1:1:0:0:
363,384,165302,2,0,P|406:337|388:276,1,120,0|0,1:2|1:2,0:0:0:0:
332,218,165730,2,0,B|381:226|390:269|447:283,1,120,8|0,1:2|1:2,0:0:0:0:
482,183,166159,6,0,P|499:153|500:120,1,60,2|0,1:2|0:0,0:0:0:0:
438,52,166445,1,2,1:2:0:0:
332,13,166587,6,0,P|331:64|320:113,1,90,0|0,1:2|0:0,0:0:0:0:
214,76,166873,2,0,P|229:124|233:174,1,90,8|0,1:2|0:0,0:0:0:0:
251,271,167159,2,0,P|282:255|260:279,1,90,0|0,1:2|0:0,0:0:0:0:
227,374,167445,5,4,1:1:0:0:
138,318,167587,1,2,0:0:0:0:
35,342,167730,1,0,1:2:0:0:
143,340,167873,1,2,1:2:0:0:
251,271,168016,6,0,P|296:251|329:244,1,60,10|0,1:2|0:0,0:0:0:0:
389,283,168302,1,2,1:2:0:0:
208,190,168445,2,0,P|162:185|82:142,1,120,2|2,1:2|1:2,0:0:0:0:
33,202,168873,1,0,1:2:0:0:
33,202,169016,1,0,1:2:0:0:
110,152,169159,5,2,1:2:0:0:
215,204,169302,1,2,1:2:0:0:
366,90,169445,1,2,1:2:0:0:
110,11,169730,5,4,1:1:0:0:
110,11,169873,2,0,P|170:23|233:73,1,120,0|0,1:2|1:2,0:0:0:0:
363,187,170302,5,8,1:2:0:0:
384,194,170373,1,2,0:0:0:0:
408,174,170445,5,2,0:0:0:0:
430,163,170516,1,2,0:0:0:0:
451,173,170587,5,0,1:2:0:0:
298,262,170730,2,0,P|263:251|228:245,1,60,2|0,1:2|0:0,0:0:0:0:
411,374,171016,2,0,P|466:353|507:318,1,90,2|0,1:2|0:0,0:0:0:0:
441,279,171302,1,2,1:2:0:0:
363,187,171445,1,8,1:2:0:0:
496,112,171587,1,0,1:2:0:0:
339,30,171730,2,0,P|351:55|364:109,1,60,0|0,1:2|1:2,0:0:0:0:
268,149,172016,5,4,1:1:0:0:
174,209,172159,2,0,P|139:225|114:240,1,60,2|0,0:0|1:2,0:0:0:0:
72,180,172445,2,0,P|107:196|132:211,1,60,2|10,1:2|1:2,0:0:0:0:
267,155,172730,1,0,0:0:0:0:
392,210,172873,1,2,1:2:0:0:
301,274,173016,5,2,1:2:0:0:
230,304,173159,1,2,0:3:0:0:
187,371,173302,1,2,1:2:0:0:
43,303,173445,6,0,B|-18:294|-44:228|-16:180|-16:180|-13:217|19:249,1,215.999993408203,0|2,1:2|1:2,0:0:0:0:
128,234,173873,5,2,0:3:0:0:
202,153,174016,5,2,1:2:0:0:
163,42,174159,5,2,0:3:0:0:
53,15,174302,6,0,B|18:-13|-41:37|12:86|85:97|157:69|112:15|194:-9|250:26,1,311.999985717774,4|0,1:2|1:2,0:0:0:0:
380,61,175730,2,0,P|384:122|419:72,1,155.999992858887,2|2,1:2|1:2,0:0:0:0:
322,0,176445,1,0,0:0:0:0:
393,92,176587,6,0,P|330:76|167:120,1,233.999989288331,2|0,1:2|1:2,0:0:0:0:
0,237,177730,1,2,0:0:0:0:
35,298,177873,1,8,1:2:0:0:
33,235,178016,1,0,1:2:0:0:
1,309,178159,1,0,1:2:0:0:
45,167,178302,6,0,P|49:136|52:10,1,144,8|0,1:2|0:0,0:0:0:0:
199,0,178873,5,0,1:2:0:0:
303,79,179159,2,0,P|290:52|297:2,1,60,2|0,1:2|1:2,0:0:0:0:
199,0,179445,5,10,1:2:0:0:
303,79,179587,2,0,P|283:99|248:115,1,60,0|0,0:0|1:2,0:0:0:0:
377,13,179873,2,0,P|392:10|493:53,2,120,2|2|2,1:2|1:2|1:2,0:0:0:0:
419,86,180587,6,0,L|484:73,1,60,10|0,1:2|0:0,0:0:0:0:
312,236,180873,2,0,L|331:313,1,60,2|0,1:2|0:0,0:0:0:0:
259,376,181159,5,0,1:2:0:0:
156,197,181445,2,0,P|181:206|215:234,1,60,2|0,1:2|0:0,0:0:0:0:
1,265,181730,5,10,1:2:0:0:
156,197,181873,2,0,P|147:222|119:256,1,60,2|0,1:2|0:0,0:0:0:0:
173,344,182159,2,0,B|246:363|212:336|306:360,2,120,2|2|0,1:2|1:2|1:2,0:0:0:0:
398,275,182873,6,0,P|375:252|331:252,1,60,8|0,1:2|0:0,0:0:0:0:
418,364,183159,2,0,P|392:379|363:383,1,60,2|0,0:0|0:0,0:0:0:0:
489,315,183445,6,0,P|436:322|225:193,1,306.000005836487,4|0,1:2|1:2,0:0:0:0:
167,164,184445,2,0,P|141:171|110:189,1,51.0000009727478,0|0,1:2|1:2,0:0:0:0:
11,235,184730,5,0,1:2:0:0:
74,113,184873,2,0,P|76:90|18:32,1,102.000001945496,2|8,1:2|1:2,0:0:0:0:
210,159,185445,2,0,P|231:171|269:185,1,51.0000009727478,2|0,1:2|0:0,0:0:0:0:
332,149,185730,6,0,P|328:180|295:258,1,102.000001945496,2|0,1:2|1:2,0:0:0:0:
341,335,186159,1,0,1:2:0:0:
512,216,186302,2,0,P|478:217|405:254,1,102.000001945496,8|0,1:2|1:2,0:0:0:0:
252,314,186730,1,8,1:2:0:0:
189,342,186873,6,0,P|211:353|249:354,1,51.0000009727478,0|8,0:0|1:2,0:0:0:0:
166,168,187159,2,0,P|142:171|109:189,1,51.0000009727478,0|0,1:2|1:2,0:0:0:0:
165,246,187445,2,0,P|171:211|166:80,1,153.000002918243,8|0,1:2|0:0,0:0:0:0:
72,0,188016,5,4,1:2:0:0:
173,16,188302,1,0,1:2:0:0:
272,0,188587,1,8,1:2:0:0:
370,27,188873,1,0,1:2:0:0:
399,68,189159,5,2,1:3:0:0:
332,41,189302,1,2,0:3:0:0:
252,20,189445,5,2,1:3:0:0:
175,39,189587,1,2,0:3:0:0:
101,87,189730,5,10,1:2:0:0:
2,60,189873,1,2,0:3:0:0:
2,60,190016,1,2,1:3:0:0:
175,39,190302,6,0,B|223:53|268:7|268:7|272:14|272:14|208:84|172:103|146:174|201:210|272:169|218:112,1,377.999988464356,4|8,1:1|1:3,0:0:0:0:
434,50,191445,6,0,L|392:35,1,30,10|0,0:3|0:0,0:0:0:0:
325,96,191587,2,0,L|308:143,1,30,10|0,0:3|0:0,0:0:0:0:
391,213,191730,2,0,L|437:206,1,30,10|0,0:3|0:0,0:0:0:0:
512,140,191873,2,0,L|498:102,1,30,10|0,0:3|0:0,0:0:0:0:
374,9,192016,6,0,P|310:88|476:234,1,357.000006809235,4|0,1:3|0:0,0:0:0:0:
340,299,192587,6,0,B|389:287|434:339|434:339|415:268|273:230|176:340,1,398.999989345551,6|0,1:0|0:0,0:0:0:0:
110,341,193159,2,0,B|141:349|154:376|221:397,1,90.0000034332277,10|0,1:2|0:0,0:0:0:0:
57,200,193445,5,0,1:0:0:0:
240,217,193587,2,0,B|209:225|196:252|129:273,1,90.0000034332277,2|0,1:2|0:0,0:0:0:0:
296,305,193873,5,2,0:3:0:0:
430,350,194016,1,0,1:0:0:0:
343,383,194159,1,0,1:0:0:0:
396,235,194302,6,0,B|410:167|476:161|498:74,2,180.000006866455,8|0|4,1:2|1:0|1:2,0:0:0:0:
491,248,195016,6,0,P|453:156|357:83,1,204.000003890991,2|0,1:2|1:0,0:0:0:0:
270,0,195445,6,0,P|256:33|228:57,1,45.0000017166138,8|0,1:2|0:0,0:0:0:0:
142,94,195587,1,0,0:0:0:0:
270,0,195730,5,2,0:3:0:0:
230,171,195873,2,0,P|270:126|255:201,1,180.000006866455,8|0,1:2|1:0,0:0:0:0:
283,211,196230,1,0,1:0:0:0:
283,211,196302,2,0,L|288:237,1,26.9999991760254,0|0,3:0|0:0,0:0:0:0:
226,286,196445,2,0,L|220:312,1,26.9999991760254,0|0,3:0|0:0,0:0:0:0:
285,380,196587,5,8,1:2:0:0:
360,364,196730,1,2,1:2:0:0:
437,339,196873,1,2,1:2:0:0:
512,355,197016,1,2,1:2:0:0:
276,225,197159,6,0,B|166:206|193:234|66:201,1,192,6|0,1:2|1:0,0:0:0:0:
18,252,197587,1,0,1:0:0:0:
183,353,197730,6,0,P|192:332|194:281,1,45.0000017166138,8|0,1:2|0:0,0:0:0:0:
265,136,197873,2,0,P|266:191|289:250,1,90.0000034332277,2|0,1:2|1:0,0:0:0:0:
127,124,198159,6,0,P|141:102|150:72,1,45.0000017166138,8|0,1:2|0:0,0:0:0:0:
106,0,198302,1,0,1:0:0:0:
337,107,198445,5,0,1:2:0:0:
372,114,198516,1,0,1:2:0:0:
402,96,198587,1,0,1:0:0:0:
469,6,198730,1,0,3:0:0:0:
265,43,198873,2,0,P|240:87|221:178,1,135.000005149841,8|0,1:2|0:0,0:0:0:0:
266,239,199159,5,2,0:2:0:0:
244,346,199302,1,2,0:2:0:0:
60,285,199445,6,0,P|85:265|128:262,1,60,4|0,1:2|0:0,0:0:0:0:
171,79,199730,2,0,P|198:112|202:171,1,77.9999964294435,0|0,1:0|0:0,0:0:0:0:
359,299,200016,2,0,P|417:296|455:214,1,153.000002918243,0|0,1:2|0:0,0:0:0:0:
437,215,200302,2,0,L|382:225,1,30,0|0,1:0|1:0,0:0:0:0:
244,346,200445,6,0,B|197:355|197:355|194:358|194:358|139:368,1,102.000001945496,8|0,1:2|1:0,0:0:0:0:
41,218,200730,6,0,B|6:200|6:200|11:214|11:214|63:251,1,102.000001945496,8|0,1:2|0:0,0:0:0:0:
224,154,201016,6,0,B|238:138|238:138|203:151,1,51.0000009727478,0|0,1:0|0:0,0:0:0:0:
239,264,201159,6,0,B|176:109|134:169|63:11,1,306.000005836487,10|2,1:2|0:0,0:0:0:0:
184,53,201730,6,0,B|159:13|209:-10|229:9|220:81|167:143|145:50|87:179,1,240,6|0,1:0|1:0,0:0:0:0:
133,243,202159,1,0,1:0:0:0:
282,180,202302,5,8,1:2:0:0:
415,265,202445,2,0,P|393:314|327:330,1,90.0000034332277,2|0,1:2|0:0,0:0:0:0:
130,259,202730,6,0,B|80:270|97:285|18:305,1,90.0000034332277,2|0,1:2|0:0,0:0:0:0:
190,327,203016,1,0,1:0:0:0:
289,203,203159,5,0,1:0:0:0:
348,125,203302,1,0,1:0:0:0:
243,29,203445,1,8,1:2:0:0:
152,125,203587,1,0,1:0:0:0:
152,125,203659,1,0,1:0:0:0:
152,125,203730,2,0,L|168:195,1,53.9999983520508,2|8,1:0|3:0,0:0:0:0:
323,287,204016,6,0,B|376:311|444:281|445:223|445:223|429:252|401:266,1,215.999993408203,6|2,1:2|1:2,0:0:0:0:
319,366,204445,1,0,0:0:0:0:
212,250,204587,6,0,P|218:229|232:206,1,30,8|0,1:2|0:0,0:0:0:0:
236,179,204730,2,0,P|214:184|194:195,1,45.0000017166138,2|0,1:3|0:0,0:0:0:0:
129,233,204873,1,0,1:0:0:0:
4,237,205016,6,0,P|90:258|147:371,1,204.000003890991,6|2,1:2|1:2,0:0:0:0:
274,332,205445,5,0,1:2:0:0:
387,272,205587,1,0,1:2:0:0:
323,205,205730,5,8,1:2:0:0:
210,145,205873,1,0,1:2:0:0:
291,94,206016,5,8,1:2:0:0:
450,35,206159,1,8,1:2:0:0:
507,227,206302,6,0,B|437:212|437:212|415:218|415:218|320:195,1,167.999994873047,2|0,1:2|0:0,0:0:0:0:
343,200,206730,1,0,3:0:0:0:
202,169,206873,6,0,B|140:178|122:217|53:236,1,153.000002918243,8|0,1:2|0:0,0:0:0:0:
0,197,207159,1,0,1:0:0:0:
93,169,207302,6,0,B|135:176|148:203|197:216,1,102.000001945496,10|0,1:2|1:0,0:0:0:0:
347,222,207587,6,0,P|366:217|396:202,1,30,0|0,1:0|0:0,0:0:0:0:
470,121,207730,2,0,P|458:145|444:169,1,51.0000009727478,2|0,1:2|0:0,0:0:0:0:
296,109,207873,5,0,3:0:0:0:
428,0,208016,2,0,B|358:28|358:28|398:135,1,153.000002918243,8|0,1:2|0:0,0:0:0:0:
298,90,208302,2,0,L|172:67,1,102.000001945496,2|0,1:2|0:0,0:0:0:0:
56,72,208587,6,0,B|40:48|2:40|2:40|55:21|106:48|108:116,1,180,2|0,1:3|0:0,0:0:0:0:
60,151,208873,5,2,1:2:0:0:
1,254,209016,1,2,1:2:0:0:
138,355,209159,2,0,B|180:342|200:291|189:254|152:229|106:247|122:287,1,180,8|0,1:2|0:0,0:0:0:0:
136,286,209445,2,0,L|183:306,1,30,2|0,1:2|0:0,0:0:0:0:
276,338,209587,5,8,1:2:0:0:
249,156,209873,5,0,1:0:0:0:
318,88,210016,1,0,1:2:0:0:
413,68,210159,1,0,1:2:0:0:
438,154,210302,5,10,1:2:0:0:
346,145,210445,1,0,1:2:0:0:
211,107,210587,5,10,1:2:0:0:
120,23,210730,1,8,1:2:0:0:
19,129,210873,6,0,B|95:167|253:107|156:58|300:-6|395:41,1,398.999989345551,6|0,1:0|0:0,0:0:0:0:
500,91,211445,6,0,B|512:109|512:109|422:89,1,90.0000034332277,10|0,1:2|0:0,0:0:0:0:
208,136,211730,5,0,1:0:0:0:
241,1,211873,2,0,B|257:-10|257:-10|275:85,1,90.0000034332277,2|0,1:2|0:0,0:0:0:0:
273,198,212159,5,2,0:3:0:0:
361,158,212302,1,0,1:0:0:0:
264,309,212445,1,0,1:0:0:0:
125,213,212587,2,0,B|79:187|32:196|32:196|-9:167|9:111,2,180.000006866455,8|0|4,1:2|1:0|1:2,0:0:0:0:
25,342,213302,6,0,P|28:290|38:351,1,204.000003890991,2|0,1:2|1:0,0:0:0:0:
191,133,213730,6,0,P|200:151|202:205,1,45.0000017166138,8|0,1:2|0:0,0:0:0:0:
122,292,213873,1,0,0:0:0:0:
344,242,214016,5,2,0:3:0:0:
191,133,214159,2,0,B|281:173|281:173|244:54,1,180.000006866455,8|0,1:2|1:0,0:0:0:0:
225,30,214516,1,0,1:0:0:0:
225,30,214587,2,0,L|219:73,1,26.9999991760254,0|0,3:0|0:0,0:0:0:0:
197,130,214730,2,0,L|192:163,1,26.9999991760254,0|0,3:0|0:0,0:0:0:0:
136,245,214873,5,8,1:2:0:0:
280,196,215016,1,2,1:2:0:0:
255,273,215159,1,2,1:2:0:0:
123,168,215302,1,2,1:2:0:0:
356,125,215445,6,0,B|410:117|473:71|473:71|442:113|446:135,1,192,6|0,1:2|1:0,0:0:0:0:
336,197,215873,1,0,1:0:0:0:
453,225,216016,6,0,P|427:213|405:184,1,45.0000017166138,8|0,1:2|0:0,0:0:0:0:
283,104,216159,2,0,P|254:91|289:88,1,90.0000034332277,2|0,1:2|1:0,0:0:0:0:
381,28,216445,6,0,P|395:44|404:65,1,45.0000017166138,8|0,1:2|0:0,0:0:0:0:
336,197,216587,1,0,3:0:0:0:
98,146,216730,5,0,1:2:0:0:
126,153,216802,1,0,1:2:0:0:
156,161,216873,1,0,1:0:0:0:
230,232,217016,1,0,3:0:0:0:
8,300,217159,2,0,B|8:269|25:241|25:241|32:258|32:258|22:284|20:331,1,135.000005149841,8|0,1:2|0:0,0:0:0:0:
82,343,217445,5,2,0:2:0:0:
53,164,217587,1,2,0:2:0:0:
311,280,217730,6,0,B|304:288|304:288|244:302,1,60,4|0,1:2|0:0,0:0:0:0:
419,167,218016,2,0,B|434:175|434:175|456:244,1,77.9999964294435,0|0,1:0|0:0,0:0:0:0:
163,95,218302,2,0,B|191:66|191:66|264:53|264:53|319:75,1,153.000002918243,8|0,1:2|0:0,0:0:0:0:
372,37,218587,2,0,L|406:44,1,30,0|0,1:0|1:0,0:0:0:0:
207,14,218730,6,0,B|156:7|156:7|227:36,1,102.000001945496,8|0,1:2|1:0,0:0:0:0:
469,107,219016,6,0,B|497:107|532:89|532:89|524:115|484:129,1,102.000001945496,8|0,1:2|0:0,0:0:0:0:
268,295,219302,6,0,B|268:271|268:271|279:305,1,51.0000009727478,0|0,1:0|0:0,0:0:0:0:
456,185,219445,6,0,P|462:302|390:210,1,306.000005836487,10|2,1:2|0:0,0:0:0:0:
510,116,220016,6,0,P|417:184|287:149,1,240,6|0,1:0|0:0,0:0:0:0:
163,57,220445,1,0,1:0:0:0:
370,203,220587,5,8,1:2:0:0:
291,272,220730,2,0,B|296:291|296:291|202:259,1,90.0000034332277,2|0,1:2|0:0,0:0:0:0:
334,0,221016,6,0,B|350:21|350:21|338:90,1,90.0000034332277,6|0,1:2|0:0,0:0:0:0:
408,291,221302,1,0,1:0:0:0:
262,130,221445,5,0,1:0:0:0:
183,195,221587,1,0,1:0:0:0:
266,35,221730,1,8,1:2:0:0:
252,244,221873,5,0,1:0:0:0:
252,244,221945,1,0,1:0:0:0:
252,244,222016,1,2,1:2:0:0:
110,191,222159,1,8,3:0:0:0:
205,304,222302,6,0,B|86:280|120:374|-9:341,1,215.999993408203,6|2,1:2|1:2,0:0:0:0:
105,277,222730,1,0,0:0:0:0:
38,141,222873,6,0,B|36:132|36:132|51:98,1,30,8|0,1:2|0:0,0:0:0:0:
113,73,223016,2,0,B|114:65|114:65|102:19,1,45.0000017166138,2|0,1:3|0:0,0:0:0:0:
38,141,223159,5,0,1:0:0:0:
189,292,223302,2,0,B|283:217|247:128|154:175|209:225,1,204.000003890991,6|2,1:2|1:2,0:0:0:0:
266,260,223730,5,0,1:2:0:0:
356,207,223873,1,0,1:2:0:0:
267,161,224016,5,8,1:2:0:0:
189,292,224159,1,0,1:2:0:0:
191,206,224302,5,8,1:2:0:0:
405,129,224445,1,8,1:2:0:0:
158,131,224587,6,0,B|96:122|96:122|50:150|50:150|-26:141,1,167.999994873047,2|0,1:2|1:0,0:0:0:0:
0,143,225016,1,0,1:0:0:0:
252,93,225159,6,0,B|204:37|236:-38|334:-10|269:66,1,153.000002918243,8|0,1:2|0:0,0:0:0:0:
252,93,225445,1,0,1:0:0:0:
102,20,225587,6,0,B|129:41|129:41|28:25,1,102.000001945496,10|0,1:2|0:0,0:0:0:0:
231,182,225873,6,0,L|240:228,1,30,0|0,1:0|0:0,0:0:0:0:
225,261,226016,2,0,L|244:173,1,51.0000009727478,2|0,1:2|0:0,0:0:0:0:
336,111,226159,5,0,3:0:0:0:
157,228,226302,2,0,P|235:229|300:270,1,153.000002918243,8|0,1:2|0:0,0:0:0:0:
380,343,226587,2,0,B|406:375|440:364|440:364|412:356|394:327,1,102.000001945496,2|0,1:2|0:0,0:0:0:0:
214,302,226873,6,0,B|205:346|205:346|126:380|126:380|76:342,1,180,6|0,1:0|0:0,0:0:0:0:
28,253,227159,6,0,L|37:230,1,22.5000008583069,2|2,0:3|0:3,0:0:0:0:
28,253,227302,2,0,L|37:275,1,22.5000008583069,2|2,0:3|0:3,0:0:0:0:
110,242,227445,5,8,3:0:0:0:
139,151,227587,1,0,0:0:0:0:
172,217,227730,1,0,1:0:0:0:
71,172,227873,1,0,1:0:0:0:
294,118,228016,5,6,1:2:0:0:
254,214,228159,1,0,1:2:0:0:
257,91,228302,5,0,1:2:0:0:
288,231,228445,1,0,1:2:0:0:
191,136,228587,5,8,1:2:0:0:
133,210,228730,1,8,1:2:0:0:
382,182,228873,5,8,1:2:0:0:
437,294,229016,1,8,1:2:0:0:
192,378,229159,6,0,B|175:287|33:171|64:21|64:21|125:98|219:151|219:151|225:257|152:294,1,755.999976928712,6|4,1:1|1:3,0:0:0:0:
155,292,231445,5,4,1:1:0:0:
242,266,231587,1,0,1:0:0:0:
301,335,231730,1,0,1:0:0:0:
237,279,231873,1,0,1:0:0:0:
363,201,232016,2,0,P|418:220|418:294,1,120,8|0,1:2|1:0,0:0:0:0:
380,349,232445,1,8,1:2:0:0:
354,274,232587,5,0,3:0:0:0:
375,200,232730,1,0,1:0:0:0:
339,129,232873,1,0,1:0:0:0:
353,53,233016,1,0,1:0:0:0:
429,18,233159,5,8,3:2:0:0:
336,53,233302,5,0,3:0:0:0:
229,53,233445,5,0,1:3:0:0:
144,121,233587,5,0,3:0:0:0:
38,69,233730,5,4,1:1:0:0:
258,158,233873,2,0,B|190:174|227:201|144:220,1,120,0|0,1:0|1:0,0:0:0:0:
62,219,234302,1,8,1:2:0:0:
14,295,234445,1,0,3:0:0:0:
93,358,234587,1,0,1:0:0:0:
272,337,234730,6,0,P|298:290|266:232,1,120,8|0,1:2|1:0,0:0:0:0:
154,115,235159,2,0,P|128:162|160:220,1,120,0|8,3:0|3:2,0:0:0:0:
290,230,235587,1,0,1:2:0:0:
376,191,235730,1,0,1:3:0:0:
487,220,235873,1,0,1:2:0:0:
387,213,236016,5,4,1:1:0:0:
187,213,236159,2,0,P|138:230|51:247,1,120,0|0,1:0|1:0,0:0:0:0:
0,148,236587,5,8,1:2:0:0:
67,121,236730,1,0,3:0:0:0:
147,100,236873,5,0,1:0:0:0:
224,119,237016,1,8,1:2:0:0:
372,37,237159,6,0,L|349:68,1,30,10|0,0:3|0:0,0:0:0:0:
379,82,237302,2,0,L|372:118,1,30,10|0,0:3|0:0,0:0:0:0:
314,140,237445,2,0,L|286:179,1,30,10|0,0:3|0:0,0:0:0:0:
346,230,237587,2,0,L|338:280,1,30,10|0,3:3|0:0,0:0:0:0:
292,338,237730,6,0,L|284:317,1,15,8|0,3:3|0:0,0:0:0:0:
412,302,237873,6,0,L|420:281,1,15,8|0,0:3|0:0,0:0:0:0:
281,334,238016,6,0,L|273:313,1,15,8|0,0:3|0:0,0:0:0:0:
424,306,238159,6,0,L|432:285,1,15,8|0,0:3|0:0,0:0:0:0:
368,381,238302,5,2,0:0:0:0:
374,384,238445,1,0,0:0:0:0:
256,272,240302,5,0,0:0:0:0:
144,381,240587,5,0,0:0:0:0:
138,384,240730,1,0,0:0:0:0:
144,381,242873,5,0,0:0:0:0:
138,384,243016,1,0,0:0:0:0:
256,192,245730,12,0,246730,0:0:0:0:
282,147,246873,6,0,P|262:187|269:228,1,84,2|0,3:1|0:0,0:0:0:0:
307,356,247445,6,0,B|172:250|232:83|322:67|421:34|498:173|395:254|335:182,1,525,6|0,1:0|0:0,0:0:0:0:
355,198,248016,1,8,1:2:0:0:
19,291,248302,5,0,1:0:0:0:
145,199,248445,2,0,P|157:150|120:197,1,153.000002918243,10|0,1:2|0:0,0:0:0:0:
269,263,248730,6,0,B|307:271|307:271|338:290|338:290|382:299,1,102.000001945496,2|0,1:2|1:0,0:0:0:0:
178,79,249016,2,0,B|177:97|177:97|188:122|188:122|179:149,1,51.0000009727478,2|0,1:2|0:0,0:0:0:0:
77,299,249159,5,10,1:2:0:0:
179,262,249302,1,0,1:0:0:0:
262,339,249445,1,10,1:2:0:0:
151,384,249587,1,10,1:2:0:0:
189,307,249730,6,0,B|168:191|236:224|205:104,1,204.000003890991,6|0,3:2|1:0,0:0:0:0:
133,85,250159,1,0,1:0:0:0:
258,37,250302,1,8,1:2:0:0:
118,187,250445,1,0,1:0:0:0:
28,42,250587,5,8,1:2:0:0:
51,45,250659,1,0,1:0:0:0:
88,67,250730,1,8,1:2:0:0:
111,113,250802,1,0,1:0:0:0:
160,127,250873,1,2,1:0:0:0:
297,224,251016,5,8,1:2:0:0:
218,199,251159,5,0,3:2:0:0:
315,291,251302,1,0,3:2:0:0:
378,208,251445,5,8,1:2:0:0:
192,284,251587,1,0,1:2:0:0:
509,284,251730,6,0,P|483:273|440:268,1,60,0|2,3:0|1:2,0:0:0:0:
454,347,251945,1,0,1:0:0:0:
454,347,252016,2,0,P|470:321|459:146,1,204.000003890991,6|0,1:0|3:0,0:0:0:0:
427,85,252445,1,0,1:0:0:0:
257,247,252587,5,8,1:2:0:0:
390,187,252730,1,0,1:0:0:0:
268,104,252873,1,0,1:0:0:0:
121,160,253016,1,8,1:2:0:0:
180,195,253302,1,8,1:2:0:0:
247,176,253587,5,8,1:2:0:0:
118,301,253730,1,8,1:2:0:0:
15,188,253873,1,0,1:2:0:0:
116,145,254016,6,0,L|152:157,1,22.5000008583069,2|0,1:2|2:2,0:0:0:0:
120,222,254159,6,0,L|151:214,1,22.5000008583069,2|0,1:2|2:2,0:0:0:0:
324,139,254302,6,0,B|354:127|387:149|387:149|430:132|430:132|438:188|489:207,1,204.000003890991,4|2,3:0|1:2,0:0:0:0:
384,245,254730,1,0,0:0:0:0:
163,88,254873,6,0,B|133:76|100:98|100:98|57:81|57:81|49:137|-2:156,1,204.000003890991,8|2,1:2|1:2,0:0:0:0:
66,258,255302,1,0,3:0:0:0:
271,211,255445,6,0,L|258:263,1,30,0|0,1:0|0:0,0:0:0:0:
235,212,255587,2,0,L|248:255,1,30,0|0,1:0|0:0,0:0:0:0:
295,303,255730,1,2,1:0:0:0:
178,269,255873,1,0,3:0:0:0:
217,384,256016,5,8,1:2:0:0:
249,248,256159,5,8,1:2:0:0:
215,157,256302,5,8,1:2:0:0:
269,2,256445,5,8,1:2:0:0:
477,79,256587,6,0,P|268:-8|56:46,1,440.999986541748,6|0,1:1|0:0,0:0:0:0:
0,113,257159,5,8,1:2:0:0:
112,155,257302,1,0,1:2:0:0:
195,73,257445,1,0,1:2:0:0:
361,160,257587,5,10,1:2:0:0:
274,124,257730,1,0,0:2:0:0:
330,231,257873,5,2,1:2:0:0:
460,189,258016,1,0,3:2:0:0:
229,185,258159,5,8,3:2:0:0:
64,257,258302,5,10,1:2:0:0:
167,298,258445,1,0,1:2:0:0:
167,298,258516,1,0,1:2:0:0:
167,298,258587,1,10,3:2:0:0:
273,354,258730,5,10,1:2:0:0:
376,283,258873,2,0,B|398:234|479:216|594:312|508:433|305:462|387:328|273:260|150:302,1,528.000016113282,6|10,1:2|1:2,0:0:0:0:
14,354,259587,1,0,0:0:0:0:
30,214,259730,5,0,1:0:0:0:
72,225,259802,1,0,1:0:0:0:
115,236,259873,1,8,1:2:0:0:
14,354,260016,6,0,L|94:343,1,60,2|0,0:3|1:0,0:0:0:0:
303,162,260302,2,0,L|404:181,1,90.0000034332277,6|0,3:0|3:0,0:0:0:0:
144,230,260587,6,0,P|131:173|162:231,1,170.999995433807,10|0,1:2|0:0,0:0:0:0:
274,258,260873,6,0,P|280:272|284:304,1,30,2|0,1:3|0:0,0:0:0:0:
210,376,261016,6,0,P|219:357|223:329,1,45.0000017166138,2|0,1:3|0:0,0:0:0:0:
165,228,261159,6,0,B|189:199|174:152|109:112|35:153|12:224|29:291|120:360|240:272|240:272|313:219|374:251,1,569.999984779358,6|0,1:2|0:0,0:0:0:0:
496,324,262016,5,0,3:2:0:0:
417,184,262159,1,8,1:2:0:0:
480,211,262302,1,0,3:2:0:0:
422,340,262445,1,8,1:2:0:0:
277,227,262587,5,2,1:2:0:0:
370,266,262730,1,0,3:2:0:0:
98,224,262873,5,8,1:2:0:0:
222,176,263016,1,2,0:2:0:0:
98,224,263159,6,0,B|96:182|130:148|130:148|59:178|75:251,1,180,2|0,1:3|0:0,0:0:0:0:
0,328,263445,6,0,L|56:319,1,45.0000017166138,0|0,3:0|0:0,0:0:0:0:
449,259,263730,6,0,L|373:247,1,60,2|0,0:3|3:0,0:0:0:0:
114,332,264016,6,0,L|11:347,1,83.9999974365235,8|0,1:2|0:0,0:0:0:0:
320,263,264302,6,0,L|434:280,1,102.000001945496,2|0,0:3|0:0,0:0:0:0:
420,278,264516,1,2,1:2:0:0:
420,278,264587,1,2,1:2:0:0:
435,343,264730,1,0,1:0:0:0:
494,289,264873,1,8,3:0:0:0:
512,351,265016,1,8,3:0:0:0:
512,191,265159,5,8,1:2:0:0:
372,180,265302,5,8,1:2:0:0:
192,222,265445,5,8,1:2:0:0:
0,208,265587,5,8,1:2:0:0:
230,150,265730,6,0,B|290:131|306:53|306:53|263:29|235:-19|235:-19|157:58|198:185|303:109|288:266,1,525,6|0,1:0|0:0,0:0:0:0:
289,232,266302,1,8,1:2:0:0:
35,339,266587,5,0,1:0:0:0:
9,250,266730,2,0,B|43:237|49:203|49:203|62:259|113:277,1,153.000002918243,10|0,1:2|0:0,0:0:0:0:
192,237,267016,6,0,P|213:221|181:232,1,102.000001945496,2|0,1:2|1:0,0:0:0:0:
253,384,267302,2,0,B|265:368|265:368|253:330,1,51.0000009727478,2|0,1:2|0:0,0:0:0:0:
385,180,267445,5,10,1:2:0:0:
460,269,267587,1,0,1:0:0:0:
347,309,267730,1,10,1:2:0:0:
272,218,267873,1,10,1:2:0:0:
456,256,268016,6,0,B|378:278|351:338|271:360,1,204.000003890991,6|0,3:2|1:0,0:0:0:0:
176,310,268445,1,0,1:0:0:0:
106,240,268587,1,8,1:2:0:0:
5,218,268730,1,0,1:0:0:0:
190,206,268873,5,8,1:2:0:0:
197,184,268945,1,0,1:0:0:0:
226,152,269016,1,8,1:2:0:0:
276,139,269087,1,0,1:0:0:0:
300,94,269159,1,2,1:0:0:0:
169,9,269302,5,8,1:2:0:0:
80,24,269445,5,0,3:2:0:0:
222,74,269587,1,0,3:2:0:0:
105,121,269730,5,8,1:2:0:0:
270,7,269873,1,0,1:2:0:0:
389,151,270016,6,0,P|440:175|452:173,1,60,0|2,3:0|1:2,0:0:0:0:
498,111,270230,1,0,1:0:0:0:
498,111,270302,2,0,P|425:146|370:286,1,204.000003890991,6|0,1:0|3:0,0:0:0:0:
399,325,270730,1,0,1:0:0:0:
243,364,270873,5,8,1:2:0:0:
115,275,271016,1,0,1:0:0:0:
249,352,271159,1,0,1:0:0:0:
327,213,271302,1,8,1:2:0:0:
273,145,271587,1,8,1:2:0:0:
295,63,271873,5,8,1:2:0:0:
385,153,272016,1,8,1:2:0:0:
244,224,272159,1,0,1:2:0:0:
147,42,272302,6,0,P|140:50|135:73,1,22.5000008583069,2|0,1:2|2:2,0:0:0:0:
69,128,272445,6,0,P|62:120|57:97,1,22.5000008583069,2|0,1:2|2:2,0:0:0:0:
44,231,272587,6,0,B|79:216|79:216|137:249|137:249|139:306|180:335,1,204.000003890991,4|2,3:0|1:2,0:0:0:0:
256,280,273016,1,0,0:0:0:0:
468,231,273159,6,0,B|433:216|433:216|375:249|375:249|373:306|332:335,1,204.000003890991,8|2,1:2|1:2,0:0:0:0:
256,280,273587,1,0,3:0:0:0:
271,173,273730,6,0,L|258:121,1,30,0|0,1:0|0:0,0:0:0:0:
235,172,273873,2,0,L|248:129,1,30,0|0,1:0|0:0,0:0:0:0:
295,81,274016,1,2,1:0:0:0:
178,115,274159,1,0,3:0:0:0:
217,0,274302,5,8,1:2:0:0:
249,136,274445,5,8,1:2:0:0:
215,227,274587,5,8,1:2:0:0:
269,382,274730,5,8,1:2:0:0:
468,304,274873,6,0,B|309:302|220:388|17:385,1,440.999986541748,6|0,1:1|0:0,0:0:0:0:
7,299,275445,5,8,1:2:0:0:
91,245,275587,1,0,1:2:0:0:
225,272,275730,1,0,1:2:0:0:
321,209,275873,5,10,1:2:0:0:
433,260,276016,1,0,0:2:0:0:
460,163,276159,5,2,1:2:0:0:
341,201,276302,1,0,3:2:0:0:
257,98,276445,5,8,3:2:0:0:
332,0,276587,5,10,1:2:0:0:
379,114,276730,1,0,1:2:0:0:
379,114,276802,1,0,1:2:0:0:
379,114,276873,1,10,3:2:0:0:
225,204,277016,5,10,1:2:0:0:
104,85,277159,2,0,B|47:109|8:183|8:183|11:44|172:-28|299:30,1,528.000016113282,6|10,1:2|1:2,0:0:0:0:
379,114,277873,1,0,0:0:0:0:
503,73,278016,5,0,1:0:0:0:
512,116,278087,1,0,1:0:0:0:
496,157,278159,1,8,1:2:0:0:
281,228,278302,6,0,L|265:170,1,60,2|0,0:3|0:0,0:0:0:0:
148,103,278587,2,0,L|172:1,1,90.0000034332277,6|0,3:0|3:0,0:0:0:0:
94,372,278873,6,0,B|32:338|32:338|21:305|21:305|102:354,1,170.999995433807,10|0,1:2|0:0,0:0:0:0:
184,379,279159,6,0,L|224:362,1,30,2|0,1:3|0:0,0:0:0:0:
302,305,279302,6,0,L|362:320,1,45.0000017166138,2|0,1:3|0:0,0:0:0:0:
500,253,279445,6,0,B|471:205|527:126|527:126|456:191|364:218|268:173|247:66|336:22|404:18|423:104,1,569.999984779358,6|0,1:2|0:0,0:0:0:0:
309,243,280302,5,0,3:2:0:0:
176,310,280445,1,8,1:2:0:0:
97,362,280587,1,0,3:2:0:0:
286,383,280730,1,8,1:2:0:0:
166,200,280873,5,2,1:2:0:0:
285,262,281016,1,0,3:2:0:0:
349,67,281159,5,8,1:2:0:0:
230,129,281302,1,2,0:2:0:0:
75,43,281445,6,0,B|34:22|34:22|16:-6|16:-6|117:45,1,180,2|0,1:3|0:0,0:0:0:0:
20,137,281730,6,0,L|76:146,1,45.0000017166138,0|0,3:0|0:0,0:0:0:0:
469,206,282016,6,0,L|393:218,1,60,2|0,0:3|3:0,0:0:0:0:
134,133,282302,6,0,L|31:118,1,83.9999974365235,8|0,1:2|0:0,0:0:0:0:
340,202,282587,6,0,L|454:185,1,102.000001945496,2|0,0:3|0:0,0:0:0:0:
436,86,282873,5,8,1:2:0:0:
307,25,283016,5,8,1:2:0:0:
73,295,283159,5,8,1:2:0:0:
202,356,283302,5,8,1:2:0:0:
181,90,283445,6,0,B|170:124|170:124|171:140|171:140|156:204,1,102.000001945496,2|0,1:2|0:0,0:0:0:0:
331,294,283730,2,0,B|342:260|342:260|341:244|341:244|356:180,1,102.000001945496,2|0,1:2|0:0,0:0:0:0:
256,192,284016,1,4,0:0:0:0:
256,192,284087,12,0,286302,0:0:0:0:
