osu file format v14

[General]
AudioFilename: Audio.mp3
AudioLeadIn: 0
PreviewTime: 46338
Countdown: 0
SampleSet: Soft
StackLeniency: 0.3
Mode: 0
LetterboxInBreaks: 0
WidescreenStoryboard: 1

[Editor]
DistanceSpacing: 2.46
BeatDivisor: 4
GridSize: 16
TimelineZoom: 1.2

[Metadata]
Title:leap in your mind
TitleUnicode:leap in your mind
Artist:solfa feat. Shimotsuki Haruka
ArtistUnicode:solfa feat. 霜月はるか
Creator:Dored
Version:Insane
Source:仄暗き時の果てより
Tags:Honoguraki Toki no Hate Yori Galgame Eroge Visual Novel Opening OP Short Version Moonstone sahuang My Angel Azusa My_Angel_Azusa Fushimi Rio Fushimi_Rio imoutosan Asuka_- Tsumia Hey lululu Hey_lululu Irohas MugiwaraSekai Gust Ultimate Madoka Mirash Necho Reincarnation ScubDomino jungkyuyoung Suzuki_1112 Otosaka-Yu 天ヶ咲麗 iyuna
BeatmapID:1901946
BeatmapSetID:911281

[Difficulty]
HPDrainRate:6
CircleSize:4
OverallDifficulty:7.5
ApproachRate:9
SliderMultiplier:1.8
SliderTickRate:1

[Events]
//Background and Video events
0,0,"Komani3.jpg",0,0
//Break Periods
//Storyboard Layer 0 (Background)
//Storyboard Layer 1 (Fail)
//Storyboard Layer 2 (Pass)
//Storyboard Layer 3 (Foreground)
//Storyboard Sound Samples

[TimingPoints]
1196,571.428571428571,4,2,1,40,1,0
1196,-111.111111111111,4,2,1,40,0,0
10053,-125,4,2,1,50,0,0
10338,-80,4,2,1,60,0,0
28624,-100,4,2,1,50,0,0
46338,-83.3333333333333,4,2,1,50,0,0
46910,-80,4,2,1,55,0,0
64624,-100,4,2,1,55,0,0
65195,-90.9090909090909,4,2,1,60,0,0
74338,-83.3333333333333,4,2,1,60,0,0
78910,-76.9230769230769,4,2,1,65,0,0
82910,-125,4,2,1,70,0,0
83338,-125,4,2,1,5,0,0
83481,-66.6666666666667,4,2,1,75,0,1
90338,-66.6666666666667,4,2,1,75,0,0
92624,-66.6666666666667,4,2,1,75,0,1
99481,-66.6666666666667,4,2,1,75,0,0
101195,-125,4,2,1,75,0,0
101624,-125,4,2,1,5,0,0
101767,-66.6666666666667,4,2,1,75,0,1
108624,-66.6666666666667,4,2,1,75,0,0
110910,-66.6666666666667,4,2,1,75,0,1
120053,-66.6666666666667,4,2,1,75,0,0
120195,-66.6666666666667,4,2,1,40,0,0
121767,-66.6666666666667,4,2,1,30,0,0
122338,-66.6666666666667,4,2,1,20,0,0

[Colours]
Combo1 : 0,18,192
Combo2 : 220,180,108
Combo3 : 128,255,255
Combo4 : 255,162,108
Combo5 : 0,128,255
Combo6 : 144,36,36

[HitObjects]
129,65,1196,86,0,L|132:105,1,40.4999987640381,2|0,0:0|0:0,0:0:0:0:
256,192,3195,1,2,0:0:0:0:
382,65,3482,2,0,L|341:68,1,40.4999987640381,2|0,0:0|0:0,0:0:0:0:
382,318,5768,70,0,L|385:277,1,40.4999987640381,2|0,0:0|0:0,0:0:0:0:
256,192,7767,1,2,0:0:0:0:
129,318,8053,2,0,L|169:321,1,40.4999987640381,2|0,0:0|0:0,0:0:0:0:
256,192,10053,6,0,L|256:156,1,36,8|8,0:0|0:0,0:0:0:0:
256,192,10338,38,0,P|210:228|162:217,1,112.5,12|0,0:1|0:0,0:0:0:0:
102,156,10767,1,0,0:0:0:0:
35,208,10910,2,0,L|39:264,1,56.25,8|0,1:2|0:0,0:0:0:0:
102,156,11195,1,0,3:0:0:0:
23,124,11338,1,8,0:1:0:0:
25,95,11624,6,0,L|29:39,1,56.25,8|8,1:2|0:1,0:0:0:0:
107,7,11910,1,0,3:0:0:0:
161,72,12053,1,8,1:2:0:0:
107,7,12338,1,4,3:1:0:0:
161,72,12624,70,0,L|273:62,1,112.5,4|0,3:2|0:0,0:0:0:0:
350,97,13053,1,0,0:0:0:0:
281,146,13195,2,0,L|224:150,1,56.25,8|0,1:2|0:0,0:0:0:0:
350,97,13481,1,0,3:0:0:0:
289,231,13624,6,0,L|232:235,1,56.25,8|2,0:1|0:0,0:0:0:0:
358,182,13910,1,8,1:2:0:0:
366,267,14053,2,0,L|371:323,1,56.25,8|0,0:1|3:0,0:0:0:0:
289,231,14338,1,8,1:2:0:0:
406,100,14624,2,0,L|349:96,1,56.25,2|2,0:0|0:0,0:0:0:0:
246,34,14910,70,0,P|287:0|341:11,1,112.5,4|0,3:2|0:0,0:0:0:0:
350,96,15338,1,0,0:0:0:0:
281,146,15481,2,0,L|224:150,1,56.25,8|0,1:2|0:0,0:0:0:0:
149,112,15767,1,0,3:0:0:0:
145,56,15910,6,0,L|149:112,1,56.25,8|0,0:1|0:0,0:0:0:0:
159,194,16195,2,0,L|163:250,1,56.25,8|8,1:2|0:1,0:0:0:0:
149,112,16481,1,0,3:0:0:0:
83,156,16624,1,8,1:2:0:0:
148,111,16910,1,4,3:1:0:0:
83,156,17195,70,0,L|93:268,1,112.5,4|0,3:2|0:0,0:0:0:0:
147,333,17624,1,0,0:0:0:0:
226,302,17767,2,0,L|282:306,1,56.25,8|0,1:2|0:0,0:0:0:0:
147,333,18053,1,0,3:0:0:0:
221,218,18195,6,0,L|277:222,1,56.25,8|2,0:1|0:0,0:0:0:0:
282,306,18481,2,0,L|338:302,1,56.25,0|8,1:2|0:1,0:0:0:0:
413,262,18767,1,0,3:0:0:0:
478,315,18910,2,0,L|474:371,1,56.25,0|0,1:2|0:0,0:0:0:0:
413,262,19195,2,0,L|409:206,1,56.25,2|0,0:0|0:0,0:0:0:0:
379,88,19481,70,0,P|426:61|476:83,1,112.5,12|0,0:1|0:0,0:0:0:0:
484,169,19910,1,0,0:0:0:0:
409,206,20053,2,0,L|353:202,1,56.25,8|0,1:2|0:0,0:0:0:0:
484,169,20338,1,0,3:0:0:0:
477,254,20481,1,8,0:1:0:0:
474,282,20767,6,0,L|418:286,1,56.25,8|8,1:2|0:1,0:0:0:0:
352,340,21053,1,0,3:0:0:0:
288,286,21195,1,8,1:2:0:0:
352,340,21481,1,4,3:1:0:0:
288,286,21767,70,0,L|176:276,1,112.5,4|0,3:2|0:0,0:0:0:0:
103,318,22195,1,0,0:0:0:0:
60,246,22338,2,0,L|56:190,1,56.25,8|0,1:2|0:0,0:0:0:0:
48,105,22624,1,0,3:0:0:0:
124,140,22767,1,8,0:1:0:0:
114,28,22910,6,0,L|124:140,1,112.5,2|8,0:0|0:1,0:0:0:0:
199,174,23338,1,0,3:0:0:0:
189,62,23481,2,0,L|199:174,1,112.5,8|2,1:2|0:0,0:0:0:0:
266,124,23910,1,2,0:0:0:0:
276,236,24053,70,0,L|266:124,1,112.5,4|0,3:2|0:0,0:0:0:0:
199,174,24481,1,0,0:0:0:0:
340,157,24624,2,0,L|396:152,1,56.25,8|0,1:2|0:0,0:0:0:0:
333,73,24910,1,0,3:0:0:0:
266,124,25053,1,8,0:1:0:0:
115,55,25338,6,0,L|59:60,1,56.25,8|0,1:2|1:0,0:0:0:0:
3,124,25624,1,2,0:1:0:0:
68,178,25767,2,0,L|63:234,1,56.25,8|0,1:2|1:0,0:0:0:0:
3,294,26053,2,0,L|8:350,1,56.25,2|2,1:2|0:1,0:0:0:0:
68,178,26338,69,0,3:0:0:0:
96,178,26624,2,0,L|152:178,1,56.25,8|2,0:3|0:1,0:0:0:0:
238,178,26910,2,0,L|294:178,2,56.25,2|0|2,0:1|0:0|0:3,0:0:0:0:
152,178,27338,1,0,0:0:0:0:
152,292,27481,37,10,0:3:0:0:
152,320,27624,1,8,0:3:0:0:
266,320,27767,69,10,0:3:0:0:
294,320,27910,1,8,0:3:0:0:
294,206,28053,5,10,0:3:0:0:
294,178,28196,1,8,0:3:0:0:
180,178,28338,69,10,0:3:0:0:
152,178,28481,1,8,0:3:0:0:
294,320,28624,37,12,0:1:0:0:
294,320,28910,2,0,L|339:320,1,45,2|0,0:1|0:0,0:0:0:0:
397,263,29195,1,8,1:2:0:0:
339,206,29338,2,0,L|294:206,1,45,2|0,0:0|0:0,0:0:0:0:
397,262,29624,70,0,P|417:223|415:179,2,90,0|0|2,3:0|0:0|0:0,0:0:0:0:
339,206,30338,2,0,L|335:161,1,45,8|0,1:2|0:0,0:0:0:0:
389,100,30624,1,2,0:1:0:0:
389,100,30910,6,0,P|350:80|306:85,1,90,0|2,3:0|0:1,0:0:0:0:
259,151,31338,1,0,0:0:0:0:
178,143,31481,2,0,L|174:187,1,45,8|2,1:2|0:0,0:0:0:0:
259,151,31767,1,0,0:0:0:0:
222,75,31910,70,0,P|180:61|137:72,2,90,0|0|0,3:0|3:0|0:0,0:0:0:0:
259,151,32624,2,0,L|255:195,1,45,10|0,1:2|0:0,0:0:0:0:
206,261,32910,2,0,L|162:265,1,45,2|0,0:0|0:0,0:0:0:0:
344,202,33195,6,0,L|255:195,1,90,4|2,3:2|0:1,0:0:0:0:
409,248,33624,1,0,0:0:0:0:
336,283,33767,2,0,L|292:287,1,45,8|0,1:2|0:0,0:0:0:0:
409,248,34053,1,2,0:0:0:0:
475,293,34195,70,0,P|488:251|478:208,1,90,0|0,3:0|0:0,0:0:0:0:
413,161,34624,1,2,0:1:0:0:
344,203,34767,1,2,0:1:0:0:
278,155,34910,2,0,L|281:110,1,45,10|0,1:2|0:0,0:0:0:0:
351,69,35195,2,0,L|395:65,1,45,2|0,0:0|0:0,0:0:0:0:
344,203,35481,6,0,P|310:230|266:235,1,90,0|2,3:0|0:1,0:0:0:0:
201,182,35910,1,0,0:0:0:0:
124,209,36053,2,0,L|127:253,1,45,8|0,1:2|0:0,0:0:0:0:
201,182,36338,1,2,0:0:0:0:
42,190,36481,70,0,L|49:279,1,90,0|0,3:0|0:0,0:0:0:0:
112,333,36910,1,2,0:1:0:0:
127,253,37053,1,2,0:1:0:0:
49,279,37195,2,0,L|4:282,1,45,10|0,1:2|0:0,0:0:0:0:
190,307,37481,2,0,L|234:310,1,45,2|0,0:0|0:0,0:0:0:0:
144,170,37767,5,12,0:1:0:0:
144,170,38053,2,0,L|99:166,1,45,2|0,0:1|0:0,0:0:0:0:
46,104,38338,1,8,1:2:0:0:
109,52,38481,2,0,L|153:48,1,45,2|0,0:0|0:0,0:0:0:0:
225,177,38767,70,0,P|208:219|173:246,2,90,0|0|2,3:0|0:0|0:0,0:0:0:0:
218,97,39481,1,8,1:2:0:0:
368,35,39767,2,0,L|412:38,1,45,2|0,0:1|0:0,0:0:0:0:
490,66,40053,6,0,L|481:154,1,90,0|2,3:0|0:1,0:0:0:0:
404,118,40481,1,0,0:0:0:0:
367,194,40624,2,0,L|411:197,1,45,8|2,1:2|0:0,0:0:0:0:
319,125,40910,1,0,0:0:0:0:
330,270,41053,70,0,L|418:278,2,90,0|0|0,3:0|3:0|0:0,0:0:0:0:
367,194,41767,2,0,L|411:197,1,45,10|0,1:2|0:0,0:0:0:0:
382,354,42053,2,0,L|337:350,1,45,2|0,0:0|0:0,0:0:0:0:
282,201,42338,6,0,P|247:173|202:169,1,90,4|2,3:2|0:1,0:0:0:0:
128,134,42767,1,0,0:0:0:0:
135,214,42910,2,0,L|138:258,1,45,8|0,1:2|0:0,0:0:0:0:
203,168,43195,1,2,0:0:0:0:
195,87,43338,70,0,P|162:59|118:52,1,90,0|0,3:0|1:0,0:0:0:0:
53,102,43767,1,2,0:1:0:0:
128,134,43910,1,2,0:1:0:0:
61,180,44053,2,0,L|17:183,1,45,10|0,1:2|0:0,0:0:0:0:
195,87,44338,2,0,L|239:90,1,45,2|0,0:0|0:0,0:0:0:0:
135,214,44624,6,0,P|116:253|121:297,1,90,0|2,3:0|0:1,0:0:0:0:
197,267,45053,1,0,0:0:0:0:
45,265,45195,2,0,L|1:268,1,45,8|0,1:2|0:0,0:0:0:0:
135,214,45481,1,2,0:0:0:0:
185,346,45624,70,0,L|275:346,1,90,0|0,3:0|1:0,0:0:0:0:
357,346,46053,1,2,0:1:0:0:
317,276,46195,1,2,0:1:0:0:
357,346,46338,70,0,P|385:281|316:276,1,161.999995056153,2|0,3:3|0:0,0:0:0:0:
256,192,46910,69,12,0:1:0:0:
140,267,47053,2,0,L|197:267,1,56.25,2|0,0:1|0:0,0:0:0:0:
256,192,47338,1,0,3:0:0:0:
140,267,47481,2,0,L|28:267,1,112.5,8|2,0:0|0:1,0:0:0:0:
140,267,47910,6,0,P|164:315|139:364,1,112.5,0|2,3:0|0:1,0:0:0:0:
27,267,48338,2,0,L|27:210,1,56.25,0|0,0:0|3:0,0:0:0:0:
139,363,48624,2,0,L|82:363,1,56.25,8|0,0:0|0:0,0:0:0:0:
140,267,48910,2,0,L|196:267,1,56.25,8|0,0:3|0:0,0:0:0:0:
256,192,49195,69,0,3:0:0:0:
256,342,49338,1,2,0:1:0:0:
372,267,49481,1,2,0:1:0:0:
256,192,49623,1,0,3:0:0:0:
372,267,49767,2,0,L|484:267,1,112.5,8|2,0:0|0:1,0:0:0:0:
372,267,50195,6,0,P|348:315|373:364,1,112.5,0|2,3:0|0:1,0:0:0:0:
485,267,50624,2,0,L|485:210,1,56.25,0|0,0:0|3:0,0:0:0:0:
373,363,50910,2,0,L|429:363,1,56.25,8|0,0:0|0:0,0:0:0:0:
372,267,51195,2,0,L|315:267,1,56.25,8|0,0:3|0:0,0:0:0:0:
256,192,51481,69,2,3:0:0:0:
372,117,51624,2,0,L|315:117,1,56.25,2|0,0:1|0:0,0:0:0:0:
256,192,51909,1,0,3:0:0:0:
372,117,52052,2,0,L|484:117,1,112.5,8|2,0:0|0:1,0:0:0:0:
372,117,52481,6,0,P|348:69|373:20,1,112.5,0|2,3:0|0:1,0:0:0:0:
485,117,52910,2,0,L|485:173,1,56.25,0|0,0:0|3:0,0:0:0:0:
373,21,53195,2,0,L|429:21,1,56.25,8|0,0:0|0:0,0:0:0:0:
372,117,53481,2,0,L|315:117,1,56.25,8|0,0:3|0:0,0:0:0:0:
256,192,53767,69,0,3:0:0:0:
140,117,53910,2,0,L|197:117,1,56.25,2|0,0:1|0:0,0:0:0:0:
256,192,54195,1,0,3:0:0:0:
140,117,54338,2,0,L|28:117,1,112.5,8|2,0:0|0:1,0:0:0:0:
81,192,54767,6,0,L|138:192,1,56.25,0|0,3:0|0:0,0:0:0:0:
138,42,55053,2,0,L|81:42,1,56.25,2|0,0:1|0:0,0:0:0:0:
137,192,55338,1,0,3:0:0:0:
256,117,55481,1,8,0:0:0:0:
137,192,55624,1,0,3:0:0:0:
138,42,55767,2,0,L|195:42,1,56.25,8|0,0:3|0:0,0:0:0:0:
256,192,56053,69,12,0:1:0:0:
372,117,56196,2,0,L|315:117,1,56.25,2|0,0:1|0:0,0:0:0:0:
256,192,56481,1,0,3:0:0:0:
372,117,56624,2,0,L|484:117,1,112.5,8|2,0:0|0:1,0:0:0:0:
431,192,57053,6,0,L|374:192,1,56.25,0|0,3:0|0:0,0:0:0:0:
374,42,57339,2,0,L|431:42,1,56.25,2|0,0:1|0:0,0:0:0:0:
256,117,57624,1,0,3:0:0:0:
374,42,57767,1,8,0:0:0:0:
256,117,57910,1,0,3:0:0:0:
374,192,58053,2,0,L|431:192,1,56.25,8|0,0:3|0:0,0:0:0:0:
256,192,58338,69,0,3:0:0:0:
375,311,58481,1,2,0:1:0:0:
375,192,58624,1,2,0:1:0:0:
256,311,58767,1,0,3:0:0:0:
375,311,58910,2,0,L|432:311,1,56.25,8|0,0:0|0:0,0:0:0:0:
494,192,59195,1,2,0:1:0:0:
431,311,59338,6,0,L|319:311,1,112.5,0|2,3:0|0:1,0:0:0:0:
375,192,59767,1,2,0:1:0:0:
431,311,59910,1,0,3:0:0:0:
494,192,60053,2,0,L|437:192,1,56.25,8|0,0:0|0:0,0:0:0:0:
318,311,60338,2,0,L|374:311,1,56.25,8|0,0:3|0:0,0:0:0:0:
256,192,60624,69,2,3:0:0:0:
140,267,60767,2,0,L|197:267,1,56.25,2|0,0:1|0:0,0:0:0:0:
256,192,61053,1,0,3:0:0:0:
140,267,61195,2,0,L|83:267,1,56.25,8|0,0:0|0:0,0:0:0:0:
256,192,61481,1,2,0:1:0:0:
140,342,61624,6,0,L|197:342,1,56.25,0|0,3:0|0:0,0:0:0:0:
83,267,61910,2,0,L|26:267,1,56.25,2|0,0:1|0:0,0:0:0:0:
140,342,62195,1,0,3:0:0:0:
140,192,62338,1,8,0:0:0:0:
26,267,62481,1,0,3:0:0:0:
140,342,62624,2,0,L|197:342,1,56.25,8|0,0:3|0:0,0:0:0:0:
256,192,62910,69,0,3:0:0:0:
197,92,63053,2,0,L|140:92,1,56.25,2|0,0:1|0:0,0:0:0:0:
256,192,63338,1,0,3:0:0:0:
315,92,63481,2,0,L|371:92,1,56.25,8|0,0:0|0:0,0:0:0:0:
256,192,63767,1,2,0:1:0:0:
139,192,63910,6,0,P|118:141|140:91,1,112.5,0|2,3:0|0:1,0:0:0:0:
256,135,64338,2,0,L|256:191,1,56.25,0|0,0:0|3:0,0:0:0:0:
152,291,64624,22,0,L|197:291,1,45,10|0,0:0|0:0,0:0:0:0:
360,291,64910,2,0,L|315:291,1,45,2|0,0:0|0:0,0:0:0:0:
371,92,65195,70,0,P|392:142|371:192,1,99.0000030212403,12|2,0:1|0:0,0:0:0:0:
305,186,65624,2,0,L|255:190,1,49.5000015106202,0|8,3:0|1:2,0:0:0:0:
409,286,66053,2,0,L|359:290,1,49.5000015106202,2|0,0:1|0:0,0:0:0:0:
305,341,66338,6,0,L|255:337,1,49.5000015106202,0|0,3:0|0:0,0:0:0:0:
197,291,66624,2,0,P|150:278|106:298,2,99.0000030212403,2|8|2,0:0|1:2|0:0,0:0:0:0:
156,353,67338,1,0,0:0:0:0:
56,243,67481,70,0,L|56:144,1,99.0000030212403,0|2,3:0|0:1,0:0:0:0:
50,71,67910,1,0,0:0:0:0:
110,28,68053,2,0,P|154:8|201:22,1,99.0000030212403,8|2,1:2|0:1,0:0:0:0:
159,83,68482,1,0,0:0:0:0:
250,77,68624,6,0,P|205:96|159:83,1,99.0000030212403,10|10,0:1|0:1,0:0:0:0:
200,21,69053,1,2,0:1:0:0:
290,14,69195,2,0,P|244:1|200:21,1,99.0000030212403,8|0,1:2|0:0,0:0:0:0:
56,243,69767,69,2,3:0:0:0:
56,243,70053,2,0,L|60:292,1,49.5000015106202,2|0,0:0|0:0,0:0:0:0:
66,365,70338,1,8,1:2:0:0:
132,286,70481,2,0,L|136:335,1,49.5000015106202,2|0,0:1|0:0,0:0:0:0:
222,247,70767,6,0,L|177:225,1,49.5000015106202,0|0,3:0|0:0,0:0:0:0:
208,345,71053,2,0,L|248:317,1,49.5000015106202,2|0,0:1|0:0,0:0:0:0:
177,225,71338,1,0,3:0:0:0:
60,292,71481,2,0,L|11:296,1,49.5000015106202,10|0,1:2|0:0,0:0:0:0:
208,345,71767,2,0,L|257:349,1,49.5000015106202,2|0,0:0|0:0,0:0:0:0:
456,243,72053,69,0,3:0:0:0:
456,243,72339,2,0,L|452:292,1,49.5000015106202,2|0,0:0|0:0,0:0:0:0:
446,365,72624,1,8,1:2:0:0:
380,286,72767,2,0,L|376:335,1,49.5000015106202,2|0,0:1|0:0,0:0:0:0:
290,247,73053,6,0,L|335:225,1,49.5000015106202,0|0,3:0|0:0,0:0:0:0:
304,345,73338,2,0,L|222:288,1,99.0000030212403,2|0,0:0|0:0,0:0:0:0:
338,175,73767,70,0,L|334:224,1,49.5000015106202,10|0,1:2|0:0,0:0:0:0:
220,209,74053,2,0,L|224:160,1,49.5000015106202,2|0,0:0|0:0,0:0:0:0:
352,15,74338,6,0,P|404:18|444:53,1,107.999996704102,12|2,0:1|0:0,0:0:0:0:
374,94,74767,1,0,3:0:0:0:
444,135,74910,1,8,1:2:0:0:
374,94,75195,1,2,0:1:0:0:
444,135,75338,1,0,0:0:0:0:
444,217,75481,70,0,L|444:271,1,53.9999983520508,0|0,3:0|0:0,0:0:0:0:
291,234,75767,2,0,P|279:182|303:134,2,107.999996704102,2|8|2,0:0|1:2|0:0,0:0:0:0:
361,193,76481,1,0,0:0:0:0:
233,94,76624,6,0,L|125:103,1,107.999996704102,0|2,3:0|0:1,0:0:0:0:
233,175,77053,1,0,0:0:0:0:
303,134,77195,2,0,L|410:143,1,107.999996704102,8|2,1:2|0:1,0:0:0:0:
291,234,77624,1,0,0:0:0:0:
233,174,77767,70,0,L|125:183,1,107.999996704102,0|2,3:0|0:1,0:0:0:0:
221,275,78195,1,0,0:0:0:0:
291,234,78338,2,0,L|398:243,1,107.999996704102,8|0,1:2|0:0,0:0:0:0:
209,376,78910,6,0,L|150:370,1,58.4999973220826,4|0,3:2|0:0,0:0:0:0:
16,332,79195,2,0,L|74:326,1,58.4999973220826,2|0,0:0|0:0,0:0:0:0:
208,277,79481,2,0,L|149:282,1,58.4999973220826,8|0,1:2|0:0,0:0:0:0:
15,231,79767,2,0,L|73:236,1,58.4999973220826,8|0,0:3|0:0,0:0:0:0:
148,192,80053,69,0,3:0:0:0:
73,148,80195,1,0,0:0:0:0:
148,104,80338,1,2,0:0:0:0:
73,60,80481,1,0,0:0:0:0:
148,16,80624,2,0,L|206:16,1,58.4999973220826,8|0,1:2|0:0,0:0:0:0:
281,148,80910,2,0,L|222:148,1,58.4999973220826,2|0,0:1|0:0,0:0:0:0:
355,16,81195,5,0,3:0:0:0:
375,36,81481,2,0,L|433:41,1,58.4999973220826,2|0,0:0|0:0,0:0:0:0:
375,125,81767,2,0,L|433:130,1,58.4999973220826,8|2,1:2|0:1,0:0:0:0:
375,214,82053,2,0,L|433:219,1,58.4999973220826,8|2,0:3|0:1,0:0:0:0:
375,303,82338,69,8,0:1:0:0:
298,258,82481,1,0,3:0:0:0:
298,169,82624,1,8,0:1:0:0:
375,125,82767,1,0,3:0:0:0:
375,303,82910,38,0,P|350:347|299:346,1,108,8|8,1:2|1:2,0:0:0:0:
221,299,83481,69,12,1:0:0:0:
202,314,83767,2,0,L|134:308,1,67.5000025749208,2|0,0:1|0:0,0:0:0:0:
254,160,84053,1,8,1:2:0:0:
375,303,84195,2,0,L|381:235,1,67.5000025749208,2|0,0:1|0:0,0:0:0:0:
213,88,84481,6,0,P|174:141|184:205,2,135.000005149842,8|2|0,3:1|0:0|3:0,0:0:0:0:
380,235,85195,2,0,L|312:240,1,67.5000025749208,10|0,1:2|0:0,0:0:0:0:
213,88,85481,2,0,L|280:93,1,67.5000025749208,2|0,0:0|0:0,0:0:0:0:
221,299,85767,69,4,3:2:0:0:
202,314,86053,2,0,L|134:308,1,67.5000025749208,2|0,0:1|0:0,0:0:0:0:
96,197,86338,1,8,1:2:0:0:
96,197,86481,2,0,L|28:191,1,67.5000025749208,2|0,0:1|0:0,0:0:0:0:
213,88,86767,1,8,3:1:0:0:
213,88,86910,6,0,L|145:82,1,67.5000025749208,2|0,0:0|0:0,0:0:0:0:
96,197,87195,2,0,L|164:203,1,67.5000025749208,8|0,0:1|3:0,0:0:0:0:
280,93,87481,2,0,L|212:87,1,67.5000025749208,10|0,1:2|0:0,0:0:0:0:
163,202,87767,2,0,L|231:208,1,67.5000025749208,4|0,3:0|3:0,0:0:0:0:
163,0,88053,70,0,P|98:12|62:67,2,135.000005149842,2|2|8,3:0|0:1|1:2,0:0:0:0:
280,93,88767,1,0,0:0:0:0:
420,39,88910,2,0,L|487:33,1,67.5000025749208,2|0,0:1|0:0,0:0:0:0:
280,93,89195,5,0,3:0:0:0:
377,136,89338,1,2,1:0:0:0:
474,179,89481,2,0,L|479:246,1,67.5000025749208,2|0,1:0|1:0,0:0:0:0:
377,136,89767,1,2,1:2:0:0:
334,233,89910,1,0,1:0:0:0:
291,330,90053,2,0,L|223:335,1,67.5000025749208,2|0,1:2|1:0,0:0:0:0:
43,256,90338,70,0,P|103:230|163:255,1,135.000005149842,4|2,3:2|0:1,0:0:0:0:
224,335,90767,1,0,0:0:0:0:
304,155,90910,2,0,P|243:180|183:155,1,135.000005149842,8|2,1:2|0:1,0:0:0:0:
123,75,91339,1,0,0:0:0:0:
43,256,91481,6,0,L|31:121,1,135.000005149842,2|2,1:2|1:0,0:0:0:0:
183,155,91910,1,0,1:0:0:0:
129,8,92053,2,0,L|123:75,1,67.5000025749208,8|8,1:0|1:2,0:0:0:0:
290,57,92338,2,0,L|223:63,1,67.5000025749208,8|8,1:0|1:2,0:0:0:0:
144,247,92624,69,12,1:0:0:0:
164,256,92910,2,0,L|232:250,1,67.5000025749208,2|0,0:1|0:0,0:0:0:0:
356,183,93195,1,8,1:2:0:0:
452,287,93338,2,0,L|446:355,1,67.5000025749208,2|0,0:1|0:0,0:0:0:0:
242,370,93624,6,0,P|211:312|231:249,2,135.000005149842,8|2|0,3:1|0:0|3:0,0:0:0:0:
350,250,94338,2,0,L|356:182,1,67.5000025749208,10|0,1:2|0:0,0:0:0:0:
488,83,94624,2,0,L|494:151,1,67.5000025749208,2|0,0:0|0:0,0:0:0:0:
336,18,94910,69,4,3:2:0:0:
319,36,95195,2,0,L|250:41,1,67.5000025749208,2|0,0:1|0:0,0:0:0:0:
288,187,95481,1,8,1:2:0:0:
288,187,95624,2,0,L|355:182,1,67.5000025749208,2|0,0:1|0:0,0:0:0:0:
251,40,95910,6,0,L|184:45,1,67.5000025749208,8|0,3:1|0:0,0:0:0:0:
41,150,96195,1,2,0:1:0:0:
169,235,96338,2,0,L|164:168,1,67.5000025749208,8|0,0:1|3:0,0:0:0:0:
36,83,96624,2,0,L|41:150,1,67.5000025749208,10|0,1:2|0:0,0:0:0:0:
50,283,96910,1,4,3:0:0:0:
169,235,97053,1,0,3:0:0:0:
334,325,97195,70,0,P|281:363|216:353,2,135.000005149842,2|2|8,3:0|0:1|1:2,0:0:0:0:
288,187,97910,1,0,0:0:0:0:
430,216,98053,2,0,L|497:210,1,67.5000025749208,2|0,0:1|0:0,0:0:0:0:
288,187,98338,5,0,3:0:0:0:
373,131,98481,1,2,1:0:0:0:
430,216,98624,2,0,L|436:283,1,67.5000025749208,2|0,1:0|1:0,0:0:0:0:
288,187,98910,1,2,1:2:0:0:
232,102,99053,1,0,1:0:0:0:
317,45,99196,2,0,L|384:39,1,67.5000025749208,2|0,1:2|1:0,0:0:0:0:
147,159,99481,70,0,L|80:153,1,67.5000025749208,4|0,3:2|0:0,0:0:0:0:
196,311,99767,2,0,L|202:244,1,67.5000025749208,2|0,0:1|0:0,0:0:0:0:
79,152,100053,2,0,L|12:146,1,67.5000025749208,8|0,1:2|0:0,0:0:0:0:
95,325,100338,2,0,L|101:258,1,67.5000025749208,2|0,0:1|0:0,0:0:0:0:
147,67,100624,5,2,1:2:0:0:
79,152,100767,1,0,1:0:0:0:
101,258,100911,1,2,1:0:0:0:
196,311,101053,1,0,1:0:0:0:
351,247,101195,70,0,P|338:198|287:187,1,108,8|8,1:0|1:2,0:0:0:0:
171,189,101767,5,12,1:0:0:0:
157,174,102053,2,0,L|151:106,1,67.5000025749208,2|0,0:1|0:0,0:0:0:0:
290,29,102338,1,8,1:2:0:0:
427,111,102481,2,0,L|495:105,1,67.5000025749208,2|0,0:1|0:0,0:0:0:0:
351,247,102767,70,0,L|485:259,2,135.000005149842,8|2|0,3:1|0:0|3:0,0:0:0:0:
360,117,103481,2,0,L|428:111,1,67.5000025749208,10|0,1:2|0:0,0:0:0:0:
238,183,103767,2,0,L|170:189,1,67.5000025749208,2|0,0:0|0:0,0:0:0:0:
10,84,104053,5,4,3:2:0:0:
25,103,104338,2,0,L|19:171,1,67.5000025749208,2|0,0:1|0:0,0:0:0:0:
165,256,104624,2,0,L|171:188,1,67.5000025749208,8|2,1:2|0:1,0:0:0:0:
140,74,104910,1,0,0:0:0:0:
92,294,105053,70,0,P|143:334|208:326,1,135.000005149842,8|2,3:1|0:1,0:0:0:0:
238,183,105481,2,0,L|170:189,1,67.5000025749208,8|0,0:1|3:0,0:0:0:0:
351,247,105767,2,0,L|419:253,1,67.5000025749208,10|0,1:2|0:0,0:0:0:0:
360,117,106053,1,4,3:0:0:0:
238,183,106195,1,0,3:0:0:0:
458,180,106338,6,0,P|497:232|489:296,2,135.000005149842,2|2|8,3:0|0:1|1:2,0:0:0:0:
378,324,107053,1,0,0:0:0:0:
243,250,107195,2,0,L|237:182,1,67.5000025749208,2|0,0:1|0:0,0:0:0:0:
360,117,107481,69,0,3:0:0:0:
330,211,107624,1,2,1:0:0:0:
390,23,107767,2,0,L|457:28,1,67.5000025749208,2|0,1:0|1:0,0:0:0:0:
266,87,108053,1,2,1:2:0:0:
360,117,108196,1,0,1:0:0:0:
172,57,108338,2,0,L|166:124,1,67.5000025749208,2|0,1:2|1:0,0:0:0:0:
300,305,108624,6,0,P|241:274|178:294,1,135.000005149842,4|2,3:2|0:1,0:0:0:0:
136,382,109053,1,0,0:0:0:0:
0,223,109195,2,0,P|62:242|121:211,1,135.000005149842,8|2,1:2|0:1,0:0:0:0:
178,293,109624,1,0,0:0:0:0:
300,135,109767,70,0,L|165:123,1,135.000005149842,2|2,1:2|1:0,0:0:0:0:
239,214,110195,1,0,1:0:0:0:
379,196,110338,2,0,L|373:263,1,67.5000025749208,8|8,1:0|1:2,0:0:0:0:
300,135,110624,2,0,L|305:67,1,67.5000025749208,8|8,1:0|1:2,0:0:0:0:
479,8,110910,5,12,1:0:0:0:
497,24,111195,2,0,L|502:92,1,67.5000025749208,2|0,0:1|0:0,0:0:0:0:
379,196,111481,1,8,1:2:0:0:
304,67,111624,2,0,L|372:72,1,67.5000025749208,2|0,0:1|0:0,0:0:0:0:
434,260,111910,70,0,P|371:279|312:248,2,135.000005149842,8|2|0,3:1|0:0|3:0,0:0:0:0:
308,157,112624,2,0,L|240:162,1,67.5000025749208,10|0,1:2|0:0,0:0:0:0:
248,343,112910,2,0,L|316:338,1,67.5000025749208,2|0,0:0|0:0,0:0:0:0:
101,239,113195,5,4,3:2:0:0:
86,258,113481,2,0,L|80:190,1,67.5000025749208,2|0,0:1|0:0,0:0:0:0:
235,95,113767,1,8,1:2:0:0:
235,95,113910,2,0,L|241:163,1,67.5000025749208,2|0,0:1|0:0,0:0:0:0:
80,190,114195,70,0,L|74:122,1,67.5000025749208,8|0,3:1|0:0,0:0:0:0:
191,254,114481,1,2,0:1:0:0:
94,358,114624,2,0,L|26:352,1,67.5000025749208,8|0,0:1|3:0,0:0:0:0:
191,254,114910,2,0,L|259:260,1,67.5000025749208,10|0,1:2|0:0,0:0:0:0:
371,325,115195,1,4,3:0:0:0:
252,379,115338,1,0,3:0:0:0:
416,255,115481,6,0,P|451:310|437:375,2,135.000005149842,2|2|8,3:0|0:1|1:2,0:0:0:0:
334,122,116195,1,0,0:0:0:0:
259,260,116338,2,0,L|191:254,1,67.5000025749208,2|0,0:1|0:0,0:0:0:0:
74,122,116624,69,0,3:0:0:0:
170,154,116767,1,2,1:0:0:0:
191,254,116910,2,0,L|185:322,1,67.5000025749208,2|0,1:0|1:0,0:0:0:0:
0,192,117195,1,2,1:2:0:0:
74,122,117338,1,0,1:0:0:0:
170,154,117481,2,0,L|249:160,1,67.5000025749208,2|0,1:2|1:0,0:0:0:0:
5,259,117767,6,0,L|-1:180,1,67.5000025749208,2|2,3:1|0:1,0:0:0:0:
79,54,118053,2,0,L|73:133,1,67.5000025749208,2|0,0:0|0:0,0:0:0:0:
100,291,118338,2,0,L|94:212,1,67.5000025749208,8|2,1:2|0:1,0:0:0:0:
175,86,118624,2,0,L|169:165,1,67.5000025749208,0|0,3:0|0:0,0:0:0:0:
259,260,118910,70,0,L|180:254,1,67.5000025749208,8|2,1:2|1:0,0:0:0:0:
348,356,119195,2,0,L|280:361,1,67.5000025749208,8|2,1:2|1:0,0:0:0:0:
444,267,119481,1,8,1:2:0:0:
259,260,119624,1,2,1:0:0:0:
355,171,119767,1,8,1:2:0:0:
348,356,119910,1,2,1:0:0:0:
356,148,120053,5,12,1:0:0:0:
256,192,120195,12,0,122338,0:0:0:0:
