osu file format v14

[General]
AudioFilename: Audio.mp3
AudioLeadIn: 0
PreviewTime: 46338
Countdown: 0
SampleSet: Soft
StackLeniency: 0.2
Mode: 0
LetterboxInBreaks: 0
WidescreenStoryboard: 1

[Editor]
Bookmarks: 28624
DistanceSpacing: 1.6
BeatDivisor: 4
GridSize: 4
TimelineZoom: 1.3

[Metadata]
Title:leap in your mind
TitleUnicode:leap in your mind
Artist:solfa feat. Shimotsuki Haruka
ArtistUnicode:solfa feat. 霜月はるか
Creator:Dored
Version:Gust's Hyper
Source:仄暗き時の果てより
Tags:Honoguraki Toki no Hate Yori Galgame Eroge Visual Novel Opening OP Short Version Moonstone sahuang My Angel Azusa My_Angel_Azusa Fushimi Rio Fushimi_Rio imoutosan Asuka_- Tsumia Hey lululu Hey_lululu Irohas MugiwaraSekai Gust Ultimate Madoka Mirash Necho Reincarnation ScubDomino jungkyuyoung Suzuki_1112 Otosaka-Yu 天ヶ咲麗 iyuna
BeatmapID:1949167
BeatmapSetID:911281

[Difficulty]
HPDrainRate:5
CircleSize:5
OverallDifficulty:6.5
ApproachRate:8
SliderMultiplier:1.8
SliderTickRate:1

[Events]
//Background and Video events
0,0,"Eri3.jpg",0,0
//Break Periods
//Storyboard Layer 0 (Background)
//Storyboard Layer 1 (Fail)
//Storyboard Layer 2 (Pass)
//Storyboard Layer 3 (Foreground)
//Storyboard Sound Samples

[TimingPoints]
1196,571.428571428571,4,2,1,40,1,0
10053,-100,4,2,1,60,0,0
28624,-100,4,2,1,50,0,0
37767,-100,4,2,1,50,0,0
46338,-200,4,2,1,50,0,0
46910,-100,4,2,1,55,0,0
65195,-100,4,2,1,60,0,0
78910,-100,4,2,1,65,0,0
81195,-200,4,2,1,65,0,0
82481,-75.187969924812,4,2,1,65,0,0
82910,-75.187969924812,4,2,1,70,0,0
83481,-86.9565217391304,4,2,1,75,0,1
90338,-100,4,2,1,75,0,0
92053,-303.030303030303,4,2,1,75,0,0
92624,-86.9565217391304,4,2,1,75,0,1
99481,-100,4,2,1,75,0,0
101195,-303.030303030303,4,2,1,75,0,0
101767,-86.9565217391304,4,2,1,75,0,1
108624,-100,4,2,1,75,0,0
110338,-303.030303030303,4,2,1,75,0,0
110910,-86.9565217391304,4,2,1,75,0,1
120053,-100,4,2,1,75,0,0
120195,-100,4,2,1,40,0,0
121767,-100,4,2,1,30,0,0
122338,-100,4,2,1,20,0,0

[Colours]
Combo1 : 0,18,192
Combo2 : 220,180,108
Combo3 : 128,255,255
Combo4 : 255,162,108
Combo5 : 0,128,255
Combo6 : 144,36,36

[HitObjects]
96,192,1196,5,2,0:0:0:0:
96,192,1338,1,0,0:0:0:0:
256,40,3195,1,2,0:0:0:0:
256,40,3481,5,2,0:0:0:0:
256,40,3623,1,0,0:0:0:0:
416,192,5767,5,2,0:0:0:0:
416,192,5909,1,0,0:0:0:0:
256,344,7766,1,2,0:0:0:0:
256,344,8052,5,2,0:0:0:0:
256,344,8194,1,0,0:0:0:0:
256,48,10053,38,0,L|200:76,1,45,8|8,0:0|0:0,0:0:0:0:
153,31,10338,6,0,P|124:68|82:74,1,90,12|0,0:1|0:0,0:0:0:0:
21,112,10767,1,0,0:0:0:0:
21,112,10910,2,0,L|44:227,1,90,8|0,1:2|3:0,0:0:0:0:
110,196,11338,1,8,0:1:0:0:
110,196,11481,2,0,L|101:259,1,45,2|8,0:0|1:2,0:0:0:0:
28,320,11767,2,0,L|34:275,1,45,8|0,0:1|3:0,0:0:0:0:
173,261,12053,2,0,P|216:268|242:304,1,90,8|4,1:2|3:1,0:0:0:0:
242,304,12481,1,0,0:0:0:0:
298,348,12624,6,0,L|367:341,1,45,4|0,3:2|0:0,0:0:0:0:
413,359,12910,2,0,L|482:352,1,45,2|0,0:0|0:0,0:0:0:0:
497,245,13195,2,0,P|453:252|427:288,1,90,8|0,1:2|3:0,0:0:0:0:
356,273,13624,1,8,0:1:0:0:
356,273,13767,2,0,L|349:214,1,45,2|8,0:0|1:2,0:0:0:0:
282,147,14053,2,0,L|288:192,1,45,8|0,0:1|3:0,0:0:0:0:
411,187,14338,2,0,L|419:76,1,90,8|2,1:2|0:0,0:0:0:0:
417,97,14767,1,2,0:0:0:0:
350,70,14910,5,6,3:2:0:0:
350,70,15053,1,0,0:0:0:0:
285,102,15195,2,0,L|281:146,1,45,0|0,0:0|0:0,0:0:0:0:
214,173,15481,2,0,P|170:166|144:130,1,90,8|0,1:2|3:0,0:0:0:0:
78,161,15910,1,8,0:1:0:0:
78,161,16053,70,0,L|83:229,1,45,0|8,0:0|1:2,0:0:0:0:
140,247,16338,2,0,L|145:315,1,45,8|0,0:1|3:0,0:0:0:0:
202,333,16624,1,8,1:2:0:0:
202,333,16767,1,0,0:0:0:0:
202,333,16910,2,0,L|207:401,1,45,4|0,3:1|0:0,0:0:0:0:
306,377,17195,54,0,L|310:333,1,45,4|0,3:2|0:0,0:0:0:0:
368,291,17481,2,0,L|372:247,1,45,0|0,0:0|0:0,0:0:0:0:
430,205,17767,1,8,1:2:0:0:
430,205,17910,1,0,0:0:0:0:
430,205,18053,2,0,L|434:161,1,45,0|8,3:0|0:1,0:0:0:0:
386,105,18338,5,2,0:0:0:0:
316,125,18481,1,0,1:2:0:0:
256,84,18624,1,8,0:1:0:0:
196,125,18767,1,0,3:0:0:0:
126,105,18910,2,0,L|52:112,1,45,0|0,1:2|0:0,0:0:0:0:
57,182,19195,2,0,L|102:178,1,45,2|0,0:0|0:0,0:0:0:0:
196,125,19481,6,0,P|211:166|204:210,1,90,12|0,0:1|0:0,0:0:0:0:
138,240,19910,1,0,0:0:0:0:
138,240,20053,2,0,L|152:342,1,90,8|0,1:2|3:0,0:0:0:0:
150,329,20481,1,8,0:1:0:0:
216,355,20624,2,0,L|223:293,1,45,2|8,0:0|1:2,0:0:0:0:
290,310,20910,2,0,L|296:355,1,45,8|0,0:1|3:0,0:0:0:0:
361,329,21195,2,0,L|374:240,1,90,8|4,1:2|3:1,0:0:0:0:
496,102,21767,6,0,L|484:192,1,90,4|0,3:2|0:0,0:0:0:0:
484,191,22195,1,0,0:0:0:0:
411,176,22338,2,0,P|368:167|327:183,1,90,8|0,1:2|3:0,0:0:0:0:
256,160,22767,1,8,0:1:0:0:
185,183,22910,38,0,P|144:167|101:176,1,90,2|8,0:0|0:1,0:0:0:0:
28,192,23338,1,0,3:0:0:0:
28,192,23481,2,0,L|16:102,1,90,8|2,1:2|0:0,0:0:0:0:
16,102,23910,1,2,0:0:0:0:
68,52,24053,6,0,L|112:58,1,45,4|0,3:2|0:0,0:0:0:0:
176,20,24338,2,0,L|220:26,1,45,0|0,0:0|0:0,0:0:0:0:
364,63,24624,2,0,L|274:75,1,90,8|0,1:2|3:0,0:0:0:0:
237,136,25053,1,8,0:1:0:0:
280,192,25195,6,0,L|324:198,1,45,2|8,0:0|1:2,0:0:0:0:
388,160,25481,2,0,L|432:166,1,45,0|2,1:0|0:1,0:0:0:0:
486,214,25767,1,8,1:2:0:0:
432,166,25910,1,0,1:0:0:0:
476,112,26053,1,2,1:2:0:0:
422,64,26195,1,2,0:1:0:0:
466,10,26338,1,2,3:0:0:0:
466,10,28624,5,12,0:1:0:0:
422,64,28910,38,0,L|339:73,1,45,2|0,0:1|0:0,0:0:0:0:
332,125,29195,1,8,1:2:0:0:
332,125,29338,2,0,L|249:134,1,45,2|0,0:0|0:0,0:0:0:0:
242,186,29624,5,0,3:0:0:0:
374,243,29910,1,2,0:0:0:0:
242,186,30195,1,2,0:0:0:0:
242,186,30338,2,0,L|159:195,1,45,8|0,1:2|0:0,0:0:0:0:
152,247,30624,1,2,0:1:0:0:
208,114,30910,6,0,L|204:70,1,45,0|0,3:0|0:0,0:0:0:0:
256,20,31195,1,2,0:1:0:0:
256,20,31338,1,0,0:0:0:0:
308,70,31481,1,8,1:2:0:0:
308,70,31624,2,0,L|303:114,1,45,2|0,0:0|0:0,0:0:0:0:
256,172,31910,5,0,3:0:0:0:
400,192,32195,1,0,3:0:0:0:
400,192,32338,1,0,0:0:0:0:
348,242,32481,1,0,0:0:0:0:
348,242,32624,2,0,L|352:286,1,45,10|0,1:2|0:0,0:0:0:0:
424,360,32910,2,0,L|420:316,1,45,2|0,0:0|0:0,0:0:0:0:
300,340,33195,38,0,L|256:344,1,45,4|0,3:2|0:0,0:0:0:0:
196,304,33481,2,0,L|152:308,1,45,2|0,0:1|0:0,0:0:0:0:
99,359,33767,2,0,P|80:320|86:276,1,90,8|2,1:2|0:0,0:0:0:0:
145,235,34195,5,0,3:0:0:0:
145,235,34338,2,0,L|132:166,1,45,0|0,0:0|0:0,0:0:0:0:
179,131,34624,1,2,0:1:0:0:
120,87,34767,1,2,0:1:0:0:
76,146,34910,1,10,1:2:0:0:
136,190,35195,5,2,0:0:0:0:
376,190,35481,5,0,3:0:0:0:
436,146,35624,1,0,0:0:0:0:
392,87,35767,1,2,0:1:0:0:
333,131,35910,1,0,0:0:0:0:
375,190,36053,2,0,L|367:235,1,45,8|0,1:2|0:0,0:0:0:0:
421,316,36338,2,0,L|429:271,1,45,2|0,0:0|3:0,0:0:0:0:
294,233,36624,37,0,0:0:0:0:
230,267,36767,1,0,0:0:0:0:
294,233,36909,1,2,0:1:0:0:
230,267,37053,1,2,0:1:0:0:
190,329,37195,2,0,L|97:320,1,90,10|2,1:2|0:0,0:0:0:0:
32,192,37767,6,0,L|92:198,1,45,12|0,0:1|0:0,0:0:0:0:
124,140,38053,2,0,L|99:85,1,45,2|0,0:1|0:0,0:0:0:0:
33,87,38338,1,8,1:2:0:0:
33,87,38481,2,0,L|-2:135,1,45,2|0,0:0|0:0,0:0:0:0:
32,192,38767,5,0,3:0:0:0:
126,285,39053,1,0,0:0:0:0:
256,319,39338,1,2,0:0:0:0:
256,319,39481,5,8,1:2:0:0:
384,285,39767,1,2,0:1:0:0:
480,192,40053,38,0,L|420:198,1,45,0|0,3:0|0:0,0:0:0:0:
388,140,40339,2,0,L|412:85,1,45,2|0,0:1|0:0,0:0:0:0:
479,87,40624,1,8,1:2:0:0:
479,87,40767,2,0,L|514:135,1,45,2|0,0:0|0:0,0:0:0:0:
480,192,41053,5,0,3:0:0:0:
386,285,41339,1,0,3:0:0:0:
256,319,41624,1,0,0:0:0:0:
256,319,41767,6,0,L|195:311,1,45,10|0,1:2|0:0,0:0:0:0:
150,352,42053,2,0,L|89:360,1,45,2|0,0:0|0:0,0:0:0:0:
38,330,42338,5,4,3:2:0:0:
38,330,42481,1,0,0:0:0:0:
95,285,42624,1,2,0:1:0:0:
95,285,42767,1,0,0:0:0:0:
27,257,42910,2,0,P|36:213|79:168,1,90,8|2,1:2|0:0,0:0:0:0:
167,210,43338,37,0,3:0:0:0:
167,210,43481,2,0,L|123:217,1,45,0|0,0:0|1:0,0:0:0:0:
125,144,43767,2,0,L|169:137,1,45,2|2,0:1|0:1,0:0:0:0:
229,99,44053,2,0,P|220:55|177:10,1,90,10|2,1:2|0:0,0:0:0:0:
360,156,44624,6,0,L|404:149,1,45,0|0,3:0|0:0,0:0:0:0:
402,223,44910,2,0,L|357:229,1,45,2|0,0:1|0:0,0:0:0:0:
298,268,45196,2,0,P|307:312|350:357,1,90,8|2,1:2|0:0,0:0:0:0:
334,346,45624,1,0,3:0:0:0:
385,295,45767,1,2,1:0:0:0:
357,228,45910,1,0,1:0:0:0:
328,160,46053,1,2,0:1:0:0:
301,96,46195,1,2,0:1:0:0:
352,45,46338,2,0,L|414:51,1,45,6|0,3:3|0:0,0:0:0:0:
465,26,46910,37,12,0:1:0:0:
465,26,47053,1,2,0:1:0:0:
450,97,47195,1,0,0:0:0:0:
450,97,47338,1,0,3:0:0:0:
396,48,47481,5,8,0:0:0:0:
504,145,47767,1,2,0:1:0:0:
504,145,47910,1,0,3:0:0:0:
364,192,48195,1,2,0:1:0:0:
472,289,48481,1,0,3:0:0:0:
472,289,48624,1,8,0:0:0:0:
332,336,48910,1,8,0:3:0:0:
47,358,49195,69,0,3:0:0:0:
47,358,49338,1,2,0:1:0:0:
62,287,49480,1,2,0:1:0:0:
62,287,49623,1,0,3:0:0:0:
116,336,49767,5,8,0:0:0:0:
8,239,50053,1,2,0:1:0:0:
8,239,50196,1,0,3:0:0:0:
148,192,50481,1,2,0:1:0:0:
40,95,50767,1,0,3:0:0:0:
40,95,50910,1,8,0:0:0:0:
180,48,51195,1,8,0:3:0:0:
148,192,51481,69,2,3:0:0:0:
133,262,51624,1,2,0:1:0:0:
242,356,51910,1,0,3:0:0:0:
257,286,52053,1,8,0:0:0:0:
396,240,52338,5,2,0:1:0:0:
381,310,52481,1,0,3:0:0:0:
381,310,52767,1,2,0:1:0:0:
242,356,53053,1,0,3:0:0:0:
257,286,53196,1,8,0:0:0:0:
257,286,53481,1,8,0:3:0:0:
289,145,53767,69,0,3:0:0:0:
304,75,53910,1,2,0:1:0:0:
443,29,54195,1,0,3:0:0:0:
428,99,54338,1,8,0:0:0:0:
289,145,54624,1,2,0:1:0:0:
304,75,54767,1,0,3:0:0:0:
187,0,55053,1,2,0:1:0:0:
172,70,55196,1,0,0:0:0:0:
172,70,55481,5,8,0:0:0:0:
157,140,55624,1,0,3:0:0:0:
142,210,55767,1,8,0:3:0:0:
142,210,55910,1,0,0:0:0:0:
127,280,56053,69,12,0:1:0:0:
127,280,56195,1,2,0:1:0:0:
256,340,56481,1,0,3:0:0:0:
256,340,56624,1,8,0:0:0:0:
385,280,56910,1,2,0:1:0:0:
385,280,57052,1,0,3:0:0:0:
256,340,57338,1,2,0:1:0:0:
256,340,57481,1,0,0:0:0:0:
256,192,57767,5,8,0:0:0:0:
256,120,57910,1,0,3:0:0:0:
256,48,58053,1,8,0:3:0:0:
400,68,58338,69,0,3:0:0:0:
400,68,58481,1,2,0:1:0:0:
460,28,58624,1,2,0:1:0:0:
460,28,58767,1,0,3:0:0:0:
464,99,58910,1,8,0:0:0:0:
338,168,59195,1,2,0:1:0:0:
338,168,59338,1,0,3:0:0:0:
256,48,59624,5,2,0:1:0:0:
256,120,59767,1,2,0:1:0:0:
256,192,59910,1,0,3:0:0:0:
256,192,60053,1,8,0:0:0:0:
256,48,60338,1,8,0:3:0:0:
174,168,60624,69,2,3:0:0:0:
174,168,60767,1,2,0:1:0:0:
92,288,61053,1,0,3:0:0:0:
92,288,61195,1,8,0:0:0:0:
29,156,61481,1,2,0:1:0:0:
29,156,61624,5,0,3:0:0:0:
174,168,61910,1,2,0:1:0:0:
245,174,62053,1,0,0:0:0:0:
316,180,62195,1,0,3:0:0:0:
316,180,62338,1,8,0:0:0:0:
461,192,62624,1,8,0:3:0:0:
251,103,62910,69,0,3:0:0:0:
245,174,63053,1,2,0:1:0:0:
245,174,63195,1,0,0:0:0:0:
239,245,63338,1,0,3:0:0:0:
239,245,63481,1,8,0:0:0:0:
239,245,63767,5,2,0:1:0:0:
245,174,63910,1,0,3:0:0:0:
245,174,64053,1,0,0:0:0:0:
251,102,64195,1,2,0:1:0:0:
251,102,64338,2,0,L|257:29,1,45,0|0,0:0|3:0,0:0:0:0:
324,75,64624,6,0,L|330:2,1,45,10|0,0:0|0:0,0:0:0:0:
397,48,64910,2,0,L|403:-25,1,45,2|0,0:0|0:0,0:0:0:0:
254,57,65195,6,0,P|203:68|153:33,1,90,12|2,0:1|0:0,0:0:0:0:
103,23,65624,1,0,3:0:0:0:
103,23,65767,2,0,L|75:122,1,90,8|2,1:2|0:1,0:0:0:0:
136,152,66195,1,0,0:0:0:0:
136,152,66338,2,0,L|116:211,1,45,0|0,3:0|0:0,0:0:0:0:
40,292,66624,6,0,P|76:266|121:267,1,90,2|8,0:0|1:2,0:0:0:0:
182,304,67053,1,0,0:0:0:0:
182,304,67196,2,0,L|167:346,1,45,2|0,0:0|0:0,0:0:0:0:
265,256,67481,6,0,P|229:230|185:231,2,90,0|2|8,3:0|0:1|1:2,0:0:0:0:
472,192,68338,1,2,0:1:0:0:
406,162,68481,1,0,0:0:0:0:
406,162,68624,2,0,L|354:169,1,45,10|2,0:1|0:1,0:0:0:0:
369,241,68910,2,0,L|413:234,1,45,10|2,0:1|0:1,0:0:0:0:
464,119,69195,2,0,P|445:78|407:56,1,90,8|0,1:2|0:0,0:0:0:0:
256,72,69767,37,2,3:0:0:0:
361,168,70053,2,0,L|309:175,1,45,2|0,0:0|0:0,0:0:0:0:
369,241,70338,1,8,1:2:0:0:
369,241,70481,2,0,L|413:234,1,45,2|0,0:1|0:0,0:0:0:0:
400,308,70767,5,0,3:0:0:0:
256,284,71053,1,2,0:1:0:0:
112,308,71338,1,0,3:0:0:0:
143,241,71481,2,0,L|98:234,1,45,10|0,1:2|0:0,0:0:0:0:
151,168,71767,2,0,L|203:175,1,45,2|0,0:0|0:0,0:0:0:0:
256,72,72053,5,0,3:0:0:0:
151,168,72338,2,0,L|203:175,1,45,2|0,0:0|0:0,0:0:0:0:
143,241,72623,1,8,1:2:0:0:
143,241,72767,2,0,L|98:234,1,45,2|0,0:1|0:0,0:0:0:0:
112,308,73052,5,0,3:0:0:0:
256,284,73338,1,2,0:0:0:0:
400,308,73623,1,0,0:0:0:0:
369,241,73767,2,0,L|413:234,1,45,10|0,1:2|0:0,0:0:0:0:
361,168,74052,2,0,L|309:175,1,45,2|0,0:0|0:0,0:0:0:0:
256,72,74338,38,0,L|204:79,1,45,12|0,0:1|0:0,0:0:0:0:
148,44,74624,2,0,L|96:51,1,45,2|0,0:0|3:0,0:0:0:0:
55,104,74910,2,0,P|84:136|89:180,1,90,8|2,1:2|0:1,0:0:0:0:
41,234,75338,1,0,0:0:0:0:
41,234,75481,2,0,L|48:286,1,45,0|0,3:0|0:0,0:0:0:0:
162,224,75767,6,0,P|166:179|196:147,1,90,2|8,0:0|1:2,0:0:0:0:
256,104,76195,1,0,0:0:0:0:
256,104,76338,2,0,L|249:52,1,45,2|0,0:0|0:0,0:0:0:0:
344,0,76624,6,0,L|328:96,1,90,0|2,3:0|0:1,0:0:0:0:
412,160,77053,1,2,0:0:0:0:
412,160,77195,2,0,L|426:71,1,90,8|2,1:2|0:1,0:0:0:0:
329,88,77624,5,0,0:0:0:0:
329,88,77767,2,0,L|317:160,1,45,0|0,3:0|0:0,0:0:0:0:
260,172,78053,2,0,L|252:216,1,45,2|0,0:1|0:0,0:0:0:0:
348,328,78338,2,0,L|362:239,1,90,8|0,1:2|0:0,0:0:0:0:
216,72,78910,38,0,L|204:144,1,45,4|0,3:2|0:0,0:0:0:0:
91,100,79195,2,0,L|136:108,1,45,2|0,0:0|0:0,0:0:0:0:
119,224,79481,2,0,L|126:179,1,45,8|0,1:2|0:0,0:0:0:0:
245,197,79767,2,0,L|200:189,1,45,8|0,0:3|0:0,0:0:0:0:
216,72,80053,6,0,L|204:144,1,45,0|0,3:0|0:0,0:0:0:0:
192,262,80338,2,0,L|264:274,1,45,2|0,0:0|0:0,0:0:0:0:
382,286,80624,2,0,L|394:214,1,45,8|0,1:2|0:0,0:0:0:0:
406,96,80910,2,0,L|334:84,1,45,2|0,0:1|0:0,0:0:0:0:
216,72,81195,6,0,B|208:117|208:117|120:104|120:104|112:169,1,180,0|8,3:0|0:1,0:0:0:0:
105,221,82481,1,0,3:0:0:0:
95,293,82624,1,8,0:1:0:0:
105,221,82767,1,0,3:0:0:0:
114,148,82910,6,0,B|120:104|120:104|208:117|208:117|216:72,1,180,8|0,1:2|0:0,0:0:0:0:
380,14,83481,38,0,P|337:20|293:70,2,103.500001974106,12|2|8,1:0|0:1|1:2,0:0:0:0:
460,35,84195,1,2,0:1:0:0:
460,35,84338,2,0,L|447:105,1,51.7500009870529,0|8,0:0|3:1,0:0:0:0:
504,149,84624,1,0,0:0:0:0:
504,149,84767,1,2,0:0:0:0:
344,192,85053,5,0,3:0:0:0:
344,192,85195,2,0,L|331:262,1,51.7500009870529,10|0,1:2|0:0,0:0:0:0:
378,356,85481,2,0,L|388:306,1,51.7500009870529,2|0,0:0|0:0,0:0:0:0:
256,264,85767,6,0,P|201:263|156:316,1,103.500001974106,4|2,3:2|0:1,0:0:0:0:
86,268,86195,1,0,0:0:0:0:
86,268,86338,2,0,L|56:158,1,103.500001974106,8|0,1:2|0:0,0:0:0:0:
36,87,86767,1,8,3:1:0:0:
58,168,86910,5,2,0:0:0:0:
117,108,87053,1,0,0:0:0:0:
117,108,87195,2,0,L|195:93,1,51.7500009870529,8|0,0:1|3:0,0:0:0:0:
250,83,87481,2,0,L|223:158,1,51.7500009870529,10|0,1:2|0:0,0:0:0:0:
205,210,87767,2,0,L|171:170,1,51.7500009870529,4|0,3:0|3:0,0:0:0:0:
333,68,88053,38,0,L|367:108,1,51.7500009870529,2|0,3:0|0:0,0:0:0:0:
288,195,88338,2,0,L|305:146,1,51.7500009870529,2|0,0:1|0:0,0:0:0:0:
421,170,88624,2,0,L|370:179,1,51.7500009870529,8|0,1:2|0:0,0:0:0:0:
288,195,88910,5,2,0:1:0:0:
343,258,89053,1,0,0:0:0:0:
260,273,89195,1,0,3:0:0:0:
315,336,89338,1,2,1:0:0:0:
232,351,89481,2,0,L|170:344,1,51.7500009870529,2|0,1:0|1:0,0:0:0:0:
106,307,89767,2,0,P|96:254|49:225,1,103.500001974106,2|2,1:2|1:2,0:0:0:0:
80,93,90338,6,0,L|188:78,1,90,4|2,3:2|0:1,0:0:0:0:
288,164,90910,2,0,L|377:151,1,90,8|2,1:2|0:1,0:0:0:0:
446,174,91338,1,0,0:0:0:0:
488,115,91481,1,2,1:2:0:0:
446,57,91624,1,0,1:0:0:0:
377,79,91767,2,0,L|299:66,1,45,2|0,1:0|1:0,0:0:0:0:
280,20,92053,6,0,L|230:11,1,44.5499998640442,8|0,1:0|0:0,0:0:0:0:
165,52,92624,38,0,P|152:116|116:136,1,103.500001974106,12|2,1:0|0:1,0:0:0:0:
256,232,93195,1,8,1:2:0:0:
256,232,93338,1,2,0:1:0:0:
92,200,93624,1,8,3:1:0:0:
92,200,93767,2,0,L|104:268,1,51.7500009870529,0|2,0:0|0:0,0:0:0:0:
180,280,94053,1,8,0:1:0:0:
116,332,94195,1,0,3:0:0:0:
116,332,94338,2,0,L|128:400,1,51.7500009870529,10|0,1:2|0:0,0:0:0:0:
188,330,94624,2,0,L|180:280,1,51.7500009870529,2|0,0:0|0:0,0:0:0:0:
256,232,94910,6,0,P|320:245|340:281,1,103.500001974106,4|2,3:2|0:1,0:0:0:0:
344,356,95338,1,0,0:0:0:0:
344,356,95481,2,0,L|412:348,1,51.7500009870529,8|2,1:2|0:1,0:0:0:0:
492,192,95910,5,8,3:1:0:0:
492,192,96053,2,0,L|424:200,1,51.7500009870529,0|2,0:0|0:1,0:0:0:0:
391,131,96338,1,8,0:1:0:0:
359,207,96481,1,0,3:0:0:0:
359,207,96624,2,0,L|291:215,1,51.7500009870529,10|0,1:2|0:0,0:0:0:0:
339,137,96910,2,0,L|390:130,1,51.7500009870529,4|0,3:0|3:0,0:0:0:0:
460,268,97195,6,0,L|392:276,1,51.7500009870529,2|0,3:0|0:0,0:0:0:0:
307,213,97481,1,2,0:1:0:0:
247,254,97624,1,0,0:0:0:0:
241,181,97767,2,0,P|202:150|116:155,1,103.500001974106,8|2,1:2|0:1,0:0:0:0:
40,132,98195,37,0,0:0:0:0:
40,132,98338,2,0,L|105:187,1,51.7500009870529,0|2,3:0|1:0,0:0:0:0:
105,42,98624,2,0,L|24:71,1,51.7500009870529,2|0,1:0|1:0,0:0:0:0:
150,143,98910,2,0,L|165:59,1,51.7500009870529,2|0,1:2|1:0,0:0:0:0:
176,20,99195,5,2,1:2:0:0:
328,84,99481,1,4,3:2:0:0:
314,248,99767,1,2,0:1:0:0:
153,285,100053,1,8,1:2:0:0:
68,143,100338,6,0,L|126:134,1,45,2|0,0:1|0:0,0:0:0:0:
100,64,100624,1,2,1:2:0:0:
171,53,100767,1,0,1:0:0:0:
184,126,100910,2,0,L|242:117,1,45,2|0,1:0|1:0,0:0:0:0:
300,109,101195,6,0,L|357:99,1,44.5499998640442,8|0,1:0|0:0,0:0:0:0:
416,92,101767,38,0,P|475:109|499:161,2,103.500001974106,12|2|8,1:0|0:1|1:2,0:0:0:0:
397,256,102624,5,0,0:0:0:0:
314,267,102767,2,0,L|324:216,1,51.7500009870529,8|0,3:1|0:0,0:0:0:0:
397,256,103053,1,2,0:0:0:0:
314,267,103195,2,0,L|324:216,1,51.7500009870529,8|0,0:1|3:0,0:0:0:0:
258,316,103481,2,0,L|296:350,1,51.7500009870529,10|0,1:2|0:0,0:0:0:0:
244,242,103767,2,0,L|194:258,1,51.7500009870529,2|0,0:0|0:0,0:0:0:0:
115,284,104053,6,0,P|56:267|32:215,2,103.500001974106,4|2|8,3:2|0:1|1:2,0:0:0:0:
129,200,104767,2,0,L|139:149,1,51.7500009870529,2|0,0:1|0:0,0:0:0:0:
153,65,105053,1,8,3:1:0:0:
73,95,105195,1,0,0:0:0:0:
139,149,105338,1,2,0:1:0:0:
219,119,105481,6,0,L|272:163,1,51.7500009870529,8|0,0:1|3:0,0:0:0:0:
347,72,105767,2,0,L|282:95,1,51.7500009870529,10|0,1:2|0:0,0:0:0:0:
324,206,106053,2,0,L|335:138,1,51.7500009870529,4|0,3:0|3:0,0:0:0:0:
426,42,106338,38,0,L|417:93,1,51.7500009870529,2|0,3:0|0:0,0:0:0:0:
473,154,106624,1,2,0:1:0:0:
404,201,106767,1,0,0:0:0:0:
459,262,106910,2,0,L|450:313,2,51.7500009870529,8|0|2,1:2|0:0|0:1,0:0:0:0:
404,201,107338,1,0,0:0:0:0:
473,154,107481,1,0,3:0:0:0:
417,93,107624,2,0,L|426:42,1,51.7500009870529,2|2,1:0|1:0,0:0:0:0:
256,4,108053,6,0,L|247:55,1,51.7500009870529,2|0,1:2|1:0,0:0:0:0:
167,147,108338,2,0,L|176:96,1,51.7500009870529,2|0,1:2|1:0,0:0:0:0:
113,43,108624,6,0,P|79:74|15:72,1,90,4|2,3:2|0:1,0:0:0:0:
243,183,109195,6,0,P|210:152|166:146,1,90,8|2,1:2|0:1,0:0:0:0:
180,216,109624,1,0,0:0:0:0:
119,254,109767,1,2,1:2:0:0:
65,203,109910,1,0,1:0:0:0:
93,138,110053,2,0,L|77:60,1,45,2|0,1:0|1:0,0:0:0:0:
139,19,110338,38,0,L|150:62,1,44.5499998640442,8|0,1:0|0:0,0:0:0:0:
304,28,110910,6,0,P|270:67|220:74,1,103.500001974106,12|2,1:0|0:1,0:0:0:0:
63,24,111481,1,8,1:2:0:0:
63,24,111624,1,2,0:1:0:0:
97,185,111910,1,8,3:1:0:0:
97,185,112053,2,0,L|85:261,1,51.7500009870529,0|2,0:0|0:0,0:0:0:0:
40,303,112338,1,8,0:1:0:0:
121,311,112481,1,0,3:0:0:0:
121,311,112624,2,0,L|109:387,1,51.7500009870529,10|0,1:2|0:0,0:0:0:0:
202,319,112910,2,0,L|210:267,1,51.7500009870529,2|0,0:0|0:0,0:0:0:0:
352,192,113195,6,0,P|385:229|435:237,2,103.500001974106,4|2|8,3:2|0:1|1:2,0:0:0:0:
340,108,113910,2,0,L|264:120,1,51.7500009870529,2|0,0:1|0:0,0:0:0:0:
216,72,114195,2,0,L|140:84,1,51.7500009870529,8|0,3:1|0:0,0:0:0:0:
92,36,114481,2,0,L|16:48,1,51.7500009870529,2|8,0:1|0:1,0:0:0:0:
216,72,114767,1,0,3:0:0:0:
216,72,114910,2,0,L|140:84,1,51.7500009870529,10|0,1:2|0:0,0:0:0:0:
340,108,115195,2,0,L|288:116,1,51.7500009870529,4|0,3:0|3:0,0:0:0:0:
396,48,115481,6,0,P|446:55|479:93,1,103.500001974106,2|2,3:0|0:1,0:0:0:0:
420,152,115910,1,0,0:0:0:0:
420,152,116053,2,0,L|444:292,1,103.500001974106,8|2,1:2|0:1,0:0:0:0:
452,335,116481,1,0,0:0:0:0:
374,307,116624,1,0,3:0:0:0:
437,254,116767,1,2,1:0:0:0:
374,307,116910,38,0,L|298:319,1,51.7500009870529,2|0,1:0|1:0,0:0:0:0:
252,271,117195,2,0,L|176:283,1,51.7500009870529,2|0,1:2|1:0,0:0:0:0:
130,235,117481,2,0,L|54:247,1,51.7500009870529,2|0,1:2|1:0,0:0:0:0:
200,279,117767,5,2,3:1:0:0:
203,195,117910,1,2,0:1:0:0:
160,123,118053,2,0,L|84:135,1,51.7500009870529,2|0,0:0|0:0,0:0:0:0:
50,72,118338,2,0,L|77:0,1,51.7500009870529,8|2,1:2|0:1,0:0:0:0:
149,2,118624,2,0,L|197:61,1,51.7500009870529,0|0,3:0|0:0,0:0:0:0:
234,107,118910,5,8,1:2:0:0:
312,86,119053,1,2,1:0:0:0:
391,113,119196,1,8,1:2:0:0:
444,181,119338,1,2,1:0:0:0:
451,263,119481,2,0,L|377:288,1,51.7500009870529,8|2,1:2|1:0,0:0:0:0:
362,353,119767,2,0,L|288:378,1,51.7500009870529,8|2,1:2|1:0,0:0:0:0:
237,333,120053,1,12,1:0:0:0:
256,192,120195,12,0,122338,0:0:0:0:
