osu file format v14

[General]
AudioFilename: audio.mp3
AudioLeadIn: 0
PreviewTime: 727
Countdown: 0
SampleSet: Soft
StackLeniency: 0.7
Mode: 0
LetterboxInBreaks: 0
WidescreenStoryboard: 1

[Editor]
DistanceSpacing: 1
BeatDivisor: 4
GridSize: 8
TimelineZoom: 1.000001

[Metadata]
Title:Natsuiro Ramune
TitleUnicode:夏色ラムネ
Artist:solfa feat. Shimotsuki Haruka
ArtistUnicode:solfa feat.霜月はるか
Creator:Lasse
Version:Normal
Source:夏色ラムネ
Tags:eroge visual novel opening carol works short version bariton asaiga
BeatmapID:1507406
BeatmapSetID:710897

[Difficulty]
HPDrainRate:4
CircleSize:3.4
OverallDifficulty:5
ApproachRate:6
SliderMultiplier:1.12
SliderTickRate:1

[Events]
//Background and Video events
0,0,"eg_b01_04.jpg",0,0
//Break Periods
2,78927,79927
2,81177,82177
2,83427,85552
//Storyboard Layer 0 (Background)
//Storyboard Layer 1 (Fail)
//Storyboard Layer 2 (Pass)
//Storyboard Layer 3 (Foreground)
//Storyboard Sound Samples

[TimingPoints]
1102,375,6,2,2,34,1,0
1102,-166.666666666667,6,2,2,34,0,0
3352,-166.666666666667,6,2,2,36,0,0
5602,-166.666666666667,6,2,2,38,0,0
7852,-166.666666666667,6,2,2,40,0,0
9727,-166.666666666667,6,2,2,40,0,0
9914,-166.666666666667,6,2,2,30,0,0
10102,-125,6,2,75,50,0,0
19102,-125,6,2,75,50,0,0
30352,-125,6,2,75,52,0,0
30539,-125,6,2,76,52,0,0
30914,-125,6,2,75,54,0,0
31102,-125,6,2,76,54,0,0
31477,-125,6,2,75,56,0,0
31665,-125,6,2,76,56,0,0
31852,-125,6,2,76,58,0,0
32227,-125,6,2,76,58,0,0
32414,-125,6,2,75,30,0,0
32602,-111.111111111111,6,2,62,56,0,0
40102,-111.111111111111,6,2,76,56,0,0
40289,-111.111111111111,6,2,75,56,0,0
40477,-111.111111111111,6,2,76,56,0,0
40852,-111.111111111111,6,2,75,56,0,0
41039,-111.111111111111,6,2,62,56,0,0
41227,-111.111111111111,6,2,76,56,0,0
41602,-111.111111111111,6,2,62,58,0,0
48352,-111.111111111111,6,2,75,58,0,0
48727,-111.111111111111,6,2,76,58,0,0
48914,-111.111111111111,6,2,62,58,0,0
49102,-111.111111111111,6,2,76,58,0,0
49289,-111.111111111111,6,2,62,60,0,0
49570,-111.111111111111,6,2,62,5,0,0
49664,-111.111111111111,6,2,62,60,0,0
49852,-111.111111111111,6,2,76,50,0,0
50602,-100,6,2,62,64,0,1
58852,-100,6,2,62,66,0,1
59227,-100,6,2,62,68,0,0
59602,-100,6,2,62,64,0,1
64852,-100,6,2,62,65,0,1
65602,-100,6,2,62,66,0,1
66352,-100,6,2,62,67,0,1
67102,-100,6,2,62,68,0,1
67852,-100,6,2,62,70,0,1
68039,-100,6,2,62,71,0,1
68227,-100,6,2,62,72,0,1
68414,-100,6,2,62,73,0,1
68602,-105.263157894737,6,2,62,62,0,0
76477,-105.263157894737,6,2,62,62,0,0
76570,-105.263157894737,6,2,62,20,0,0
78727,-105.263157894737,6,2,2,30,0,0
86602,674.157303370787,6,2,2,28,1,0
86602,-142.857142857143,6,2,2,28,0,0
86770,701.754385964912,6,2,2,26,1,8
86945,882.352941176471,6,2,2,24,1,8
86945,-111.111111111111,6,2,2,24,0,8
87165,-111.111111111111,6,2,2,22,0,8
87386,1612.90322580645,6,2,2,20,1,8
87789,1754.38596491228,6,2,2,18,1,8
88666,2090.59233449477,6,2,2,16,1,8
89711,2033.89830508475,6,2,2,14,1,8
90727,-100,6,2,2,12,0,8

[Colours]
Combo1 : 250,190,230
Combo2 : 130,200,230
Combo3 : 255,230,140
Combo4 : 170,245,170

[HitObjects]
39,27,1102,6,0,B|43:65|24:91|24:91|52:101|79:129|79:129|51:152|42:183|42:183|61:204|72:245|72:245|56:277|61:321,1,335.999989746094,2|0,0:0|0:0,0:0:0:0:
124,358,3352,2,0,B|162:354|188:372|188:372|198:344|226:318|226:318|249:345|280:354|280:354|301:335|342:324|342:324|374:340|418:335,1,335.999989746094,2|0,0:0|0:0,0:0:0:0:
481,307,5602,2,0,B|477:269|495:242|495:242|467:232|441:205|441:205|468:181|477:150|477:150|458:129|447:88|447:88|463:56|458:12,1,335.999989746094,2|0,0:0|0:0,0:0:0:0:
380,41,7852,2,0,B|342:45|315:26|315:26|305:54|278:81|278:81|254:53|223:44|223:44|202:63|161:74|161:74|129:58|85:63,1,335.999989746094,0|12,0:0|0:3,0:0:0:0:
30,121,10102,6,0,L|21:263,1,134.4,6|8,0:2|0:3,0:0:0:0:
78,332,11039,1,8,0:3:0:0:
78,332,11227,2,0,P|123:326|176:332,2,89.6,8|8|8,0:3|0:3|0:0,0:0:0:0:
7,276,12352,2,0,L|-2:89,1,179.2,8|8,0:3|0:3,0:0:0:0:
61,33,13477,2,0,P|104:20|148:26,1,89.6,8|8,0:3|0:3,0:0:0:0:
226,67,14227,1,8,0:0:0:0:
305,111,14602,6,0,B|344:117|377:101|377:101|413:98|440:124,1,134.4,2|8,0:3|0:3,0:0:0:0:
484,199,15539,1,8,0:3:0:0:
484,199,15727,2,0,L|501:301,1,89.6,8|8,0:3|0:3,0:0:0:0:
438,353,16477,1,8,0:0:0:0:
363,302,16852,2,0,P|321:289|272:295,1,89.6,8|8,0:3|0:3,0:0:0:0:
201,342,17602,2,0,P|156:346|114:333,1,89.6,8|8,0:3|0:3,0:0:0:0:
79,316,18164,1,8,0:3:0:0:
79,316,18352,2,0,L|71:220,1,89.6,8|8,0:3|0:0,0:0:0:0:
126,156,19102,6,0,P|179:142|267:155,1,134.4,6|8,0:2|0:3,0:0:0:0:
329,213,20039,1,8,0:3:0:0:
329,213,20227,2,0,L|339:313,2,89.6,8|8|8,0:3|0:3|0:0,0:0:0:0:
260,155,21352,2,0,B|210:147|150:171|150:171|111:175|83:140,1,179.2,8|8,0:3|0:3,0:0:0:0:
113,61,22477,2,0,P|149:44|200:32,1,89.6,8|10,0:3|0:3,0:0:0:0:
285,49,23227,1,2,0:3:0:0:
369,78,23602,6,0,B|408:84|441:68|441:68|509:79|500:147,1,179.2,2|2,0:3|0:3,0:0:0:0:
433,199,24727,2,0,P|388:190|339:193,1,89.6,2|8,0:0|0:3,0:0:0:0:
271,243,25477,1,10,0:0:0:0:
203,184,25852,2,0,L|190:88,1,89.6,8|8,0:3|0:3,0:0:0:0:
118,41,26602,1,2,0:0:0:0:
53,103,26977,2,0,L|43:290,1,179.2,8|8,0:3|0:0,0:0:0:0:
118,330,28102,6,0,P|163:323|216:328,2,89.6,2|8|2,0:3|0:3|0:0,0:0:0:0:
38,371,29227,1,2,0:0:0:0:
44,282,29602,2,0,L|35:185,1,89.6,8|8,0:3|0:0,0:0:0:0:
51,108,30352,1,8,0:1:0:0:
51,108,30539,2,0,P|94:116|137:104,1,89.6,8|8,0:3|0:1,0:0:0:0:
170,73,31101,1,8,0:3:0:0:
255,100,31477,1,8,0:1:0:0:
328,48,31852,2,0,P|372:36|426:50,1,89.6,12|4,0:3|3:2,0:0:0:0:
480,121,32602,6,0,B|454:174|481:238|481:238|477:290|445:307,1,201.599993847656,6|2,0:0|0:0,0:0:0:0:
400,319,33539,1,8,0:3:0:0:
400,319,33727,2,0,P|351:305|301:309,1,100.799996923828,2|2,3:2|0:0,0:0:0:0:
213,358,34477,1,2,0:0:0:0:
146,282,34852,2,0,L|139:169,2,100.799996923828,4|2|8,0:3|0:0|0:3,0:0:0:0:
119,326,35789,1,8,0:3:0:0:
119,326,35977,2,0,P|74:338|8:310,1,100.799996923828,2|2,3:2|0:0,0:0:0:0:
0,223,36727,1,2,0:0:0:0:
77,159,37102,6,0,B|119:140|166:148|166:148|226:170|291:152,1,201.599993847656,4|2,0:3|0:0,0:0:0:0:
315,126,38039,1,8,0:3:0:0:
315,126,38227,2,0,P|365:115|425:130,2,100.799996923828,2|2|2,3:2|0:0|0:0,0:0:0:0:
243,197,39352,2,0,P|167:240|108:160,1,201.599993847656,4|10,0:3|0:3,0:0:0:0:
119,117,40289,1,10,0:1:0:0:
119,117,40477,2,0,B|143:113|172:117|172:117|185:94|218:73,2,100.799996923828,6|10|14,0:0|0:3|0:3,0:0:0:0:
43,184,41602,6,0,B|17:237|44:301|44:301|83:323|133:301,1,201.599993847656,6|2,0:0|0:0,0:0:0:0:
173,293,42539,1,8,0:3:0:0:
173,293,42727,2,0,P|222:279|272:292,1,100.799996923828,2|2,3:2|0:0,0:0:0:0:
352,347,43477,1,2,0:0:0:0:
437,293,43852,2,0,L|445:179,2,100.799996923828,4|2|8,0:3|0:0|0:3,0:0:0:0:
408,335,44789,1,8,0:3:0:0:
408,335,44977,2,0,P|360:319|308:323,1,100.799996923828,2|2,3:2|0:0,0:0:0:0:
215,356,45727,1,2,0:0:0:0:
126,306,46102,6,0,B|102:266|127:209|127:209|171:190|190:135,1,201.599993847656,4|2,0:3|0:0,0:0:0:0:
242,48,47227,1,2,3:2:0:0:
242,48,47414,2,0,P|290:37|340:46,1,100.799996923828,8|8,0:3|0:3,0:0:0:0:
408,129,48164,1,8,0:3:0:0:
408,129,48352,2,0,L|411:244,1,100.799996923828,10|8,0:1|0:3,0:0:0:0:
358,316,49102,1,10,0:3:0:0:
358,316,49289,2,0,B|332:311|305:316|305:316|275:308|259:272,1,100.799996923828,4|4,3:1|3:1,0:0:0:0:
80,79,50602,5,4,1:2:0:0:
80,79,50789,2,0,P|133:88|192:43,1,112,2|2,1:2|3:2,0:0:0:0:
283,105,51539,1,2,1:2:0:0:
283,105,51727,2,0,P|336:96|395:141,1,112,10|2,0:1|0:0,0:0:0:0:
427,227,52477,1,2,3:2:0:0:
355,313,52852,5,4,1:2:0:0:
355,313,53039,2,0,B|239:300,1,112,2|8,1:2|2:3,0:0:0:0:
149,359,53789,1,2,1:2:0:0:
149,359,53977,2,0,L|141:243,1,112,10|2,0:1|0:0,0:0:0:0:
194,148,54727,1,2,3:2:0:0:
296,193,55102,5,4,1:2:0:0:
296,193,55289,2,0,P|345:199|417:164,1,112,0|8,1:0|0:3,0:0:0:0:
415,69,56039,1,2,1:2:0:0:
415,69,56227,2,0,P|366:42|311:42,1,112,10|2,0:1|0:0,0:0:0:0:
218,104,56977,1,2,3:2:0:0:
115,58,57352,5,4,1:2:0:0:
40,142,57727,1,2,3:2:0:0:
40,142,57914,1,8,0:3:0:0:
97,240,58289,1,2,2:0:0:0:
97,240,58477,2,0,L|218:225,1,112,10|8,1:0|0:1,0:0:0:0:
289,303,59227,1,10,0:1:0:0:
388,248,59602,5,4,1:2:0:0:
388,248,59789,2,0,L|391:118,1,112,2|2,1:2|3:2,0:0:0:0:
454,43,60539,1,2,1:1:0:0:
453,43,60727,2,0,P|399:56|348:35,1,112,10|2,0:1|0:0,0:0:0:0:
250,90,61477,1,2,3:2:0:0:
151,49,61852,5,4,1:2:0:0:
151,49,62039,2,0,P|99:28|46:41,1,112,2|2,1:2|3:2,0:0:0:0:
2,145,62789,1,2,1:1:0:0:
2,145,62977,2,0,L|7:261,1,112,10|2,0:1|0:0,0:0:0:0:
68,350,63727,1,2,3:2:0:0:
149,273,64102,5,4,2:2:0:0:
149,273,64289,2,0,P|196:259|273:281,1,112,0|8,1:0|2:3,0:0:0:0:
286,319,64852,2,0,P|333:333|410:311,1,112,2|10,0:0|0:1,0:0:0:0:
448,223,65602,2,0,L|454:105,1,112,2|2,0:0|3:2,0:0:0:0:
382,24,66352,5,4,1:2:0:0:
278,64,66727,1,2,0:0:0:0:
283,175,67102,1,2,0:0:0:0:
390,204,67477,2,0,L|511:197,2,112,10|10|10,0:1|0:1|0:1,0:0:0:0:
298,150,68602,6,0,P|248:132|176:134,1,106.399997158814,4|2,1:2|0:0,0:0:0:0:
119,205,69352,1,2,0:0:0:0:
166,300,69727,2,0,P|216:318|288:316,1,106.399997158814,10|2,0:1|0:0,0:0:0:0:
348,248,70477,1,2,3:1:0:0:
413,163,70852,2,0,L|409:47,2,106.399997158814,4|2|2,1:2|0:0|0:0,0:0:0:0:
348,248,71977,2,0,P|296:232|237:239,1,106.399997158814,10|2,0:1|0:0,0:0:0:0:
157,296,72727,1,2,3:2:0:0:
79,222,73102,6,0,L|66:116,1,106.399997158814,4|2,1:2|0:0,0:0:0:0:
117,22,73852,1,2,0:0:0:0:
199,89,74227,2,0,P|251:98|303:90,1,106.399997158814,10|2,0:1|1:0,0:0:0:0:
386,23,74977,1,2,3:2:0:0:
458,100,75352,2,0,L|474:205,1,106.399997158814,4|2,1:2|3:2,0:0:0:0:
494,309,76102,1,2,0:0:0:0:
393,274,76477,1,6,0:0:0:0:
256,192,76664,12,0,78727,0:0:0:0:
186,134,80977,5,2,0:0:0:0:
440,300,83227,5,2,0:0:0:0:
256,192,86602,12,6,90727,0:3:0:0:
