osu file format v14

[General]
AudioFilename: audio.mp3
AudioLeadIn: 0
PreviewTime: 727
Countdown: 0
SampleSet: Soft
StackLeniency: 0.4
Mode: 0
LetterboxInBreaks: 0
WidescreenStoryboard: 0

[Editor]
Bookmarks: 10102
DistanceSpacing: 1.2
BeatDivisor: 2
GridSize: 16
TimelineZoom: 1.100001

[Metadata]
Title:Natsuiro Ramune
TitleUnicode:夏色ラムネ
Artist:solfa feat. Shimotsuki Haruka
ArtistUnicode:solfa feat.霜月はるか
Creator:Lasse
Version:Asaiga's Easy
Source:夏色ラムネ
Tags:eroge visual novel opening carol works short version bariton asaiga
BeatmapID:1507405
BeatmapSetID:710897

[Difficulty]
HPDrainRate:3.2
CircleSize:3.2
OverallDifficulty:3.2
ApproachRate:3.2
SliderMultiplier:0.8
SliderTickRate:1

[Events]
//Background and Video events
0,0,"eg_b01_05.jpg",0,0
//Break Periods
//Storyboard Layer 0 (Background)
//Storyboard Layer 1 (Fail)
//Storyboard Layer 2 (Pass)
//Storyboard Layer 3 (Foreground)
//Storyboard Sound Samples

[TimingPoints]
1102,375,6,2,2,34,1,0
3352,-100,6,2,2,36,0,0
5602,-100,6,2,2,38,0,0
7852,-100,6,2,2,40,0,0
9914,-100,6,2,2,30,0,0
10102,-100,6,2,75,50,0,0
30352,-100,6,2,75,52,0,0
30539,-100,6,2,76,52,0,0
30914,-100,6,2,75,54,0,0
31102,-100,6,2,76,54,0,0
31477,-100,6,2,75,56,0,0
31665,-100,6,2,76,56,0,0
31852,-100,6,2,76,58,0,0
32414,-100,6,2,75,30,0,0
32602,-100,6,2,62,56,0,0
40102,-100,6,2,76,56,0,0
40289,-100,6,2,75,56,0,0
40477,-100,6,2,76,56,0,0
40852,-100,6,2,75,56,0,0
41039,-100,6,2,62,56,0,0
41227,-100,6,2,76,56,0,0
41602,-100,6,2,62,58,0,0
48352,-100,6,2,75,58,0,0
48727,-100,6,2,76,58,0,0
48914,-100,6,2,62,58,0,0
49102,-100,6,2,76,58,0,0
49289,-100,6,2,62,60,0,0
49570,-100,6,2,62,5,0,0
49664,-100,6,2,62,60,0,0
49852,-100,6,2,76,50,0,0
50602,-100,6,2,62,64,0,1
58852,-100,6,2,62,66,0,1
59227,-100,6,2,62,68,0,0
59602,-100,6,2,62,64,0,1
64852,-100,6,2,62,65,0,1
65602,-100,6,2,62,66,0,1
66352,-100,6,2,62,67,0,1
67102,-100,6,2,62,68,0,1
67852,-100,6,2,62,70,0,1
68039,-100,6,2,62,71,0,1
68227,-100,6,2,62,72,0,1
68414,-100,6,2,62,73,0,1
68602,-100,6,2,62,62,0,0
76570,-100,6,2,62,20,0,0
78727,-100,6,2,2,30,0,0
86602,674.157303370787,6,2,2,28,1,0
86770,701.754385964912,6,2,2,26,1,8
86945,882.352941176471,6,2,2,24,1,8
87165,-100,6,2,2,22,0,8
87386,1612.90322580645,6,2,2,20,1,8
87789,1754.38596491228,6,2,2,18,1,8
88666,2090.59233449477,6,2,2,16,1,8
89711,2033.89830508475,6,2,2,14,1,8
90727,-100,6,2,2,12,0,8

[Colours]
Combo1 : 250,190,230
Combo2 : 130,200,230
Combo3 : 255,230,140
Combo4 : 170,245,170

[HitObjects]
168,96,1102,6,0,B|248:192|160:168|256:272|256:272|352:168|264:192|344:96,1,400,2|0,0:0|0:0,0:0:0:0:
428,59,3352,2,0,B|426:117|408:177|408:177|439:208|447:254|447:254|432:291|438:337|438:337|395:370|331:358,1,400,2|0,0:0|0:0,0:0:0:0:
243,330,5602,2,0,B|187:319|129:356|129:356|109:299|53:266|53:266|111:224|114:167|114:167|138:181|185:182,1,400,2|0,0:0|0:0,0:0:0:0:
230,232,7852,2,0,B|311:217|276:278|322:331|426:331|472:282|472:185|426:143|349:143,1,400,0|12,0:0|0:3,0:0:0:0:
288,76,10102,6,0,P|211:53|135:75,1,160,6|0,0:2|0:0,0:0:0:0:
49,118,11227,2,0,P|41:85|51:27,2,80,8|8|8,0:3|0:3|0:0,0:0:0:0:
80,208,12352,2,0,P|156:230|232:208,1,160,8|8,0:3|0:3,0:0:0:0:
321,173,13477,2,0,P|326:212|318:251,2,80,8|8|8,0:3|0:3|0:0,0:0:0:0:
301,78,14602,6,0,B|380:67|380:67|426:82,2,120,2|8|8,0:3|0:3|0:3,0:0:0:0:
228,141,16102,1,8,0:3:0:0:
211,46,16477,1,8,0:0:0:0:
138,109,16852,2,0,L|51:97,1,80,8|8,0:3|0:3,0:0:0:0:
5,178,17602,1,8,0:3:0:0:
50,262,17977,2,0,L|230:237,1,160,8|8,0:3|0:0,0:0:0:0:
270,312,19102,6,0,P|345:335|434:301,1,160,6|0,0:2|0:0,0:0:0:0:
478,234,20227,2,0,P|488:195|481:146,2,80,8|8|8,0:3|0:3|0:0,0:0:0:0:
393,188,21352,2,0,P|319:162|232:197,1,160,8|8,0:3|0:3,0:0:0:0:
165,242,22477,2,0,P|150:205|152:161,2,80,8|10|2,0:3|0:3|0:3,0:0:0:0:
218,321,23602,6,0,L|336:303,1,120,2|8,0:3|0:3,0:0:0:0:
430,322,24539,2,0,L|412:203,1,120,8|8,0:3|0:3,0:0:0:0:
442,111,25477,1,10,0:0:0:0:
348,129,25852,2,0,L|229:146,1,120,8|8,0:3|0:3,0:0:0:0:
136,121,26789,2,0,L|153:239,1,120,2|8,0:3|0:3,0:0:0:0:
126,331,27727,1,8,0:0:0:0:
256,192,28102,12,8,30352,0:1:0:0:
138,294,32602,6,0,P|214:307|279:253,1,160,6|2,0:0|0:0,0:0:0:0:
191,212,33727,2,0,L|200:132,1,80,2|2,3:2|0:0,0:0:0:0:
165,42,34477,1,2,0:0:0:0:
260,55,34852,2,0,P|337:40|399:88,1,160,4|8,0:3|0:3,0:0:0:0:
416,182,35977,1,2,3:2:0:0:
325,214,36352,2,0,L|315:135,1,80,2|2,0:0|0:0,0:0:0:0:
223,164,37102,6,0,P|158:204|74:170,1,160,4|2,0:3|0:0,0:0:0:0:
26,102,38227,2,0,L|33:0,2,80,2|2|2,3:2|0:0|0:0,0:0:0:0:
83,179,39352,1,4,0:3:0:0:
37,263,39727,2,0,P|84:324|166:313,1,160,2|6,0:0|0:0,0:0:0:0:
470,344,41602,6,0,P|394:357|329:303,1,160,6|2,0:0|0:0,0:0:0:0:
417,262,42727,2,0,L|408:182,1,80,2|2,3:2|0:0,0:0:0:0:
483,122,43477,1,2,0:0:0:0:
397,78,43852,2,0,P|322:53|253:99,1,160,4|8,0:3|0:3,0:0:0:0:
212,178,44977,1,2,3:2:0:0:
148,106,45352,2,0,L|61:113,1,80,2|2,0:0|0:0,0:0:0:0:
18,194,46102,1,4,0:3:0:0:
206,232,46852,6,0,L|208:351,1,120,2|8,0:0|0:3,0:0:0:0:
296,314,47789,2,0,L|293:175,1,120,8|10,0:3|0:1,0:0:0:0:
93,60,49289,1,4,3:1:0:0:
62,151,49664,1,4,3:1:0:0:
286,237,50602,6,0,L|405:226,1,120,4|2,1:2|3:2,0:0:0:0:
507,124,51727,1,10,0:1:0:0:
420,82,52102,2,0,P|381:76|330:87,1,80,2|2,0:0|3:2,0:0:0:0:
263,138,52852,2,0,P|188:164|103:135,1,160,4|0,1:2|0:0,0:0:0:0:
29,189,53977,2,0,L|38:284,1,80,10|2,0:1|0:0,0:0:0:0:
4,359,54727,1,2,3:2:0:0:
99,346,55102,6,0,P|170:315|246:340,1,160,4|0,1:2|0:0,0:0:0:0:
319,278,56227,2,0,L|330:179,1,80,10|2,0:1|0:0,0:0:0:0:
402,138,56977,1,2,3:2:0:0:
347,58,57352,1,4,1:2:0:0:
273,119,57727,2,0,L|178:106,1,80,2|0,3:2|0:0,0:0:0:0:
129,36,58477,2,0,P|98:94|137:187,1,160,10|10,1:0|0:1,0:0:0:0:
196,245,59602,6,0,L|334:226,1,120,4|2,1:2|3:2,0:0:0:0:
457,204,60727,1,10,0:1:0:0:
495,291,61102,2,0,P|456:297|405:286,1,80,2|2,0:0|3:2,0:0:0:0:
343,352,61852,2,0,P|268:326|183:355,1,160,4|0,1:2|0:0,0:0:0:0:
114,291,62977,2,0,L|121:211,1,80,10|2,0:1|0:0,0:0:0:0:
57,139,63727,1,2,3:2:0:0:
149,115,64102,6,0,P|220:84|296:109,1,160,4|2,2:2|0:0,0:0:0:0:
351,186,65227,2,0,L|438:178,1,80,10|2,0:1|0:0,0:0:0:0:
397,268,65977,1,2,3:2:0:0:
301,266,66352,1,4,1:2:0:0:
246,345,66727,2,0,L|152:335,1,80,2|2,0:0|0:0,0:0:0:0:
95,271,67477,2,0,L|102:191,2,80,10|10|10,0:1|0:1|0:1,0:0:0:0:
166,336,68602,6,0,B|337:332,1,160,4|2,1:2|0:0,0:0:0:0:
397,268,69727,2,0,P|396:226|389:180,1,80,10|2,0:1|0:0,0:0:0:0:
371,94,70477,1,2,3:1:0:0:
288,142,70852,2,0,P|212:124|151:175,1,160,4|2,1:2|0:0,0:0:0:0:
94,248,71977,2,0,L|104:342,1,80,10|2,0:1|0:0,0:0:0:0:
189,367,72727,1,2,3:2:0:0:
263,306,73102,6,0,P|303:299|365:301,1,80,4|2,1:2|0:0,0:0:0:0:
435,321,73852,1,2,0:0:0:0:
417,226,74227,2,0,P|412:184|416:131,1,80,10|2,0:1|1:0,0:0:0:0:
438,53,74977,1,2,3:2:0:0:
343,68,75352,2,0,B|298:78|270:100|270:100|242:78|188:69,1,160,4|2,1:2|0:0,0:0:0:0:
102,51,76477,6,0,B|94:97|113:129|113:129|34:125|34:125|25:205|25:205|105:211|105:211|121:251|164:271,1,400,6|0,0:0|0:0,0:0:0:0:
218,193,78727,2,0,B|274:238|256:310|227:335|227:335|305:317|380:358|380:358|364:321|375:267,1,400,2|0,0:0|0:0,0:0:0:0:
412,190,80977,2,0,B|448:113|423:34|423:34|358:43|337:107|337:107|285:73|207:98,1,400,2|0,0:0|0:0,0:0:0:0:
135,137,83227,2,0,B|87:149|56:138|56:138|19:211|31:294|31:294|71:283|104:263|104:263|117:299|163:312|163:312|172:262,1,440,2|0,0:0|0:0,0:0:0:0:
256,192,86602,12,6,90727,0:3:0:0:
