osu file format v14

[General]
AudioFilename: audio.mp3
AudioLeadIn: 0
PreviewTime: 727
Countdown: 0
SampleSet: Soft
StackLeniency: 0.4
Mode: 0
LetterboxInBreaks: 0
WidescreenStoryboard: 1

[Editor]
DistanceSpacing: 1.6
BeatDivisor: 4
GridSize: 32
TimelineZoom: 1.400001

[Metadata]
Title:Natsuiro Ramune
TitleUnicode:夏色ラムネ
Artist:solfa feat. Shimotsuki Haruka
ArtistUnicode:solfa feat.霜月はるか
Creator:Lasse
Version:Expert
Source:夏色ラムネ
Tags:eroge visual novel opening carol works short version bariton asaiga
BeatmapID:1502770
BeatmapSetID:710897

[Difficulty]
HPDrainRate:6
CircleSize:4
OverallDifficulty:8
ApproachRate:8.2
SliderMultiplier:1.6
SliderTickRate:1

[Events]
//Background and Video events
0,0,"eg_b01_01.jpg",0,0
//Break Periods
2,78927,80257
2,81177,82507
2,83427,85882
//Storyboard Layer 0 (Background)
//Storyboard Layer 1 (Fail)
//Storyboard Layer 2 (Pass)
//Storyboard Layer 3 (Foreground)
//Storyboard Sound Samples

[TimingPoints]
1102,375,6,2,2,34,1,0
1102,-200,6,2,2,34,0,0
3352,-200,6,2,2,36,0,0
5602,-200,6,2,2,38,0,0
7852,-200,6,2,2,40,0,0
9727,-250,6,2,2,40,0,0
9914,-250,6,2,2,30,0,0
10102,-166.666666666667,6,2,75,50,0,0
19102,-142.857142857143,6,2,75,50,0,0
30352,-142.857142857143,6,2,75,52,0,0
30539,-142.857142857143,6,2,76,52,0,0
30914,-142.857142857143,6,2,75,54,0,0
31102,-142.857142857143,6,2,76,54,0,0
31477,-142.857142857143,6,2,75,56,0,0
31665,-142.857142857143,6,2,76,56,0,0
31852,-142.857142857143,6,2,76,58,0,0
32227,-200,6,2,76,58,0,0
32414,-142.857142857143,6,2,75,30,0,0
32602,-125,6,2,62,56,0,0
40102,-125,6,2,76,56,0,0
40289,-125,6,2,75,56,0,0
40477,-125,6,2,76,56,0,0
40852,-125,6,2,75,56,0,0
41039,-125,6,2,62,56,0,0
41227,-125,6,2,76,56,0,0
41602,-111.111111111111,6,2,62,58,0,0
48352,-111.111111111111,6,2,75,58,0,0
48727,-111.111111111111,6,2,76,58,0,0
48914,-111.111111111111,6,2,62,58,0,0
49102,-111.111111111111,6,2,76,58,0,0
49289,-62.5,6,2,62,60,0,0
49570,-62.5,6,2,62,5,0,0
49664,-41.6666666666667,6,2,62,60,0,0
49852,-41.6666666666667,6,2,76,50,0,0
50602,-100,6,2,62,64,0,1
58852,-100,6,2,62,66,0,1
59227,-100,6,2,62,68,0,0
59602,-100,6,2,62,64,0,1
64852,-90.9090909090909,6,2,62,65,0,1
65602,-90.9090909090909,6,2,62,66,0,1
66352,-90.9090909090909,6,2,62,67,0,1
67102,-90.9090909090909,6,2,62,68,0,1
67852,-90.9090909090909,6,2,62,70,0,1
68039,-90.9090909090909,6,2,62,71,0,1
68227,-90.9090909090909,6,2,62,72,0,1
68414,-90.9090909090909,6,2,62,73,0,1
68602,-105.263157894737,6,2,62,62,0,0
76477,-100,6,2,62,62,0,0
76570,-100,6,2,62,20,0,0
78727,-100,6,2,2,30,0,0
86602,674.157303370787,6,2,2,28,1,0
86602,-142.857142857143,6,2,2,28,0,0
86770,701.754385964912,6,2,2,26,1,8
86945,882.352941176471,6,2,2,24,1,8
86945,-111.111111111111,6,2,2,24,0,8
87165,-111.111111111111,6,2,2,22,0,8
87386,1612.90322580645,6,2,2,20,1,8
87789,1754.38596491228,6,2,2,18,1,8
88666,2090.59233449477,6,2,2,16,1,8
89711,2033.89830508475,6,2,2,14,1,8
90727,-100,6,2,2,12,0,8

[Colours]
Combo1 : 250,190,230
Combo2 : 130,200,230
Combo3 : 255,230,140
Combo4 : 170,245,170

[HitObjects]
92,60,1102,6,0,P|95:77|96:99,1,40,2|0,0:0|0:0,0:0:0:0:
134,88,1477,2,0,P|128:104|117:123,1,40
156,134,1852,2,0,P|142:144|123:155,1,40
152,184,2227,2,0,P|135:186|113:186,1,40
122,224,2602,2,0,P|104:217|87:207,1,40
76,244,2977,2,0,P|63:228|54:210,1,40
58,214,3258,1,0,0:0:0:0:
62,218,3352,6,0,P|78:223|97:234,1,40,2|0,0:0|0:0,0:0:0:0:
107,196,3727,2,0,P|117:209|128:228,1,40
157,199,4102,2,0,P|158:216|158:238,1,40
199,228,4477,2,0,P|192:243|181:262,1,40
219,274,4852,2,0,P|203:286|186:295,1,40
213,324,5227,2,0,P|192:327|172:326,1,40
178,330,5508,1,0,0:0:0:0:
182,334,5602,6,0,P|194:322|213:311,1,40,2|0,0:0|0:0,0:0:0:0:
186,284,5977,2,0,P|202:281|224:281,1,40
213,242,6352,2,0,P|228:249|247:260,1,40
259,220,6727,2,0,P|268:233|279:252,1,40
309,226,7102,2,0,P|311:245|310:265,1,40
350,256,7477,2,0,P|342:275|331:292,1,40
331,291,7852,6,0,P|330:273|336:252,1,40
297,252,8227,2,0,P|305:237|321:222,1,40
287,203,8602,2,0,P|302:196|323:190,1,40
304,155,8977,2,0,P|319:156|340:162,1,40
343,124,9352,2,0,P|357:135|371:150,1,40
376,155,9633,1,0,0:0:0:0:
380,159,9727,6,0,P|373:175|373:196,1,32,12|0,0:3|0:0,0:0:0:0:
440,311,10102,5,6,0:2:0:0:
359,341,10289,2,0,P|317:318|270:324,1,95.9999970703126,8|8,0:3|0:3,0:0:0:0:
270,324,11039,1,8,0:3:0:0:
203,268,11227,2,0,L|195:167,1,95.9999970703126,8|8,0:3|0:3,0:0:0:0:
195,172,11789,1,8,0:3:0:0:
130,113,11977,1,8,0:0:0:0:
51,148,12164,1,10,0:2:0:0:
130,113,12352,6,0,L|138:10,2,95.9999970703126,8|8|8,0:3|0:3|0:3,0:0:0:0:
130,113,13477,1,8,0:3:0:0:
194,170,13664,1,8,0:3:0:0:
264,119,13852,2,0,P|308:102|355:109,1,95.9999970703126,8|8,0:3|0:0,0:0:0:0:
482,302,14602,5,2,0:3:0:0:
444,224,14789,2,0,P|400:203|349:207,1,95.9999970703126,8|8,0:3|0:3,0:0:0:0:
354,205,15539,1,8,0:3:0:0:
290,264,15727,2,0,L|281:371,1,95.9999970703126,8|8,0:3|0:3,0:0:0:0:
281,359,16289,1,8,0:3:0:0:
360,318,16477,1,8,0:0:0:0:
290,264,16664,1,10,0:2:0:0:
360,318,16852,6,0,P|408:330|464:308,1,95.9999970703126,8|8,0:3|0:3,0:0:0:0:
495,242,17414,1,8,0:3:0:0:
448,169,17602,2,0,L|442:66,1,95.9999970703126,8|8,0:3|0:3,0:0:0:0:
375,18,18164,1,8,0:3:0:0:
361,103,18352,1,8,0:3:0:0:
361,103,18539,1,8,0:3:0:0:
294,47,18727,1,8,0:0:0:0:
294,47,19102,5,6,0:2:0:0:
208,88,19289,2,0,P|150:99|103:79,1,111.999996582031,8|8,0:3|0:3,0:0:0:0:
103,79,20039,1,8,0:3:0:0:
164,152,20227,2,0,L|170:270,1,111.999996582031,8|8,0:3|0:3,0:0:0:0:
169,263,20789,1,8,0:3:0:0:
129,349,20977,1,8,0:0:0:0:
34,339,21164,1,10,0:0:0:0:
129,349,21352,6,0,P|187:343|244:356,2,111.999996582031,8|8|8,0:3|0:3|0:3,0:0:0:0:
129,349,22477,1,8,0:3:0:0:
34,339,22664,1,8,0:3:0:0:
89,259,22852,2,0,L|146:247,1,37.3333321940105,10|0,0:3|0:0,0:0:0:0:
177,259,23102,1,2,0:0:0:0:
203,304,23227,2,0,L|217:376,1,55.9999982910157,2|2,0:3|0:0,0:0:0:0:
306,379,23602,5,2,0:3:0:0:
382,322,23789,2,0,B|404:309|434:317|434:317|468:317|482:284,1,111.999996582031,8|8,0:3|0:3,0:0:0:0:
491,192,24352,2,0,L|472:126,1,55.9999982910157,2|8,0:3|0:3,0:3:0:0:
381,119,24727,2,0,P|322:121|258:98,1,111.999996582031,2|8,0:0|0:3,0:0:0:0:
272,106,25477,1,10,0:0:0:0:
198,43,25664,1,10,0:0:0:0:
272,106,25852,6,0,L|265:218,1,111.999996582031,8|8,0:3|0:3,0:0:0:0:
296,307,26414,1,8,0:3:0:0:
359,235,26602,2,0,P|391:228|430:232,1,55.9999982910157,2|0,0:0|0:3,0:0:0:0:
505,257,26977,1,8,0:3:0:0:
490,167,27164,1,8,0:3:0:0:
414,229,27352,2,0,L|410:289,1,55.9999982910157,8|0,0:3|0:0,0:0:0:0:
326,329,27727,1,8,0:0:0:0:
251,270,27914,1,8,0:2:0:0:
163,338,28102,6,0,L|156:218,1,111.999996582031,2|8,0:3|0:3,0:0:0:0:
156,226,28664,1,8,0:3:0:0:
103,153,28852,2,0,P|67:146|24:149,1,55.9999982910157,2|0,0:0|0:0,0:0:0:0:
160,230,29227,2,0,P|196:223|239:226,1,55.9999982910157,2|0,0:0|0:0,0:0:0:0:
332,111,29602,5,8,0:3:0:0:
364,200,29789,1,8,0:3:0:0:
335,60,29977,5,8,0:0:0:0:
424,129,30164,1,8,0:3:0:0:
311,15,30352,5,8,0:1:0:0:
282,230,30539,1,8,0:3:0:0:
335,60,30914,5,8,0:1:0:0:
282,230,31101,1,8,0:3:0:0:
350,316,31289,1,8,0:3:0:0:
332,111,31477,5,8,0:1:0:0:
282,230,31664,1,8,0:3:0:0:
220,91,31852,5,12,0:3:0:0:
282,230,32039,1,8,0:3:0:0:
152,215,32227,6,0,L|106:207,1,40,4|0,3:2|0:0,0:0:0:0:
17,318,32602,6,0,L|5:169,1,128,6|2,0:0|0:0,0:0:0:0:
64,96,33164,1,2,0:3:0:0:
161,129,33352,2,0,L|248:115,1,64,2|8,0:0|0:3,0:0:0:0:
345,108,33727,2,0,P|288:96|218:123,1,128,2|2,3:2|0:0,0:0:0:0:
224,118,34289,1,10,0:3:0:0:
345,108,34477,2,0,L|348:31,1,64,2|0,0:0|0:0,0:0:0:0:
339,230,34852,6,0,B|347:199|332:172|332:172|323:133|346:106,1,128,4|2,0:3|0:0,0:0:0:0:
437,63,35414,1,2,0:3:0:0:
494,148,35602,1,8,0:3:0:0:
494,148,35789,1,8,0:3:0:0:
345,108,35977,2,0,L|217:96,1,128,2|2,3:2|0:0,0:0:0:0:
217,96,36539,1,10,0:3:0:0:
135,158,36727,1,2,0:0:0:0:
128,56,36914,1,2,0:0:0:0:
135,158,37102,6,0,L|131:285,1,128,4|2,0:3|0:0,0:0:0:0:
193,367,37664,1,2,0:3:0:0:
282,317,37852,2,0,P|312:307|344:309,1,64,2|8,0:0|0:3,0:0:0:0:
465,320,38227,2,0,P|408:332|338:305,1,128,2|2,3:2|0:0,0:0:0:0:
344,309,38789,1,10,0:3:0:0:
318,209,38977,2,0,L|321:132,1,64,2|0,0:0|0:0,0:0:0:0:
327,23,39352,6,0,B|319:54|334:81|334:81|343:120|321:145,1,128,4|2,0:3|0:0,0:0:0:0:
229,201,39914,1,2,0:3:0:0:
220,44,40102,5,10,0:3:0:0:
320,145,40289,1,10,0:1:0:0:
152,132,40477,5,6,0:0:0:0:
130,233,40664,1,10,0:3:0:0:
220,44,40852,5,10,0:3:0:0:
229,201,41039,1,10,0:3:0:0:
320,145,41227,5,14,0:3:0:0:
152,132,41414,1,10,0:3:0:0:
320,145,41602,6,0,P|392:134|479:138,1,143.999995605469,6|2,0:0|0:0,0:0:0:0:
487,255,42164,1,2,0:3:0:0:
390,159,42352,2,0,P|362:150|303:145,1,71.9999978027344,2|8,0:0|0:3,0:0:0:0:
177,154,42727,2,0,P|248:156|319:145,1,143.999995605469,2|2,3:2|0:0,0:0:0:0:
319,144,43289,1,10,0:3:0:0:
223,66,43477,2,0,P|184:59|127:58,1,71.9999978027344,2|0,0:0|0:0,0:0:0:0:
135,65,43758,1,2,0:2:0:0:
123,79,43852,6,0,B|109:114|121:150|121:150|124:189|89:217,1,143.999995605469,4|2,0:3|0:0,0:0:0:0:
0,291,44414,1,2,0:3:0:0:
115,333,44602,1,8,0:3:0:0:
115,333,44789,1,8,0:3:0:0:
93,213,44977,2,0,L|85:62,1,143.999995605469,2|2,3:2|0:0,0:0:0:0:
85,69,45539,1,10,0:3:0:0:
200,140,45727,1,2,0:0:0:0:
93,213,45914,1,2,0:0:0:0:
200,140,46102,6,0,P|272:127|350:132,1,143.999995605469,4|2,0:3|0:0,0:0:0:0:
446,195,46664,1,2,0:3:0:0:
504,87,46852,2,0,L|508:15,1,71.9999978027344,2|8,0:0|0:3,0:0:0:0:
446,195,47227,5,2,3:2:0:0:
342,130,47414,2,0,P|308:120|248:130,1,71.9999978027344,8|2,0:3|0:0,0:0:0:0:
446,195,47789,2,0,P|480:205|540:195,1,71.9999978027344,10|2,0:3|0:0,0:0:0:0:
338,253,48164,1,8,0:3:0:0:
359,39,48352,5,10,0:1:0:0:
446,195,48539,1,8,0:1:0:0:
438,99,48727,5,8,0:3:0:0:
338,253,48914,1,10,0:3:0:0:
256,90,49102,1,10,0:3:0:0:
119,226,49289,6,0,B|89:230|70:259|70:259|25:275|-20:234|1:179,1,192,4|0,3:1|0:0,0:0:0:0:
91,72,49664,6,0,B|121:75|140:104|140:104|185:120|230:79|209:24,1,192,4|2,3:1|0:1,0:0:0:0:
211,28,50602,5,4,1:2:0:0:
365,62,50789,2,0,P|404:59|445:47,1,80,2|0,1:2|0:0,0:0:0:0:
284,258,51164,2,0,P|300:181|273:107,1,160,2|2,3:2|1:2,0:0:0:0:
207,317,51727,6,0,P|167:313|129:300,1,80,10|8,0:1|0:3,0:0:0:0:
310,175,52102,2,0,P|349:162|389:160,1,80,2|8,0:0|0:3,0:0:0:0:
512,287,52477,5,2,3:2:0:0:
395,168,52664,1,2,2:0:0:0:
395,168,52758,1,2,2:0:0:0:
395,168,52852,1,4,1:2:0:0:
286,302,53039,2,0,B|208:276|208:327|130:302,1,160,2|8,1:2|2:3,0:0:0:0:
130,302,53789,5,2,1:2:0:0:
32,159,53977,2,0,L|20:60,1,80,10|8,0:1|2:3,0:0:0:0:
130,302,54352,2,0,L|142:401,1,80,2|8,0:0|0:3,0:0:0:0:
32,159,54727,5,2,3:2:0:0:
130,302,54914,1,2,1:2:0:0:
245,121,55102,5,4,1:2:0:0:
319,200,55289,2,0,P|246:229|173:201,1,160,0|8,1:0|0:3,0:0:0:0:
173,202,56039,5,2,1:2:0:0:
319,200,56227,2,0,P|361:192|420:201,1,80,10|8,0:1|0:3,0:0:0:0:
224,54,56602,2,0,P|187:46|142:49,1,80,2|8,0:0|0:3,0:0:0:0:
19,184,56977,5,2,3:2:0:0:
145,48,57164,1,2,2:0:0:0:
319,200,57352,6,0,L|405:195,1,80,4|0,1:2|1:0,0:0:0:0:
380,350,57727,1,2,3:2:0:0:
232,236,57914,2,0,P|223:197|234:159,1,80,8|0,0:3|0:0,0:0:0:0:
306,293,58289,1,2,2:0:0:0:
160,101,58477,5,10,1:0:0:0:
234,159,58664,1,8,2:3:0:0:
74,137,58852,5,8,0:1:0:0:
320,122,59039,1,8,0:1:0:0:
85,44,59227,5,10,0:1:0:0:
309,215,59414,1,8,0:1:0:0:
0,80,59602,5,4,1:2:0:0:
160,101,59789,2,0,P|176:66|177:14,1,80,2|0,1:2|0:0,0:0:0:0:
309,215,60164,2,0,P|292:251|291:291,1,80,2|0,3:2|0:0,0:0:0:0:
441,123,60539,5,2,1:1:0:0:
291,291,60727,2,0,P|251:289|213:277,1,80,10|8,0:1|2:3,0:0:0:0:
441,123,61102,2,0,P|484:124|528:141,1,80,2|8,0:0|0:3,0:0:0:0:
295,37,61477,5,2,3:2:0:0:
441,123,61664,1,2,0:0:0:0:
239,156,61852,5,4,1:2:0:0:
441,123,62039,2,0,P|457:88|458:36,1,80,2|0,1:2|0:0,0:0:0:0:
239,156,62414,2,0,P|222:192|221:232,1,80,2|0,3:2|0:0,0:0:0:0:
126,30,62789,5,2,1:1:0:0:
221,232,62977,2,0,P|258:244|298:245,1,80,10|8,0:1|2:3,0:0:0:0:
126,30,63352,2,0,P|88:17|48:17,1,80,2|8,0:0|0:3,0:0:0:0:
0,210,63727,5,2,3:2:0:0:
126,30,63914,1,2,1:2:0:0:
298,245,64102,5,4,2:2:0:0:
386,182,64289,2,0,P|322:137|245:149,1,160,0|8,1:0|2:3,0:0:0:0:
59,124,64852,6,0,L|36:12,1,88.000002685547,2|8,0:0|0:3,0:0:0:0:
59,260,65227,2,0,L|36:372,1,88.000002685547,10|8,0:1|0:3,0:0:0:0:
146,110,65602,6,0,L|138:-4,1,88.000002685547,2|8,0:0|0:3,0:0:0:0:
147,274,65977,2,0,L|139:388,1,88.000002685547,2|0,3:2|0:0,0:0:0:0:
233,96,66352,6,0,L|241:-18,1,88.000002685547,4|0,1:2|1:0,0:0:0:0:
234,283,66727,2,0,L|242:397,1,88.000002685547,2|8,0:0|0:3,0:0:0:0:
320,82,67102,6,0,L|344:-29,1,88.000002685547,2|8,0:0|0:3,0:0:0:0:
320,302,67477,2,0,L|344:413,1,88.000002685547,10|8,0:1|0:3,0:0:0:0:
407,68,67852,5,10,0:1:0:0:
234,283,68039,1,8,0:1:0:0:
233,96,68227,5,10,0:1:0:0:
406,321,68414,1,8,0:1:0:0:
512,192,68602,5,4,1:2:0:0:
512,192,68789,1,0,1:0:0:0:
370,229,68977,2,0,L|282:215,1,75.9999979705811,2|8,0:0|2:3,0:0:0:0:
512,192,69352,5,2,0:0:0:0:
294,217,69539,1,2,1:0:0:0:
512,192,69727,2,0,L|523:89,1,75.9999979705811,10|8,0:1|0:3,0:0:0:0:
294,217,70102,2,0,L|264:116,1,75.9999979705811,2|8,0:0|0:3,0:0:0:0:
125,69,70477,5,2,3:1:0:0:
272,144,70664,1,2,1:2:0:0:
142,244,70852,6,0,P|103:246|52:227,1,75.9999979705811,4|0,1:2|1:1,0:0:0:0:
272,144,71227,2,0,P|309:142|346:153,1,75.9999979705811,2|8,0:0|2:3,0:0:0:0:
478,281,71602,5,2,0:0:0:0:
346,153,71789,1,2,1:0:0:0:
375,255,71977,5,10,0:1:0:0:
449,178,72164,1,8,0:3:0:0:
478,281,72352,2,0,L|485:366,1,75.9999979705811,2|0,0:0|1:0,0:0:0:0:
421,76,72727,5,2,3:2:0:0:
375,255,72914,1,2,0:0:0:0:
317,49,73102,5,4,1:2:0:0:
449,178,73289,1,2,1:2:0:0:
317,49,73477,2,0,L|232:41,1,75.9999979705811,2|8,0:0|2:3,0:0:0:0:
449,178,73852,5,2,0:0:0:0:
317,49,74039,1,2,1:0:0:0:
272,228,74227,5,10,0:1:0:0:
346,152,74414,1,8,0:3:0:0:
375,255,74602,5,2,1:0:0:0:
243,125,74789,1,8,0:1:0:0:
198,304,74977,5,2,3:2:0:0:
317,49,75164,1,2,1:2:0:0:
404,358,75352,6,0,P|443:360|494:341,1,75.9999979705811,4|0,1:2|1:3,0:0:0:0:
169,201,75727,2,0,P|132:190|94:192,1,75.9999979705811,2|0,3:2|1:3,0:0:0:0:
404,358,76102,5,2,0:0:0:0:
317,49,76289,1,2,1:0:0:0:
47,314,76477,5,6,0:0:0:0:
256,192,76570,12,4,78727,0:3:0:0:
117,69,80977,5,2,0:0:0:0:
182,301,83227,5,2,0:0:0:0:
425,261,86602,6,0,L|430:219,1,27.9999991455078,6|0,0:2|0:0,0:0:0:0:
457,203,86945,6,0,L|440:164,1,35.9999989013672
452,129,87386,6,0,L|418:103,1,40
220,68,88666,5,0,0:0:0:0:
113,139,89711,5,0,0:0:0:0:
0,23,90727,5,6,0:3:0:0:
