osu file format v14

[General]
AudioFilename: audio.mp3
AudioLeadIn: 0
PreviewTime: 131308
Countdown: 0
SampleSet: Soft
StackLeniency: 0.5
Mode: 0
LetterboxInBreaks: 0
WidescreenStoryboard: 1

[Editor]
Bookmarks: 32660,67954,96189,107483,131483,176660,221836
DistanceSpacing: 0.4
BeatDivisor: 4
GridSize: 32
TimelineZoom: 1.8

[Metadata]
Title:go ahead!
TitleUnicode:go ahead!
Artist:solfa feat. Shimotsuki Haruka + Chata + Katakiri Rekka
ArtistUnicode:solfa feat. 霜月はるか+茶太+片霧烈火
Creator:ImpurePug
Version:Collab Extra
Source:あいこみゅ!! -IDOL Communication-
Tags:kowari lasse ひよこソフト桃組 hiyoko soft momogumi chronicle ~ dog side works best album twin & and triple vocal best hamotsukin 主題歌 opening eroge japanese pop video game 天ヶ咲 麗 Urara Amagasaki あまがさき うらら iyuna marble sky records
BeatmapID:2291145
BeatmapSetID:1096374

[Difficulty]
HPDrainRate:6
CircleSize:4
OverallDifficulty:8.2
ApproachRate:9
SliderMultiplier:1.92
SliderTickRate:1

[Events]
//Background and Video events
0,0,"thereisnowaywewereintingnope.jpg",0,0
//Break Periods
//Storyboard Layer 0 (Background)
//Storyboard Layer 1 (Fail)
//Storyboard Layer 2 (Pass)
//Storyboard Layer 3 (Foreground)
//Storyboard Layer 4 (Overlay)
//Storyboard Sound Samples

[TimingPoints]
3013,352.941176470588,4,2,1,60,1,0
8660,-100,4,2,1,60,0,0
32660,-133.333333333333,4,2,1,50,0,0
43954,-117.647058823529,4,2,1,55,0,0
63542,-117.647058823529,4,2,1,60,0,0
64601,-100,4,2,1,60,0,0
64954,-100,4,2,1,65,0,0
66718,-181.818181818182,4,2,1,60,0,0
67777,-181.818181818182,4,2,1,5,0,0
67954,-83.3333333333333,4,2,1,70,0,1
70777,-71.4285714285714,4,2,1,70,0,1
70954,-83.3333333333333,4,2,1,70,0,1
72012,-66.6666666666667,4,2,1,70,0,1
73424,-83.3333333333333,4,2,1,70,0,1
77307,-100,4,2,1,70,0,1
77660,-66.6666666666667,4,2,1,70,0,1
79071,-100,4,2,1,70,0,1
79248,-83.3333333333333,4,2,1,70,0,1
82071,-71.4285714285714,4,2,1,70,0,1
82424,-76.9230769230769,4,2,1,70,0,1
83307,-66.6666666666667,4,2,1,70,0,1
84718,-71.4285714285714,4,2,1,70,0,1
85071,-90.9090909090909,4,2,1,70,0,1
87542,-71.4285714285714,4,2,1,70,0,1
88071,-66.6666666666667,4,2,1,70,0,1
88424,-100,4,2,1,70,0,1
88601,-71.4285714285714,4,2,1,70,0,1
88954,-62.5,4,2,1,70,0,1
89483,-58.8235294117647,4,2,1,70,0,1
89836,-100,4,2,1,70,0,1
90012,-66.6666666666667,4,2,1,70,0,1
90365,-55.5555555555556,4,2,1,70,0,1
90718,-100,4,2,1,70,0,1
90895,-83.3333333333333,4,2,1,70,0,1
93365,-83.3333333333333,4,2,1,70,0,0
96189,-133.333333333333,4,2,1,50,0,0
107483,-117.647058823529,4,2,1,55,0,0
127071,-117.647058823529,4,2,1,60,0,0
127954,-142.857142857143,4,2,1,60,0,0
128483,-100,4,2,1,65,0,0
129189,-83.3333333333333,4,2,1,65,0,0
129542,-71.4285714285714,4,2,1,65,0,0
130071,-181.818181818182,4,2,1,65,0,0
130248,-181.818181818182,4,2,1,60,0,0
131307,-181.818181818182,4,2,1,5,0,0
131483,-83.3333333333333,4,2,1,70,0,1
135541,-66.6666666666667,4,2,1,70,0,1
136953,-83.3333333333333,4,2,1,70,0,1
140660,-66.6666666666667,4,2,1,70,0,1
140836,-90.9090909090909,4,2,1,70,0,1
141189,-66.6666666666667,4,2,1,70,0,1
142600,-100,4,2,1,70,0,1
142777,-83.3333333333333,4,2,1,70,0,1
145248,-71.4285714285714,4,2,1,70,0,1
145954,-76.9230769230769,4,2,1,70,0,1
146836,-66.6666666666667,4,2,1,70,0,1
148247,-71.4285714285714,4,2,1,70,0,1
148600,-90.9090909090909,4,2,1,70,0,1
151071,-71.4285714285714,4,2,1,70,0,1
151600,-66.6666666666667,4,2,1,70,0,1
151953,-100,4,2,1,70,0,1
152130,-71.4285714285714,4,2,1,70,0,1
152483,-62.5,4,2,1,70,0,1
153012,-58.8235294117647,4,2,1,70,0,1
153365,-100,4,2,1,70,0,1
153541,-50,4,2,1,70,0,1
153895,-55.5555555555556,4,2,1,70,0,0
155836,-55.5555555555556,4,2,1,40,0,0
156894,-133.333333333333,4,2,1,48,0,0
165365,-90.9090909090909,4,2,1,55,0,0
173660,-76.9230769230769,4,2,1,55,0,0
173836,-66.6666666666667,4,2,1,60,0,0
176660,-66.6666666666667,4,2,1,65,0,0
177189,-76.9230769230769,4,2,1,65,0,0
178601,-66.6666666666667,4,2,1,65,0,0
178954,-100,4,2,1,65,0,0
180895,-76.9230769230769,4,2,1,65,0,0
183012,-83.3333333333333,4,2,1,65,0,0
183718,-71.4285714285714,4,2,1,65,0,0
184424,-66.6666666666667,4,2,1,65,0,0
184689,-76.9230769230769,4,2,1,65,0,0
185130,-66.6666666666667,4,2,1,65,0,0
185483,-76.9230769230769,4,2,1,65,0,0
186189,-71.4285714285714,4,2,1,65,0,0
187954,-200,4,2,1,60,0,0
188307,-200,4,2,2,30,0,0
199248,-166.666666666667,4,2,2,40,0,0
204895,-142.857142857143,4,2,2,50,0,0
205954,-142.857142857143,4,2,1,50,0,0
206307,-142.857142857143,4,2,2,50,0,0
207542,-142.857142857143,4,2,1,50,0,0
208954,-142.857142857143,4,2,1,60,0,0
210012,-200,4,2,1,60,0,0
210365,-133.333333333333,4,2,1,60,0,0
210542,-76.9230769230769,4,2,1,70,0,1
213365,-66.6666666666667,4,2,1,70,0,1
213718,-76.9230769230769,4,2,1,70,0,1
214600,-62.5,4,2,1,70,0,1
216012,-76.9230769230769,4,2,1,70,0,1
219895,-90.9090909090909,4,2,1,70,0,1
220248,-62.5,4,2,1,70,0,1
221660,-100,4,2,1,70,0,1
221836,-71.4285714285714,4,2,1,70,0,1
222101,-76.9230769230769,4,2,1,70,0,1
225895,-62.5,4,2,1,70,0,1
227307,-76.9230769230769,4,2,1,70,0,1
228718,-68.9655172413793,4,2,1,70,0,1
229071,-76.9230769230769,4,2,1,70,0,1
230130,-66.6666666666667,4,2,1,70,0,1
230659,-62.5,4,2,1,70,0,1
231012,-90.9090909090909,4,2,1,70,0,1
231189,-66.6666666666667,4,2,1,70,0,1
231542,-58.8235294117647,4,2,1,70,0,1
232071,-55.5555555555556,4,2,1,70,0,1
232424,-90.9090909090909,4,2,1,70,0,1
232600,-62.5,4,2,1,70,0,1
232953,-52.6315789473684,4,2,1,70,0,1
233306,-90.9090909090909,4,2,1,70,0,1
233483,-76.9230769230769,4,2,1,70,0,1
235954,-90.9090909090909,4,2,1,60,0,0
259777,-80,4,2,1,60,0,0
265601,-80,4,2,1,20,0,0

[Colours]
Combo1 : 255,220,100
Combo2 : 106,98,213
Combo3 : 255,91,215
Combo4 : 91,215,255

[HitObjects]
113,129,8660,5,4,0:1:0:0:
33,176,8836,1,2,0:0:0:0:
117,41,9012,1,2,1:2:0:0:
191,178,9189,2,0,B|211:228|211:228|224:187,1,96,2|8,0:0|0:0,0:0:0:0:
344,33,9542,2,0,L|239:16,1,96,2|0,0:0|1:0,0:0:0:0:
362,164,9895,5,2,3:2:0:0:
365,172,9983,1,0,3:0:0:0:
368,180,10071,1,8,3:2:0:0:
476,152,10248,1,2,0:0:0:0:
405,278,10424,1,2,1:2:0:0:
483,367,10601,2,0,B|488:337|488:337|486:332|486:332|489:330|489:330|500:265,1,96,2|8,0:0|0:0,0:0:0:0:
296,200,10954,2,0,P|338:215|367:180,1,96,2|0,0:0|1:0,0:0:0:0:
235,28,11307,5,2,3:2:0:0:
235,28,11395,1,0,3:0:0:0:
235,28,11483,2,0,L|122:14,1,96,8|0,3:2|0:0,0:0:0:0:
54,30,11836,2,0,B|60:75|104:95|104:95|40:113|16:59,1,192,0|8,1:0|0:0,0:0:0:0:
139,16,12365,1,0,0:0:0:0:
165,146,12542,2,0,P|168:189|139:242,1,96,0|0,1:0|1:0,0:0:0:0:
15,316,12895,5,6,0:0:0:0:
216,384,13071,1,2,1:2:0:0:
139,16,13424,1,2,1:2:0:0:
216,384,13777,1,2,1:2:0:0:
290,330,13954,5,0,1:0:0:0:
310,341,14042,1,0,1:0:0:0:
334,341,14130,1,0,1:0:0:0:
354,329,14218,1,0,1:0:0:0:
366,308,14307,5,4,0:1:0:0:
296,205,14483,1,2,0:0:0:0:
434,172,14660,1,2,1:2:0:0:
348,93,14836,2,0,B|319:90|319:90|313:86|313:86|308:89|308:89|246:83,1,96,2|8,0:0|0:0,0:0:0:0:
85,23,15189,2,0,B|110:42|131:39|131:39|143:22|168:12,1,96,2|0,0:0|1:0,0:0:0:0:
16,124,15542,5,2,3:2:0:0:
13,132,15630,1,0,3:2:0:0:
10,140,15718,1,8,3:2:0:0:
108,204,15895,1,2,0:0:0:0:
0,286,16071,1,2,1:2:0:0:
123,357,16248,2,0,B|236:346,1,96,2|8,0:0|0:0,0:0:0:0:
384,264,16601,2,0,B|340:282|340:282|302:250,1,96,2|0,0:0|1:0,0:0:0:0:
213,86,16954,5,0,3:0:0:0:
213,86,17042,1,0,3:0:0:0:
213,86,17130,2,0,B|280:94|317:29|317:29|389:17,1,192,10|0,3:2|1:0,0:0:0:0:
492,143,17660,2,0,P|508:187|494:242,1,96,2|8,0:0|0:0,0:0:0:0:
360,377,18012,5,2,0:0:0:0:
389,275,18189,1,2,1:2:0:0:
462,351,18365,1,6,1:2:0:0:
334,88,18718,5,6,1:2:0:0:
239,186,18895,1,2,1:2:0:0:
201,54,19071,1,2,1:2:0:0:
71,340,19424,5,2,1:2:0:0:
29,272,19601,1,0,1:0:0:0:
41,251,19689,1,0,1:0:0:0:
47,228,19777,1,0,1:0:0:0:
47,204,19865,1,0,1:0:0:0:
40,181,19954,5,4,0:1:0:0:
187,102,20130,1,2,0:0:0:0:
129,27,20307,1,2,1:2:0:0:
135,200,20483,2,0,B|138:229|138:229|137:237|137:237|139:241|139:241|146:315,1,96,2|8,0:0|0:0,0:0:0:0:
290,384,20836,2,0,L|299:257,1,96,2|0,0:0|1:0,0:0:0:0:
425,155,21189,5,2,3:2:0:0:
428,163,21277,1,0,3:2:0:0:
431,171,21365,1,8,3:2:0:0:
512,114,21542,1,2,0:0:0:0:
405,55,21718,1,2,1:2:0:0:
331,190,21895,2,0,P|289:212|243:188,1,96,2|8,0:0|0:0,0:0:0:0:
127,90,22248,2,0,B|146:46|146:46|108:-5,1,96,2|0,0:0|1:0,0:0:0:0:
6,155,22601,5,2,3:2:0:0:
6,155,22689,1,0,3:2:0:0:
6,155,22777,2,0,P|-11:193|28:251,1,96,8|0,3:2|0:0,0:0:0:0:
48,326,23130,2,0,B|85:309|100:262|100:262|99:326|144:355,1,192,0|8,1:0|0:0,0:0:0:0:
235,384,23660,1,0,0:0:0:0:
305,269,23836,2,0,P|293:232|318:165,1,96,0|0,1:0|1:0,0:0:0:0:
417,99,24189,5,6,0:0:0:0:
473,308,24365,1,2,1:2:0:0:
236,0,24718,1,2,1:2:0:0:
155,384,25071,1,2,1:2:0:0:
99,318,25248,5,0,1:0:0:0:
115,300,25336,1,0,1:0:0:0:
126,278,25424,1,0,1:0:0:0:
129,254,25512,1,0,1:0:0:0:
125,231,25601,5,4,0:1:0:0:
14,149,25777,1,2,0:0:0:0:
137,32,25954,1,2,1:2:0:0:
242,157,26130,2,0,B|213:154|213:154|210:151|210:151|206:153|206:153|140:147,1,96,2|8,0:0|0:0,0:0:0:0:
290,19,26483,2,0,B|319:16|319:16|322:13|322:13|326:15|326:15|392:9,1,96,2|0,0:0|1:0,0:0:0:0:
509,125,26836,5,2,3:2:0:0:
506,133,26924,1,0,3:2:0:0:
503,141,27012,1,8,3:2:0:0:
400,196,27189,1,2,0:0:0:0:
512,286,27365,1,2,1:2:0:0:
421,384,27542,2,0,B|406:266,1,96,2|8,0:0|0:0,0:0:0:0:
279,133,27895,1,2,3:2:0:0:
279,133,27983,1,0,3:2:0:0:
279,133,28071,2,0,B|298:154|328:151|328:151|336:130|359:113,1,96,0|0,1:2|0:0,0:0:0:0:
185,2,28424,5,10,0:0:0:0:
82,94,28601,2,0,B|59:102|42:119|42:119|25:102|1:92,1,96,2|0,0:0|1:0,0:0:0:0:
176,233,28954,2,0,B|161:213|139:202|139:202|150:181|152:155,1,96,2|8,0:0|0:0,0:0:0:0:
72,365,29307,2,0,B|85:345|89:321|89:321|113:325|137:318,1,96,2|0,0:0|1:0,0:0:0:0:
1,92,29660,5,4,1:2:0:0:
462,72,30012,5,6,1:2:0:0:
347,125,30189,1,2,1:2:0:0:
357,0,30365,1,2,1:2:0:0:
488,372,30718,5,2,0:0:0:0:
417,316,30895,1,0,1:0:0:0:
433,287,30983,1,0,1:0:0:0:
441,259,31071,1,8,1:2:0:0:
443,227,31160,1,8,1:2:0:0:
436,197,31248,1,2,0:0:0:0:
124,70,32660,6,0,P|121:118|82:138,1,72.0000027465821,4|0,0:1|0:0,0:0:0:0:
0,205,33012,2,0,P|3:157|42:137,1,72.0000027465821,10|0,0:0|0:0,0:0:0:0:
129,207,33365,1,10,0:0:0:0:
66,260,33542,1,0,0:0:0:0:
105,132,33718,1,10,0:0:0:0:
129,207,33895,1,0,0:0:0:0:
161,67,34071,5,10,0:0:0:0:
185,142,34248,2,0,B|206:133|239:149|239:149|216:116,1,72.0000027465821,2|8,0:0|0:0,0:0:0:0:
105,132,34601,2,0,L|9:154,1,72.0000027465821,2|8,0:0|0:0,0:0:0:0:
266,210,34954,2,0,P|262:175|239:149,1,72.0000027465821,2|8,0:0|0:0,0:0:0:0:
164,324,35307,1,2,0:0:0:0:
192,263,35483,2,0,P|169:289|164:324,1,72.0000027465821,8|0,0:0|0:0,0:0:0:0:
308,380,35836,6,0,P|271:376|230:367,1,72.0000027465821,10|0,0:0|0:0,0:0:0:0:
22,338,36189,2,0,P|62:328|187:327,1,144.000005493164,10|10,0:0|0:0,0:0:0:0:
15,345,36895,5,4,1:2:0:0:
165,324,37072,1,0,1:0:0:0:
72,205,37424,5,4,1:2:0:0:
15,345,37777,1,0,1:0:0:0:
81,290,37954,1,2,0:0:0:0:
72,205,38130,1,0,3:0:0:0:
67,199,38218,1,0,3:0:0:0:
61,193,38307,6,0,P|59:137|82:101,1,72.0000027465821,12|0,3:2|0:0,0:0:0:0:
186,132,38660,2,0,P|188:188|165:224,1,72.0000027465821,10|0,0:0|0:0,0:0:0:0:
125,313,39012,1,10,0:0:0:0:
201,281,39189,1,0,0:0:0:0:
279,309,39365,2,0,L|271:384,1,72.0000027465821,10|0,0:0|0:0,0:0:0:0:
182,201,39718,5,10,0:0:0:0:
294,300,39895,2,0,L|286:375,1,72.0000027465821,2|8,0:0|0:0,0:0:0:0:
366,225,40248,2,0,L|358:153,1,72.0000027465821,2|8,0:0|0:0,0:0:0:0:
405,330,40601,2,0,P|439:315|422:289,1,72.0000027465821,2|8,0:0|0:0,0:0:0:0:
313,163,40954,1,2,0:0:0:0:
436,209,41130,2,0,L|366:225,1,72.0000027465821,8|0,0:0|0:0,0:0:0:0:
175,86,41483,6,0,L|245:101,1,72.0000027465821,10|0,0:0|0:0,0:0:0:0:
436,82,41836,2,0,P|369:67|346:2,1,144.000005493164,10|10,0:0|0:0,0:0:0:0:
512,114,42542,5,4,1:2:0:0:
346,2,42718,1,0,1:0:0:0:
335,201,43071,5,4,1:2:0:0:
512,114,43425,1,0,1:0:0:0:
397,97,43601,1,2,0:0:0:0:
445,209,43777,1,8,0:0:0:0:
445,209,43865,1,8,0:0:0:0:
445,209,43954,6,0,P|493:224|534:206,1,81.6000015563965,4|0,0:1|0:0,0:0:0:0:
397,97,44307,2,0,P|360:131|355:175,1,81.6000015563965,2|0,1:2|0:0,0:0:0:0:
330,306,44660,2,0,P|288:217|226:216,1,163.200003112793,10|0,0:0|1:0,0:0:0:0:
132,271,45189,1,0,0:0:0:0:
132,271,45365,2,0,P|79:271|41:243,1,81.6000015563965,10|2,0:0|0:0,0:0:0:0:
180,352,45718,1,0,1:0:0:0:
232,213,45895,2,0,B|243:162|298:152|326:173|326:173|312:186|285:181,1,163.200003112793,2|0,0:0|0:0,0:0:0:0:
162,123,46424,2,0,L|81:136,1,81.6000015563965,0|0,1:0|3:0,0:0:0:0:
66,129,46689,1,0,3:0:0:0:
50,119,46777,6,0,P|24:91|44:57,1,81.6000015563965,8|0,0:0|0:0,0:0:0:0:
112,243,47130,2,0,P|100:279|61:279,1,81.6000015563965,2|0,1:2|0:0,0:0:0:0:
43,58,47483,2,0,P|110:52|162:130,1,163.200003112793,10|0,0:0|1:0,0:0:0:0:
212,261,48012,1,0,0:0:0:0:
352,282,48189,1,10,0:0:0:0:
212,261,48365,2,0,P|240:234|297:241,1,81.6000015563965,2|0,0:0|1:0,0:0:0:0:
402,353,48718,2,0,P|430:374|512:301,1,163.200003112793,2|0,0:0|0:0,0:0:0:0:
436,173,49248,2,0,B|405:146|405:146|407:202,1,81.6000015563965,2|0,1:2|3:0,0:0:0:0:
459,245,49512,1,0,3:0:0:0:
459,245,49601,6,0,L|560:219,1,81.6000015563965,8|0,0:0|0:0,0:0:0:0:
330,181,49954,2,0,L|229:155,1,81.6000015563965,2|0,1:2|0:0,0:0:0:0:
381,290,50307,1,10,0:0:0:0:
410,163,50483,1,0,0:0:0:0:
341,52,50660,2,0,P|312:49|325:95,1,81.6000015563965,2|0,1:2|0:0,0:0:0:0:
410,163,51012,1,10,0:0:0:0:
512,72,51189,2,0,L|431:82,1,81.6000015563965,2|0,0:0|1:0,0:0:0:0:
236,23,51542,2,0,L|148:12,1,81.6000015563965,2|8,0:0|0:0,0:0:0:0:
282,116,51895,2,0,P|312:128|317:76,1,81.6000015563965,2|0,0:0|1:0,0:0:0:0:
405,0,52248,1,2,3:2:0:0:
409,13,52336,1,0,3:0:0:0:
413,26,52424,2,0,B|451:37|451:37|488:19,1,81.6000015563965,8|0,3:2|0:0,0:0:0:0:
282,116,52777,6,0,B|243:127|243:127|206:109,1,81.6000015563965,0|0,1:0|0:0,0:0:0:0:
386,144,53130,2,0,B|433:164|428:218|428:218|389:261,1,122.400002334595,8|0,0:0|0:0,0:0:0:0:
377,242,53483,2,0,P|352:281|392:316,1,81.6000015563965,0|0,1:0|0:0,0:0:0:0:
443,369,53836,5,8,0:0:0:0:
265,253,54012,1,0,0:0:0:0:
103,323,54189,1,0,1:0:0:0:
198,375,54365,2,0,P|190:312|193:273,1,81.6000015563965,0|8,0:0|0:0,0:0:0:0:
219,148,54718,1,0,3:0:0:0:
222,133,54807,1,0,3:0:0:0:
226,119,54895,1,0,1:0:0:0:
26,57,55071,1,0,1:0:0:0:
28,71,55159,1,0,1:0:0:0:
29,82,55248,6,0,P|79:96|123:68,1,81.6000015563965,4|0,0:1|0:0,0:0:0:0:
256,9,55601,2,0,P|216:1|173:15,1,81.6000015563965,2|0,1:2|0:0,0:0:0:0:
184,152,55954,2,0,P|279:132|284:36,1,163.200003112793,10|2,0:0|1:2,0:0:0:0:
393,9,56483,1,0,0:0:0:0:
393,9,56660,2,0,P|390:52|415:121,1,81.6000015563965,10|2,0:0|0:0,0:0:0:0:
506,132,57012,1,0,1:0:0:0:
496,274,57189,2,0,P|437:196|348:232,1,163.200003112793,2|0,0:0|0:0,0:0:0:0:
213,241,57718,2,0,L|203:341,1,81.6000015563965,0|0,1:0|3:0,0:0:0:0:
200,338,57983,1,0,3:0:0:0:
194,353,58071,6,0,B|155:372|155:372|159:297,1,81.6000015563965,8|0,0:0|0:0,0:0:0:0:
299,236,58424,2,0,B|341:243|341:243|294:301,1,81.6000015563965,2|0,1:2|0:0,0:0:0:0:
122,248,58777,2,0,P|48:212|43:105,1,163.200003112793,10|2,0:0|1:2,0:0:0:0:
35,16,59307,1,0,0:0:0:0:
167,139,59483,1,10,0:0:0:0:
35,16,59660,2,0,P|76:19|112:73,1,81.6000015563965,2|0,0:0|1:0,0:0:0:0:
259,180,60012,2,0,B|227:76|300:124|264:13,1,163.200003112793,2|0,0:0|0:0,0:0:0:0:
250,195,60542,2,0,P|301:236|352:176,1,122.400002334595,2|0,1:2|0:0,0:0:0:0:
381,132,60895,6,0,B|466:142|466:142|508:177|472:215,1,163.200003112793,14|0,0:0|1:0,0:0:0:0:
355,121,61424,1,0,3:0:0:0:
351,95,61512,1,0,3:0:0:0:
375,81,61601,1,8,3:2:0:0:
451,183,61777,1,0,0:0:0:0:
370,301,61954,2,0,L|276:282,1,81.6000015563965,2|0,1:2|0:0,0:0:0:0:
474,370,62307,5,10,0:0:0:0:
369,223,62483,1,2,3:2:0:0:
369,223,62571,1,0,3:0:0:0:
369,223,62660,1,0,1:0:0:0:
351,95,62836,2,0,P|322:66|283:57,1,81.6000015563965,2|8,0:0|0:0,0:0:0:0:
449,262,63189,2,0,P|482:283|523:285,1,81.6000015563965,2|0,0:0|1:0,0:0:0:0:
280,143,63542,6,0,B|177:156|253:217|155:228,1,163.200003112793,12|0,0:2|0:0,0:0:0:0:
32,186,64071,1,6,1:2:0:0:
94,107,64248,1,0,0:0:0:0:
83,311,64424,5,6,1:2:0:0:
94,107,64601,2,0,P|77:66|28:89,1,96,2|0,1:2|0:0,0:0:0:0:
83,311,64954,6,0,B|142:335|182:269|182:269|218:299,1,144,6|0,1:2|0:0,0:0:0:0:
255,351,65307,2,0,B|290:315|290:315|352:342,1,96,2|0,1:2|0:0,0:0:0:0:
512,195,65660,6,0,B|470:213|470:213|435:177,1,96,6|0,1:2|0:0,0:0:0:0:
188,60,66012,6,0,B|201:0|267:-7|306:14|306:14|296:46|253:45,1,192,2|0,1:2|0:0,0:0:0:0:
135,165,66542,5,0,3:0:0:0:
131,150,66630,1,0,3:0:0:0:
123,138,66718,2,0,P|57:104|85:242,1,316.800009667969,2|0,3:3|0:0,0:0:0:0:
165,195,67954,6,0,P|110:206|63:175,1,115.199996484375,4|0,0:1|0:0,0:0:0:0:
278,7,68307,1,2,1:2:0:0:
342,127,68483,1,2,3:2:0:0:
344,138,68571,1,0,3:0:0:0:
346,149,68660,1,10,3:2:0:0:
414,191,68836,5,2,0:0:0:0:
248,264,69012,1,2,1:2:0:0:
168,296,69189,5,2,3:2:0:0:
157,300,69277,1,0,3:0:0:0:
146,303,69365,1,8,3:2:0:0:
263,374,69542,2,0,B|298:370|298:370|300:368|300:368|303:370|303:370|395:364,1,115.199996484375,2|0,0:0|1:0,0:0:0:0:
501,217,69895,2,0,P|514:159|494:106,1,115.199996484375,2|8,0:0|0:0,0:0:0:0:
345,2,70248,6,0,L|319:67,1,57.5999982421876,2|0,0:0|3:0,0:0:0:0:
278,122,70424,2,0,B|240:176|168:171|168:171|179:149|218:144,1,172.799994726563,0|0,1:0|0:0,0:0:0:0:
290,239,70777,6,0,B|299:301|362:302|362:302|355:277|340:262,1,134.399995898438,8|0,0:0|0:0,0:0:0:0:
221,51,71130,1,2,1:2:0:0:
90,112,71307,5,2,0:0:0:0:
56,123,71395,1,2,0:3:0:0:
22,123,71483,1,8,3:2:0:0:
48,100,71572,1,2,0:3:0:0:
80,88,71660,1,2,0:0:0:0:
221,51,71835,1,0,1:0:0:0:
111,269,72012,6,0,B|74:273|42:253|42:253|182:222,1,216.000008239746,4|0,1:2|0:0,0:0:0:0:
340,169,72365,2,0,B|378:171|409:152|409:152|268:122,1,216.000008239746,2|0,1:2|0:0,0:0:0:0:
183,222,72718,6,0,B|220:192|220:192|168:152|190:76|190:76|220:50,1,216.000008239746,4|0,1:2|0:0,0:0:0:0:
366,14,73071,2,0,B|397:40|397:40|419:116|367:156|367:156|404:186,1,216.000008239746,2|0,1:2|0:0,0:0:0:0:
512,290,73424,6,0,B|481:251|497:196|497:196|473:275|400:277,1,230.39999296875,4|2,1:1|0:0,0:0:0:0:
259,185,73954,1,0,1:0:0:0:
268,179,74042,1,2,0:3:0:0:
309,321,74218,1,2,0:3:0:0:
320,322,74307,1,8,0:0:0:0:
174,384,74483,1,2,0:0:0:0:
48,243,74660,5,0,1:0:0:0:
152,266,74836,2,0,B|132:274|118:292|118:292|140:257|127:214,1,115.199996484375,2|8,0:0|0:0,0:0:0:0:
33,80,75189,1,2,0:0:0:0:
215,4,75365,1,0,1:0:0:0:
203,6,75454,1,2,0:3:0:0:
305,141,75630,1,2,0:3:0:0:
296,148,75718,1,8,0:0:0:0:
437,11,75895,5,2,0:0:0:0:
465,167,76071,1,0,1:0:0:0:
493,323,76248,1,2,0:0:0:0:
374,384,76424,6,0,P|351:332|370:279,1,115.199996484375,8|0,0:0|3:0,0:0:0:0:
413,219,76689,1,0,3:0:0:0:
465,167,76777,2,0,P|483:113|461:62,1,115.199996484375,0|0,1:0|0:0,0:0:0:0:
280,0,77130,6,0,L|236:42,1,57.5999982421876,8|0,0:0|3:0,0:0:0:0:
173,77,77307,2,0,B|127:106|85:79|85:79|115:66|135:71,1,144,2|0,0:0|0:0,0:0:0:0:
240,115,77660,6,0,B|287:162|272:243|252:273|252:273|252:241|290:209,1,216.000008239746,4|0,1:2|0:0,0:0:0:0:
349,196,78012,2,0,B|421:159|489:178|489:178|458:160|401:169,1,216.000008239746,2|0,1:2|0:0,0:0:0:0:
268,230,78365,6,0,B|261:280|217:324|166:320|166:320|167:286|132:241,1,216.000008239746,4|0,1:2|0:0,0:0:0:0:
53,135,78718,2,0,P|-7:220|24:324,1,216.000008239746,2|0,1:2|0:0,0:0:0:0:
33,332,79071,6,0,L|94:312,1,48,0|0,1:0|3:0,0:0:0:0:
234,342,79248,6,0,B|273:348|273:348|290:365|290:365|356:377,1,115.199996484375,4|2,0:1|0:0,0:0:0:0:
512,236,79601,1,2,1:2:0:0:
412,122,79777,1,2,3:0:0:0:
410,133,79865,1,0,3:0:0:0:
409,144,79954,1,8,3:2:0:0:
314,179,80130,5,2,0:0:0:0:
508,147,80306,1,2,1:2:0:0:
401,48,80483,5,2,3:2:0:0:
397,37,80571,1,0,3:0:0:0:
393,26,80659,1,8,3:2:0:0:
241,94,80836,2,0,B|173:110|155:48|206:43|236:81,1,115.199996484375,2|0,0:0|1:0,0:0:0:0:
333,207,81189,2,0,P|342:242|302:328,1,115.199996484375,2|8,0:0|0:0,0:0:0:0:
134,384,81542,6,0,L|78:372,1,57.5999982421876,2|0,0:0|3:0,0:0:0:0:
12,330,81718,2,0,B|30:302|62:295|62:295|31:249|57:191,1,172.799994726563,0|0,1:0|0:0,0:0:0:0:
94,118,82071,6,0,B|127:77|127:77|115:15|115:15|107:46,1,134.399995898438,8|0,0:0|0:0,0:0:0:0:
272,228,82424,1,2,1:2:0:0:
282,234,82512,2,0,B|290:246|290:246|301:187|301:187|276:136,1,124.79999428711,2|0,0:3|0:0,0:0:0:0:
227,80,82777,5,10,0:0:0:0:
110,272,82953,1,2,0:0:0:0:
0,309,83129,1,2,1:2:0:0:
166,371,83307,6,0,B|225:325|292:370|292:370|375:334,1,216.000008239746,4|0,1:2|0:0,0:0:0:0:
452,362,83660,2,0,B|463:287|394:256|394:256|375:203|420:168,1,216.000008239746,2|0,1:2|0:0,0:0:0:0:
512,73,84012,6,0,B|472:116|416:95|416:95|406:35|342:10,1,216.000008239746,4|0,1:2|0:0,0:0:0:0:
222,26,84365,2,0,B|175:75|209:132|252:159|252:159|314:112,1,216.000008239746,2|0,1:2|0:0,0:0:0:0:
465,100,84718,6,0,B|422:131|422:131|418:41|349:12,1,201.599993847656,4|0,1:0|0:0,0:0:0:0:
336,15,85071,2,0,L|280:60,1,52.8000016113282,2|0,0:0|3:0,0:0:0:0:
185,129,85248,5,0,1:0:0:0:
174,127,85336,1,2,0:3:0:0:
285,229,85512,1,2,0:3:0:0:
294,232,85601,1,8,0:0:0:0:
134,297,85777,1,0,0:0:0:0:
345,371,85954,5,2,1:2:0:0:
242,380,86130,2,0,B|273:376|273:376|278:373|278:373|283:376|283:376|374:369,1,105.600003222656,2|8,0:0|0:0,0:0:0:0:
192,217,86483,1,2,0:0:0:0:
311,134,86659,1,0,1:0:0:0:
321,136,86748,1,2,0:3:0:0:
244,22,86924,1,2,0:3:0:0:
254,19,87012,1,8,0:0:0:0:
119,85,87189,5,2,0:0:0:0:
321,136,87365,1,2,1:2:0:0:
123,307,87542,6,0,B|90:334|91:368|91:368|128:332|116:233|62:189,1,268.799991796875,4|0,1:2|0:0,0:0:0:0:
314,7,88071,6,0,B|288:97|384:122|384:122|389:90|414:67,1,216.000008239746,4|0,1:2|0:0,0:0:0:0:
478,111,88424,2,0,P|480:131|461:125,1,48,0|0,1:0|3:0,0:0:0:0:
212,97,88601,2,0,L|429:67,1,201.599993847656,2|0,1:2|0:0,0:0:0:0:
511,180,88954,6,0,B|529:227|502:275|494:274|477:299|467:336|467:336|407:310|395:264|429:213,1,307.2,4|2,1:1|0:0,0:0:0:0:
178,5,89483,6,0,B|177:104|83:157|83:157|104:98,1,244.80000466919,4|0,1:2|0:0,0:0:0:0:
176,133,89836,2,0,P|188:156|186:193,1,48,0|0,1:0|3:0,0:0:0:0:
151,244,90012,2,0,B|111:290|44:274|44:274|39:208|-14:175,1,216.000008239746,2|0,1:2|0:0,0:0:0:0:
2,187,90365,6,0,B|-37:319|51:368|51:368|147:340,1,259.199992089844,4|0,1:1|0:0,0:0:0:0:
113,361,90718,2,0,L|124:297,1,48,2|2,0:3|0:0,0:0:0:0:
189,177,90895,6,0,P|163:109|229:14,1,172.799994726563,0|0,1:0|0:0,0:0:0:0:
279,0,91248,1,10,0:0:0:0:
288,14,91336,1,0,3:0:0:0:
302,23,91424,1,2,3:0:0:0:
318,28,91512,1,0,3:0:0:0:
335,28,91601,1,0,1:0:0:0:
207,25,91777,1,2,0:0:0:0:
368,126,91954,6,0,B|412:118|412:118|417:115|417:115|423:116|423:116|495:106,1,115.199996484375,14|0,0:0|0:0,0:0:0:0:
351,376,92307,2,0,P|358:329|329:269,1,115.199996484375,0|0,1:0|0:0,0:0:0:0:
189,177,92660,5,8,0:0:0:0:
63,338,92836,1,0,1:0:0:0:
7,258,93012,5,0,1:0:0:0:
47,244,93101,1,0,1:0:0:0:
76,213,93189,1,8,1:2:0:0:
88,172,93277,1,8,1:2:0:0:
78,130,93365,1,2,0:0:0:0:
492,285,96189,6,0,P|411:284|374:360,1,144.000005493164,12|0,0:0|0:0,0:0:0:0:
292,365,96718,1,8,0:0:0:0:
220,332,96895,2,0,P|253:363|303:360,1,72.0000027465821,8|0,0:0|0:0,0:0:0:0:
140,227,97248,2,0,B|180:231|180:231|133:264,1,72.0000027465821,2|0,0:3|0:0,0:0:0:0:
25,338,97601,5,8,0:0:0:0:
119,366,97777,2,0,P|90:301|31:323,1,144.000005493164,0|8,0:0|0:0,0:0:0:0:
22,351,98307,1,8,0:0:0:0:
61,207,98483,2,0,B|49:124|49:124|55:123|55:123|49:124|49:124|40:64,1,144.000005493164,2|0,0:0|0:0,0:0:0:0:
31,66,99012,1,8,0:0:0:0:
206,18,99365,6,0,P|188:63|154:66,1,72.0000027465821,0|8,0:0|0:0,0:0:0:0:
143,160,99718,2,0,P|111:115|189:78,1,144.000005493164,8|2,0:0|0:3,0:0:0:0:
281,174,100424,5,4,1:2:0:0:
371,64,100601,1,4,1:2:0:0:
429,192,100954,5,4,1:2:0:0:
281,174,101307,1,8,0:0:0:0:
360,145,101483,1,2,0:3:0:0:
429,192,101660,2,0,L|436:235,1,36.0000013732911,8|8,0:0|0:0,0:0:0:0:
512,307,101836,6,0,P|446:307|432:324,1,72.0000027465821,12|0,0:0|0:0,0:0:0:0:
369,377,102189,2,0,P|365:325|355:288,1,72.0000027465821,0|8,0:0|0:0,0:0:0:0:
325,225,102542,2,0,P|291:236|258:224,2,72.0000027465821,8|0|2,0:0|0:0|0:3,0:0:0:0:
325,225,103071,1,0,0:0:0:0:
228,149,103248,5,8,0:0:0:0:
138,212,103424,2,0,P|139:229|173:214,1,72.0000027465821
207,59,103777,2,0,P|146:64|120:152,1,144.000005493164,10|0,0:0|0:0,0:0:0:0:
33,209,104307,1,2,0:0:0:0:
49,286,104483,2,0,P|49:229|41:202,1,72.0000027465821,0|8,0:0|0:0,0:0:0:0:
266,350,105012,6,0,P|209:349|182:357,1,72.0000027465821,2|8,0:3|0:0,0:0:0:0:
48,362,105365,2,0,B|82:371|82:371|146:341|123:258,1,144.000005493164,10|2,0:0|0:3,0:0:0:0:
38,172,106071,5,4,1:2:0:0:
128,282,106248,1,4,1:2:0:0:
186,154,106601,5,4,1:2:0:0:
38,172,106954,1,8,0:0:0:0:
121,204,107130,1,2,0:3:0:0:
199,49,107307,1,8,0:0:0:0:
205,57,107395,1,8,0:0:0:0:
211,65,107483,6,0,B|254:89|294:73|294:73|298:49|318:26,1,122.400002334595,4|0,0:1|0:0,0:0:0:0:
316,31,107836,2,0,P|294:66|293:106,1,81.6000015563965,2|0,1:2|0:0,0:0:0:0:
383,214,108189,2,0,L|470:203,1,81.6000015563965,10|0,0:0|0:0,0:0:0:0:
475,201,108454,1,0,3:0:0:0:
487,200,108542,2,0,P|508:165|509:125,1,81.6000015563965,2|0,1:2|0:0,0:0:0:0:
438,9,108895,1,10,0:0:0:0:
438,9,109071,2,0,L|415:103,1,81.6000015563965,2|0,0:0|1:0,0:0:0:0:
300,195,109424,1,0,3:0:0:0:
300,195,109512,1,0,3:0:0:0:
300,195,109601,2,0,P|228:209|150:164,1,163.200003112793,8|0,3:2|1:0,0:0:0:0:
13,55,110130,5,0,3:0:0:0:
18,65,110218,1,0,3:0:0:0:
23,75,110307,2,0,B|49:103|89:98|89:98|109:79|149:74,1,122.400002334595,8|0,3:2|0:0,0:0:0:0:
143,79,110659,2,0,P|105:86|75:130,1,81.6000015563965,2|0,1:2|0:0,0:0:0:0:
0,239,111012,2,0,P|-12:275|10:323,1,81.6000015563965,10|0,0:0|0:0,0:0:0:0:
8,324,111277,1,0,3:0:0:0:
17,332,111365,2,0,L|112:323,1,81.6000015563965,2|0,1:2|0:0,0:0:0:0:
251,384,111718,1,10,0:0:0:0:
251,384,111895,2,0,L|260:287,1,81.6000015563965,2|0,0:0|1:0,0:0:0:0:
412,222,112248,2,0,B|450:226|485:257|485:257|486:214|512:181,1,163.200003112793,2|0,0:0|0:0,0:0:0:0:
374,334,112777,2,0,B|387:353|408:358|408:358|409:337|394:309,1,81.6000015563965,2|0,1:2|0:0,0:0:0:0:
268,209,113130,6,0,B|206:190|216:240|150:219,1,122.400002334595,8|0,0:0|0:0,0:0:0:0:
138,217,113483,2,0,P|174:224|222:209,1,81.6000015563965,2|0,1:2|0:0,0:0:0:0:
113,59,113836,2,0,P|88:86|77:135,1,81.6000015563965,10|0,0:0|0:0,0:0:0:0:
262,116,114189,2,0,P|250:81|213:47,1,81.6000015563965,2|0,1:2|0:0,0:0:0:0:
171,135,114542,1,10,0:0:0:0:
262,116,114718,2,0,L|350:89,1,81.6000015563965,2|0,0:0|1:0,0:0:0:0:
138,217,115071,2,0,L|117:306,1,81.6000015563965,2|8,0:0|0:0,0:0:0:0:
113,59,115424,2,0,L|45:-3,1,81.6000015563965,2|0,0:0|1:0,0:0:0:0:
244,100,115777,5,0,3:2:0:0:
253,108,115865,1,0,3:0:0:0:
262,116,115954,2,0,L|386:85,1,122.400002334595,8|0,3:2|0:0,0:0:0:0:
392,84,116306,2,0,B|348:94|348:94|386:110,1,81.6000015563965,2|0,1:2|0:0,0:0:0:0:
486,255,116660,2,0,B|519:240|519:240|475:230,1,81.6000015563965,10|0,0:0|0:0,0:0:0:0:
463,231,116924,1,0,3:0:0:0:
450,231,117012,2,0,P|476:285|449:340,1,122.400002334595,2|0,1:2|0:0,0:0:0:0:
444,348,117365,6,0,L|359:333,1,81.6000015563965,10|0,0:0|0:0,0:0:0:0:
206,384,117718,1,2,1:2:0:0:
206,384,117895,2,0,L|216:283,1,81.6000015563965,2|8,0:0|0:0,0:0:0:0:
175,132,118248,1,2,0:0:0:0:
300,154,118424,1,2,1:2:0:0:
149,30,118600,5,0,3:0:0:0:
144,41,118688,1,0,3:0:0:0:
139,52,118777,2,0,B|119:83|80:80|80:80|68:59|40:44,1,122.400002334595,4|0,3:1|0:0,0:0:0:0:
28,42,119130,2,0,P|63:60|85:94,1,81.6000015563965,2|0,1:2|0:0,0:0:0:0:
166,213,119483,2,0,P|168:253|149:288,1,81.6000015563965,10|0,0:0|0:0,0:0:0:0:
142,299,119748,1,0,3:0:0:0:
133,307,119836,2,0,L|35:316,1,81.6000015563965,2|0,1:2|0:0,0:0:0:0:
238,382,120189,1,10,0:0:0:0:
238,382,120365,2,0,L|336:373,1,81.6000015563965,2|0,0:0|1:0,0:0:0:0:
474,333,120718,1,0,3:0:0:0:
474,333,120807,1,0,3:0:0:0:
474,333,120895,2,0,P|498:250|471:171,1,163.200003112793,8|0,3:2|1:0,0:0:0:0:
388,66,121424,5,0,3:0:0:0:
380,75,121512,1,0,3:0:0:0:
372,84,121601,2,0,B|342:83|313:97|313:97|294:71|264:59,1,122.400002334595,8|0,3:2|0:0,0:0:0:0:
253,60,121953,2,0,P|290:74|316:116,1,81.6000015563965,2|0,1:2|0:0,0:0:0:0:
316,228,122307,2,0,L|269:314,1,81.6000015563965,10|0,0:0|0:0,0:0:0:0:
268,308,122571,1,0,3:0:0:0:
258,316,122660,2,0,P|221:332|181:326,1,81.6000015563965,2|0,1:2|0:0,0:0:0:0:
45,226,123012,1,10,0:0:0:0:
45,226,123189,2,0,L|37:132,1,81.6000015563965,2|0,0:0|1:0,0:0:0:0:
155,11,123542,2,0,B|173:43|168:99|135:126|135:126|142:106|162:92,1,163.200003112793,2|0,0:0|0:0,0:0:0:0:
268,123,124071,2,0,P|336:131|357:74,1,122.400002334595,2|0,1:2|0:0,0:0:0:0:
361,78,124424,6,0,B|318:107|318:107|345:220,1,163.200003112793,14|0,0:0|1:0,0:0:0:0:
450,302,124954,1,2,0:0:0:0:
459,283,125042,1,2,0:3:0:0:
472,268,125130,1,8,3:2:0:0:
489,256,125218,1,2,0:3:0:0:
508,249,125306,1,2,0:0:0:0:
425,381,125483,2,0,P|385:361|299:360,1,122.400002334595,2|0,1:2|0:0,0:0:0:0:
297,363,125836,5,10,0:0:0:0:
224,290,126012,1,2,0:0:0:0:
236,273,126100,1,2,0:3:0:0:
242,254,126188,1,0,1:2:0:0:
242,234,126276,1,2,0:3:0:0:
232,211,126365,2,0,P|210:177|212:124,1,81.6000015563965,2|8,0:0|0:0,0:0:0:0:
346,0,126718,2,0,P|343:40|322:74,1,81.6000015563965,2|0,0:0|1:0,0:0:0:0:
189,143,127071,6,0,B|133:131|133:131|96:150|96:150|13:137,1,163.200003112793,12|0,0:0|0:0,0:0:0:0:
135,265,127601,2,0,B|104:320|104:320|128:373,1,122.400002334595,4|0,1:2|0:0,0:0:0:0:
135,384,127953,5,4,1:2:0:0:
291,348,128130,2,0,L|303:229,1,100.799996923828,0|0,1:0|0:0,0:0:0:0:
371,185,128483,6,0,B|304:214|304:214|246:170,1,144,4|0,1:2|0:0,0:0:0:0:
254,94,128836,2,0,B|320:64|320:64|378:108,1,144,0|0,1:2|0:0,0:0:0:0:
370,185,129189,6,0,P|303:228|247:168,1,172.799994726563,4|0,1:2|0:0,0:0:0:0:
254,94,129543,2,0,B|320:68|324:-10|324:-10|320:68|377:107,1,268.799991796875,0|0,1:2|0:0,0:0:0:0:
512,245,130071,5,0,3:0:0:0:
506,233,130159,1,0,3:0:0:0:
499,221,130248,2,0,P|433:187|468:318,1,316.800009667969,2|0,3:0|0:0,0:0:0:0:
440,255,131483,6,0,P|350:271|331:321,1,115.199996484375,4|0,0:1|0:0,0:0:0:0:
192,371,131836,1,2,1:2:0:0:
79,171,132012,1,2,3:2:0:0:
82,159,132101,1,0,3:0:0:0:
85,148,132189,1,10,3:2:0:0:
41,237,132365,5,2,0:0:0:0:
28,65,132542,1,2,1:2:0:0:
183,141,132718,5,2,3:2:0:0:
191,133,132807,1,0,3:0:0:0:
200,126,132895,1,8,3:2:0:0:
45,27,133071,2,0,B|17:13|-12:30|-12:30|2:62|30:65,1,115.199996484375,2|0,0:0|1:0,0:0:0:0:
203,229,133424,2,0,B|238:225|238:225|240:223|240:223|243:225|243:225|335:219,1,115.199996484375,2|8,0:0|0:0,0:0:0:0:
512,281,133777,6,0,P|481:261|463:227,1,57.5999982421876,2|0,0:0|3:0,0:0:0:0:
428,143,133954,2,0,B|424:61|490:39|490:39|484:60|460:69,1,172.799994726563,0|0,1:0|0:0,0:0:0:0:
428,143,134307,6,0,B|428:183|403:198|403:198|407:166|374:142,1,115.199996484375,8|0,0:0|0:0,0:0:0:0:
272,23,134660,1,2,1:2:0:0:
170,275,134836,1,2,0:0:0:0:
127,270,134924,1,2,0:3:0:0:
95,242,135012,1,8,3:2:0:0:
61,216,135100,1,2,0:3:0:0:
18,215,135188,1,2,0:0:0:0:
212,121,135365,1,0,1:0:0:0:
86,357,135542,6,0,B|52:370|20:321|52:242|136:239|183:286,1,216.000008239746,4|0,1:2|0:0,0:0:0:0:
263,350,135895,2,0,B|265:386|323:394|381:332|348:254|286:232,1,216.000008239746,2|0,1:2|0:0,0:0:0:0:
212,121,136248,6,0,B|175:117|143:137|143:137|283:168,1,216.000008239746,4|0,1:2|0:0,0:0:0:0:
423,202,136601,2,0,B|461:200|492:219|492:219|351:249,1,216.000008239746,2|0,1:2|0:0,0:0:0:0:
241,195,136954,6,0,B|278:137|349:165|349:165|283:167|269:240,1,230.39999296875,4|2,1:1|0:0,0:0:0:0:
231,381,137483,1,0,1:0:0:0:
228,369,137571,1,2,0:3:0:0:
91,300,137748,1,2,0:3:0:0:
101,295,137836,1,8,0:0:0:0:
172,160,138012,1,2,0:0:0:0:
68,8,138189,5,0,1:0:0:0:
0,130,138365,2,0,B|48:149|85:120|85:120|104:78,1,115.199996484375,2|8,0:0|0:0,0:0:0:0:
191,4,138718,1,2,0:0:0:0:
286,212,138895,1,0,1:0:0:0:
292,201,138983,1,2,0:3:0:0:
467,178,139160,1,2,0:3:0:0:
458,171,139248,1,8,0:0:0:0:
330,7,139424,5,2,0:0:0:0:
352,143,139601,1,0,1:0:0:0:
447,26,139777,1,2,0:0:0:0:
458,171,139954,6,0,P|476:237|449:291,1,115.199996484375,8|0,0:0|3:0,0:0:0:0:
421,335,140218,1,0,3:0:0:0:
358,365,140307,2,0,P|302:377|250:355,1,115.199996484375,0|0,1:0|0:0,0:0:0:0:
68,170,140660,6,0,P|104:171|137:185,1,72.0000027465821,8|0,0:0|3:0,0:0:0:0:
245,282,140836,2,0,B|263:286|271:276|271:276|239:251|173:282|171:330,1,158.400004833985,2|0,0:0|0:0,0:0:0:0:
94,313,141189,6,0,B|25:284|22:190|70:150|70:150|66:162|70:184,1,216.000008239746,4|0,1:2|0:0,0:0:0:0:
148,159,141542,6,0,B|182:172|214:123|182:44|98:41|51:88,1,216.000008239746,2|0,1:2|0:0,0:0:0:0:
0,266,141895,6,0,B|123:224|67:345|201:298,1,216.000008239746,4|0,1:2|0:0,0:0:0:0:
317,126,142248,6,0,B|308:90|270:85|270:85|324:266,1,216.000008239746,2|0,1:2|0:0,0:0:0:0:
401,333,142601,1,0,1:0:0:0:
410,336,142689,1,0,1:0:0:0:
418,339,142777,6,0,B|442:349|442:349|412:295|453:242,1,115.199996484375,4|2,0:1|0:0,0:0:0:0:
303,370,143130,1,2,1:2:0:0:
439,264,143307,1,2,3:0:0:0:
436,255,143395,1,0,3:0:0:0:
433,247,143483,1,8,3:2:0:0:
512,304,143660,5,2,0:0:0:0:
470,135,143836,1,2,1:2:0:0:
472,4,144012,5,2,3:2:0:0:
475,12,144100,1,0,3:0:0:0:
478,21,144188,1,8,3:2:0:0:
292,140,144365,2,0,B|270:137|257:151|257:151|297:149|329:183,1,115.199996484375,2|0,0:0|1:0,0:0:0:0:
512,304,144718,2,0,P|450:277|390:301,1,115.199996484375,2|8,0:0|0:0,0:0:0:0:
166,338,145071,2,0,P|134:360|77:337,1,57.5999982421876,2|0,0:0|3:0,0:0:0:0:
162,255,145248,2,0,B|204:248|252:286|248:338|248:338|281:319|267:281,1,201.599993847656,0|0,1:0|0:0,0:0:0:0:
162,255,145601,6,0,B|129:251|96:278|96:278|16:251|54:150,1,201.599993847656,8|0,0:0|0:0,0:0:0:0:
106,123,145954,2,0,B|128:91|182:109|182:109|192:134|214:151,1,124.79999428711,2|0,1:2|0:0,0:0:0:0:
46,174,146307,5,10,0:0:0:0:
218,9,146483,1,2,0:0:0:0:
324,68,146660,1,2,1:2:0:0:
506,26,146836,6,0,B|451:21|451:21|418:48|418:48|431:135|344:155,1,216.000008239746,4|0,1:2|0:0,0:0:0:0:
240,183,147189,2,0,B|175:154|244:105|334:171|313:267,1,216.000008239746,2|0,1:2|0:0,0:0:0:0:
384,323,147542,6,0,B|406:332|403:359|403:359|386:327|391:236|443:203,1,216.000008239746,4|0,1:2|0:0,0:0:0:0:
338,100,147895,2,0,B|285:94|271:157|271:157|324:196|314:261,1,216.000008239746,2|0,1:2|0:0,0:0:0:0:
241,301,148248,6,0,B|174:332|118:279|158:201|240:229,1,201.599993847656,4|0,1:0|0:0,0:0:0:0:
306,255,148601,1,2,0:0:0:0:
201,136,148777,1,0,1:0:0:0:
206,118,148865,1,2,0:3:0:0:
45,167,149042,1,2,0:3:0:0:
32,154,149130,1,8,0:0:0:0:
139,228,149307,1,0,0:0:0:0:
92,51,149483,5,2,1:2:0:0:
6,11,149660,2,0,B|19:37|19:37|63:67|122:40,1,105.600003222656,2|8,0:0|0:0,0:0:0:0:
254,17,150012,1,2,0:0:0:0:
397,124,150189,1,0,1:0:0:0:
407,127,150277,1,2,0:3:0:0:
268,241,150454,1,2,0:3:0:0:
258,244,150542,1,8,0:0:0:0:
375,293,150718,5,2,0:0:0:0:
302,86,150895,1,2,1:2:0:0:
480,356,151071,6,0,B|519:371|556:314|519:222|421:218|373:295,1,268.799991796875,4|0,1:2|0:0,0:0:0:0:
54,225,151601,6,0,B|98:275|169:241|169:241|174:189|215:170,1,216.000008239746,4|0,1:2|0:0,0:0:0:0:
279,135,151954,2,0,B|289:111|289:111|250:124,1,48,0|0,1:0|3:0,0:0:0:0:
142,326,152130,2,0,P|141:222|239:170,1,201.599993847656,2|0,1:2|0:0,0:0:0:0:
367,173,152483,6,0,B|368:75|290:37|227:58|227:58|235:99|271:126|301:107,1,307.2,4|2,1:1|0:0,0:0:0:0:
508,3,153012,6,0,B|457:33|438:122|460:189|460:189|506:242,1,244.80000466919,4|0,1:2|0:0,0:0:0:0:
512,293,153365,2,0,P|497:309|484:291,1,48,0|0,1:0|3:0,0:0:0:0:
508,3,153542,2,0,P|491:103|306:73,1,288,2|0,1:2|0:0,0:0:0:0:
256,32,153895,5,4,1:1:0:0:
256,192,153983,12,2,155836,0:0:0:0:
46,311,156189,5,8,0:0:0:0:
123,348,156365,1,0,0:0:0:0:
183,286,156542,1,2,0:0:0:0:
59,215,156718,5,0,3:0:0:0:
52,209,156807,1,0,3:0:0:0:
46,203,156895,2,0,B|3:151|46:101|46:101|58:136,1,144.000005493164,8|0,0:0|0:0,0:0:0:0:
52,209,157424,1,8,0:0:0:0:
134,160,157601,2,0,L|210:146,1,72.0000027465821,8|0,0:0|0:0,0:0:0:0:
276,21,157954,1,2,0:0:0:0:
314,92,158130,6,0,P|362:64|367:31,1,72.0000027465821,8|0,0:0|0:0,0:0:0:0:
257,187,158483,2,0,P|209:159|204:126,1,72.0000027465821,8|0,0:0|0:0,0:0:0:0:
118,83,158836,1,8,0:0:0:0:
276,21,159012,1,8,0:0:0:0:
314,92,159189,1,0,0:0:0:0:
379,44,159365,1,2,0:0:0:0:
485,10,159542,5,0,3:0:0:0:
483,20,159630,1,0,3:0:0:0:
482,30,159718,2,0,B|446:66|476:126|476:126|508:83,1,144.000005493164,8|0,0:0|0:0,0:0:0:0:
500,93,160248,1,8,0:0:0:0:
406,222,160424,2,0,P|400:178|392:134,1,72.0000027465821,8|0,0:0|0:0,0:0:0:0:
317,188,160777,1,2,0:0:0:0:
243,101,160954,6,0,P|235:175|239:278,2,144.000005493164,8|8|8,0:0|0:0|0:0,0:0:0:0:
248,91,161748,1,0,3:0:0:0:
253,81,161836,1,0,3:0:0:0:
172,18,162012,1,0,0:0:0:0:
43,113,162189,2,0,B|9:104|9:104|44:90,1,72.0000027465821,2|0,0:0|3:0,0:0:0:0:
123,87,162454,5,0,3:0:0:0:
123,87,162542,2,0,P|134:135|71:221,1,144.000005493164,8|0,0:0|0:0,0:0:0:0:
161,293,163071,2,0,P|159:232|67:231,1,144.000005493164,8|0,0:0|0:0,0:0:0:0:
23,352,163601,2,0,L|105:337,1,72.0000027465821,0|8,0:0|0:0,0:0:0:0:
239,210,163954,5,2,0:0:0:0:
296,261,164130,1,8,0:0:0:0:
361,220,164307,1,0,0:0:0:0:
289,368,164483,1,8,0:0:0:0:
289,368,164660,2,0,B|254:355|254:355|297:346,1,72.0000027465821,8|0,0:0|0:0,0:0:0:0:
397,285,165012,2,0,L|389:331,1,36.0000013732911,2|0,0:0|0:0,0:0:0:0:
468,379,165189,5,8,0:0:0:0:
468,379,165277,1,8,0:0:0:0:
468,379,165365,2,0,P|477:321|376:297,1,158.400004833985,12|0,0:0|0:0,0:0:0:0:
320,295,165718,2,0,B|291:247|291:247|319:193,1,105.600003222656,0|0,1:0|0:0,0:0:0:0:
465,110,166071,6,0,L|501:49,2,52.8000016113282,8|2|2,0:0|0:3|0:0,0:0:0:0:
445,135,166336,1,2,0:3:0:0:
415,145,166424,2,0,P|350:123|341:56,1,105.600003222656,0|2,1:0|0:0,0:0:0:0:
355,21,166689,1,2,0:3:0:0:
380,11,166777,5,8,0:0:0:0:
156,52,166954,1,0,3:0:0:0:
146,55,167042,1,2,0:0:0:0:
136,58,167130,1,0,1:0:0:0:
35,86,167307,1,0,0:0:0:0:
130,230,167483,2,0,B|137:242|137:242|161:193|110:166,1,105.600003222656,8|0,0:0|0:0,0:0:0:0:
23,79,167836,1,0,1:0:0:0:
119,215,168012,5,0,3:0:0:0:
125,222,168100,1,0,3:0:0:0:
130,230,168189,2,0,P|179:208|229:226,1,105.600003222656,8|2,0:0|0:3,0:0:0:0:
244,297,168454,1,2,0:0:0:0:
202,357,168542,2,0,P|151:352|116:314,1,105.600003222656,0|2,1:0|0:3,0:0:0:0:
130,230,168807,1,2,0:0:0:0:
160,211,168895,2,0,P|185:208|229:227,1,52.8000016113282,8|0,0:0|3:0,0:0:0:0:
323,274,169071,1,2,0:3:0:0:
295,183,169248,1,0,1:0:0:0:
390,333,169424,5,2,3:3:0:0:
400,336,169512,1,0,3:0:0:0:
410,339,169601,2,0,P|488:329|506:267,1,105.600003222656,8|0,0:0|0:0,0:0:0:0:
511,239,169865,2,0,L|492:181,1,52.8000016113282,2|0,0:0|1:0,0:0:0:0:
320,372,170130,1,2,0:0:0:0:
310,321,170218,1,2,0:3:0:0:
335,275,170306,1,8,0:0:0:0:
383,255,170394,1,2,0:3:0:0:
432,269,170482,1,2,0:0:0:0:
371,123,170660,1,0,1:0:0:0:
483,10,170836,2,0,P|464:34|446:51,1,52.8000016113282,2|0,0:0|0:0,0:0:0:0:
371,123,171012,6,0,P|318:126|245:61,1,105.600003222656,12|2,0:0|0:0,0:0:0:0:
258,86,171277,1,0,3:0:0:0:
248,65,171365,1,0,1:0:0:0:
58,1,171542,1,2,0:3:0:0:
54,40,171630,1,2,0:0:0:0:
78,70,171718,1,8,0:0:0:0:
117,73,171806,1,2,0:0:0:0:
146,48,171894,1,2,0:3:0:0:
23,176,172071,1,0,1:0:0:0:
131,279,172248,6,0,L|151:347,2,52.8000016113282,2|2|8,0:0|0:0|0:0,0:0:0:0:
168,141,172601,1,2,0:0:0:0:
173,132,172689,1,2,0:0:0:0:
178,123,172777,1,0,1:0:0:0:
51,283,172954,1,0,3:0:0:0:
57,303,173042,1,2,0:3:0:0:
168,380,173218,1,2,0:3:0:0:
174,360,173306,1,0,3:0:0:0:
131,279,173483,1,0,1:0:0:0:
0,324,173660,6,0,P|51:308|80:281,1,62.3999971435548,2|0,0:0|0:0,0:0:0:0:
176,203,173836,2,0,B|224:136|205:53|205:53|189:86|203:121,1,216.000008239746,12|0,0:0|0:0,0:0:0:0:
265,196,174189,2,0,P|300:211|360:198,1,72.0000027465821,0|0,1:0|0:0,0:0:0:0:
421,92,174365,1,0,3:0:0:0:
417,56,174453,1,2,3:2:0:0:
398,25,174541,1,0,3:0:0:0:
303,92,174718,5,2,0:0:0:0:
510,182,174895,1,0,1:0:0:0:
314,104,175071,5,2,0:0:0:0:
314,104,175160,1,2,0:0:0:0:
314,104,175248,1,10,0:0:0:0:
460,282,175424,1,8,0:0:0:0:
318,108,175601,5,0,1:0:0:0:
359,339,175777,1,8,0:0:0:0:
322,112,175954,5,8,0:0:0:0:
307,182,176042,1,8,0:0:0:0:
242,213,176130,1,8,0:0:0:0:
173,180,176218,1,8,0:0:0:0:
74,137,176307,5,0,1:0:0:0:
39,145,176395,1,8,0:0:0:0:
11,175,176483,1,8,0:0:0:0:
9,211,176571,1,8,0:0:0:0:
26,237,176660,6,0,B|26:176|67:131|137:138|172:180|172:180|136:93,1,288.000010986329,4|0,0:1|1:0,0:0:0:0:
449,0,177189,5,0,3:0:0:0:
447,7,177277,1,0,3:0:0:0:
445,14,177365,5,10,0:0:0:0:
420,84,177483,1,2,0:3:0:0:
345,95,177601,1,2,0:3:0:0:
292,41,177718,2,0,P|264:20|209:15,1,62.3999971435548,2|0,1:2|0:0,0:0:0:0:
322,168,177895,2,0,P|288:186|305:305,1,124.79999428711,2|10,0:0|0:0,0:0:0:0:
336,365,178189,5,2,0:3:0:0:
408,324,178307,1,2,0:3:0:0:
482,359,178424,2,0,B|515:370|515:370|496:337,1,62.3999971435548,0|0,1:0|0:0,0:0:0:0:
326,172,178601,5,2,0:0:0:0:
326,172,178689,2,0,B|271:152|237:196|237:196|185:176,1,144.000005493164,0|0,3:0|0:0,0:0:0:0:
139,125,178954,2,0,L|131:68,1,48,2|0,0:0|0:0,0:0:0:0:
38,0,179130,5,0,1:0:0:0:
18,32,179218,1,0,3:0:0:0:
12,70,179307,1,0,3:0:0:0:
23,106,179395,1,0,3:0:0:0:
72,173,179483,5,12,0:0:0:0:
63,178,179571,1,0,0:0:0:0:
54,182,179660,1,2,0:3:0:0:
45,186,179748,1,0,0:0:0:0:
99,250,179836,5,0,1:0:0:0:
132,276,179924,1,0,0:0:0:0:
138,318,180012,1,2,0:3:0:0:
120,357,180101,1,0,0:0:0:0:
172,292,180189,5,8,0:0:0:0:
200,288,180277,1,0,0:0:0:0:
228,290,180365,1,2,0:3:0:0:
253,304,180454,1,0,0:0:0:0:
310,362,180542,5,0,1:0:0:0:
333,366,180630,1,0,0:0:0:0:
356,364,180718,1,2,0:3:0:0:
379,357,180807,1,0,0:0:0:0:
399,344,180895,6,0,P|405:311|420:268,1,62.3999971435548,8|0,0:0|0:0,0:0:0:0:
269,181,181071,1,2,3:3:0:0:
269,181,181160,1,0,3:0:0:0:
269,181,181248,2,0,P|263:148|248:105,1,62.3999971435548,0|0,1:0|0:0,0:0:0:0:
447,13,181424,5,2,0:3:0:0:
437,56,181513,1,0,0:0:0:0:
400,79,181601,1,8,0:0:0:0:
357,71,181689,1,0,0:0:0:0:
334,33,181777,1,2,0:3:0:0:
292,16,181866,1,0,0:0:0:0:
250,28,181954,2,0,P|224:24|179:6,1,62.3999971435548,0|0,1:0|0:0,0:0:0:0:
344,194,182130,2,0,P|373:183|403:177,1,62.3999971435548,2|2,0:0|0:0,0:0:0:0:
236,297,182307,5,4,3:1:0:0:
190,275,182395,1,0,3:0:0:0:
147,300,182483,1,0,3:3:0:0:
99,285,182571,1,0,3:0:0:0:
58,315,182660,2,0,B|19:331|19:331|32:298,1,62.3999971435548,0|0,1:0|0:0,0:0:0:0:
204,171,182836,2,0,B|243:187|243:187|235:168,1,62.3999971435548,2|0,0:3|0:0,0:0:0:0:
108,21,183012,5,8,0:0:0:0:
116,72,183101,1,0,0:0:0:0:
85,114,183189,1,2,0:3:0:0:
33,117,183277,1,0,0:0:0:0:
2,75,183365,2,0,L|8:4,1,57.5999982421876,0|0,1:0|0:0,0:0:0:0:
103,227,183542,2,0,L|97:298,1,57.5999982421876,2|0,0:3|0:0,0:0:0:0:
275,74,183718,6,0,P|245:73|204:55,1,67.1999979492188,8|0,3:2|0:0,0:0:0:0:
321,266,183895,2,0,P|291:267|250:285,1,67.1999979492188,0|0,3:0|0:0,0:0:0:0:
405,79,184071,6,0,P|406:38|419:-7,1,67.1999979492188,0|0,1:0|0:0,0:0:0:0:
472,264,184248,2,0,P|471:305|458:350,1,67.1999979492188
276,173,184424,6,0,B|323:174|323:174|356:191|356:191|428:195,1,144.000005493164,12|0,0:0|0:0,0:0:0:0:
492,153,184689,1,0,0:0:0:0:
492,153,184777,2,0,B|506:123|506:123|498:92,1,62.3999971435548,0|0,1:0|0:0,0:0:0:0:
321,266,184954,2,0,B|307:296|307:296|315:327,1,62.3999971435548
243,90,185130,6,0,P|175:12|76:37,1,216.000008239746,4|0,0:1|0:0,0:0:0:0:
20,129,185483,5,2,1:2:0:0:
31,150,185571,1,2,0:0:0:0:
102,195,185660,5,0,3:0:0:0:
91,210,185748,1,0,3:0:0:0:
78,224,185836,2,0,P|57:234|15:234,1,62.3999971435548,10|0,0:0|0:0,0:0:0:0:
243,90,186012,2,0,P|264:80|306:80,1,62.3999971435548,2|0,0:0|0:0,0:0:0:0:
429,220,186189,5,0,1:0:0:0:
436,238,186277,1,0,3:0:0:0:
443,256,186365,2,0,B|466:290|466:290|478:254,1,67.1999979492188,2|0,0:3|0:0,0:0:0:0:
397,40,186542,5,12,0:0:0:0:
373,80,186630,1,0,3:0:0:0:
330,99,186718,1,10,0:0:0:0:
283,91,186807,1,0,3:0:0:0:
222,47,186895,5,0,1:0:0:0:
224,41,186983,1,0,3:0:0:0:
227,35,187071,1,10,0:0:0:0:
230,29,187160,1,0,3:0:0:0:
161,0,187248,5,10,0:0:0:0:
116,30,187336,1,8,0:0:0:0:
104,82,187424,1,10,0:0:0:0:
129,128,187512,1,8,0:0:0:0:
59,83,187601,5,6,1:2:0:0:
0,129,187689,5,10,0:0:0:0:
8,179,187777,5,10,0:0:0:0:
42,206,187865,5,10,0:0:0:0:
74,205,187954,86,0,B|116:183|161:195|185:222|193:269|193:269|205:237|173:173|173:173|159:134|153:70|209:13|278:5|329:28|352:52|359:79|359:79|345:109|306:125|267:123,1,672,4|2,0:1|0:0,0:0:0:0:
205,79,190601,5,8,0:0:0:0:
205,79,190777,2,0,B|186:117|204:196|284:195|284:195|409:285|261:432|172:260|285:195|285:195|314:162|345:125|319:64|260:84|279:129,1,672,10|2,0:0|0:0,0:0:0:0:
344,190,193424,5,8,0:0:0:0:
344,190,193601,2,0,B|382:126|485:154|475:290|400:256|392:351,1,288,14|2,0:0|0:0,0:0:0:0:
392,349,195012,2,0,B|334:271|288:344|207:238|276:158|344:190,1,288,2|2,0:0|0:0,0:0:0:0:
444,208,196248,5,8,0:0:0:0:
444,208,196424,2,0,B|500:174|505:54|462:27|462:27|458:73|506:103,1,288,10|2,0:0|0:0,0:0:0:0:
498,98,197836,2,0,B|454:23|326:31|326:31|379:29|426:58,1,288,2|2,0:0|0:0,0:0:0:0:
337,81,199071,5,8,0:0:0:0:
337,81,199248,2,0,B|369:140|433:136|433:136|511:139|577:241|515:393|351:304|371:179|431:136|431:136|549:86|514:-17|463:-28|405:-1|417:54,1,806.399975390626,6|2,0:1|0:0,0:0:0:0:
382,153,201895,5,8,0:0:0:0:
382,153,202071,2,0,B|347:208|264:217|121:320|16:-110|428:-65|515:143|229:289|283:176|290:292|224:349|94:255|14:155|197:182|223:31|82:-20|38:58,1,806.399975390626,10|2,0:0|0:0,0:0:0:0:
0,142,204718,5,8,0:0:0:0:
0,142,204895,2,0,B|21:186|-1:236|-1:236|12:271,1,134.399995898438,14|2,0:0|0:0,0:0:0:0:
69,326,205424,2,0,P|116:338|154:268,1,134.399995898438,0|0,3:0|0:0,0:0:0:0:
155,273,205954,1,2,0:0:0:0:
229,208,206130,5,0,3:0:0:0:
229,208,206218,1,0,3:0:0:0:
229,208,206307,2,0,P|208:144|235:83,1,134.399995898438,2|2,3:2|0:0,0:0:0:0:
294,36,206836,2,0,L|432:24,1,134.399995898438,0|0,3:0|0:0,0:0:0:0:
427,24,207365,1,2,0:0:0:0:
512,90,207542,5,2,0:0:0:0:
512,90,207630,1,2,0:0:0:0:
512,90,207718,1,4,1:2:0:0:
294,36,208071,1,0,1:0:0:0:
512,90,208424,5,4,1:2:0:0:
294,36,208601,1,0,1:0:0:0:
78,198,208954,5,4,1:1:0:0:
407,157,209483,1,0,1:0:0:0:
78,198,209836,5,4,1:2:0:0:
407,157,210012,2,0,P|419:127|385:84,1,72,0|0,1:0|0:0,0:0:0:0:
331,62,210365,6,0,L|311:91,1,36.0000013732911,8|8,0:0|0:0,0:0:0:0:
259,144,210542,6,0,B|217:180|170:156|170:156|146:107|91:95,1,187.199991430664,4|0,0:1|0:0,0:0:0:0:
28,82,210895,1,2,1:2:0:0:
242,24,211071,1,2,3:2:0:0:
230,19,211159,1,0,3:0:0:0:
218,12,211248,1,10,3:2:0:0:
107,9,211424,5,2,0:0:0:0:
310,91,211600,1,2,1:2:0:0:
395,48,211777,5,2,3:2:0:0:
406,43,211865,1,0,3:0:0:0:
417,37,211953,1,8,3:2:0:0:
493,189,212130,2,0,B|510:199|516:220|516:220|533:180|489:148,1,124.79999428711,2|0,0:0|1:0,0:0:0:0:
315,294,212483,2,0,B|271:326|288:366|288:366|294:345|314:333,1,124.79999428711,2|8,0:0|0:0,0:0:0:0:
254,128,212836,6,0,P|230:109|200:99,1,62.3999971435548,2|0,0:0|3:0,0:0:0:0:
125,83,213012,2,0,B|86:80|49:115|49:115|43:81|71:46|128:55,1,187.199991430664,0|0,1:0|0:0,0:0:0:0:
200,99,213365,6,0,B|245:104|279:157|279:157|288:103|248:81|204:71,1,216.000008239746,8|0,0:0|0:0,0:0:0:0:
125,83,213718,1,2,1:2:0:0:
189,249,213895,5,2,0:0:0:0:
207,281,213983,1,2,0:3:0:0:
236,306,214071,1,8,3:2:0:0:
232,267,214160,1,2,0:3:0:0:
213,233,214248,1,2,0:0:0:0:
125,83,214424,1,0,1:0:0:0:
50,275,214601,6,0,B|6:311|6:311|-14:201|-14:201|29:154,1,230.4,4|0,1:2|0:0,0:0:0:0:
125,83,214954,2,0,B|93:53|45:56|45:56|94:68|133:102|126:160,1,230.4,2|0,1:2|0:0,0:0:0:0:
157,298,215307,6,0,B|186:381|290:361|290:361|308:317|345:292,1,230.4,4|0,1:2|0:0,0:0:0:0:
459,286,215660,2,0,B|483:319|519:325|519:325|446:275|461:160,1,230.4,2|0,1:2|0:0,0:0:0:0:
454,79,216012,6,0,B|482:18|408:-27|324:43|396:88|402:122|373:168,1,249.599988574219,4|2,1:1|0:0,0:0:0:0:
241,265,216542,1,0,1:0:0:0:
223,239,216630,1,2,0:3:0:0:
196,223,216718,1,2,0:0:0:0:
166,218,216806,1,2,0:3:0:0:
136,226,216895,2,0,P|183:269|251:260,1,124.79999428711,8|2,0:0|0:0,0:0:0:0:
113,95,217248,5,0,1:0:0:0:
40,158,217424,2,0,B|-1:185|-1:185|33:95,1,124.79999428711,2|8,0:0|0:0,0:0:0:0:
173,22,217777,1,2,0:0:0:0:
242,179,217954,1,0,1:0:0:0:
252,186,218042,1,2,0:3:0:0:
342,9,218218,1,2,0:3:0:0:
354,8,218306,1,8,0:0:0:0:
512,150,218483,6,0,L|437:137,1,62.3999971435548,2|0,0:0|0:0,0:0:0:0:
403,243,218660,6,0,L|341:232,1,62.3999971435548,0|0,1:0|0:0,0:0:0:0:
314,93,218836,6,0,L|252:82,1,62.3999971435548,2|0,0:0|0:0,0:0:0:0:
111,137,219012,6,0,P|77:187|84:248,1,124.79999428711,8|0,0:0|3:0,0:0:0:0:
128,310,219277,1,0,3:0:0:0:
181,362,219365,2,0,L|310:382,1,124.79999428711,0|0,1:0|0:0,0:0:0:0:
502,330,219718,6,0,P|513:295|506:243,1,62.3999971435548,8|0,0:0|3:0,0:0:0:0:
490,196,219895,2,0,B|450:159|461:104|461:104|485:121|489:160,1,158.400004833985,2|0,0:0|0:0,0:0:0:0:
388,239,220248,6,0,B|362:278|299:298|244:266|244:266|237:228|200:192,1,230.4,4|0,1:2|0:0,0:0:0:0:
74,119,220601,6,0,B|135:114|174:63|150:2|150:2|119:29|132:69,1,230.4,2|0,1:2|0:0,0:0:0:0:
213,189,220954,6,0,B|259:222|323:190|323:190|299:119|236:114,1,230.4,4|0,1:2|0:0,0:0:0:0:
114,213,221307,6,0,B|61:248|62:321|98:365|98:365|158:337,1,230.4,2|0,1:2|0:0,0:0:0:0:
163,334,221660,6,0,L|179:277,1,48,0|0,1:0|3:0,0:0:0:0:
213,189,221836,6,0,B|259:222|323:190|323:190|339:133|287:118,1,201.599993847656,4|0,0:1|0:0,0:0:0:0:
293,120,222189,1,2,1:2:0:0:
451,223,222365,1,2,3:0:0:0:
463,220,222454,1,0,3:0:0:0:
475,217,222542,1,8,3:2:0:0:
510,148,222718,5,2,0:0:0:0:
355,314,222895,1,2,1:2:0:0:
309,379,223071,5,2,3:2:0:0:
298,374,223160,1,0,3:0:0:0:
287,369,223248,1,8,3:2:0:0:
320,190,223424,2,0,B|317:169|297:159|297:159|277:204|324:231,1,124.79999428711,2|0,0:0|1:0,0:0:0:0:
497,366,223777,2,0,B|520:380|535:361|535:361|506:327|459:348,1,124.79999428711,2|8,0:0|0:0,0:0:0:0:
124,344,224130,6,0,P|89:367|25:334,1,62.3999971435548,2|0,0:0|3:0,0:0:0:0:
27,291,224307,2,0,B|-29:246|31:125|108:206|76:240,1,187.199991430664,0|0,1:0|0:0,0:0:0:0:
70,368,224660,6,0,P|12:345|41:294,1,124.79999428711,8|0,0:0|0:0,0:0:0:0:
201,185,225012,1,2,1:2:0:0:
31,69,225189,5,2,0:3:0:0:
15,35,225277,1,2,0:0:0:0:
34,10,225365,1,8,3:2:0:0:
37,40,225454,1,2,0:0:0:0:
8,65,225542,1,2,0:3:0:0:
82,156,225718,1,2,1:2:0:0:
213,10,225895,6,0,B|191:75|267:121|316:86|316:86|312:41|337:14,1,230.4,4|0,1:2|0:0,0:0:0:0:
431,27,226248,2,0,B|464:67|426:118|417:90|381:147|426:204|426:204|428:178|442:155,1,230.4,2|0,1:2|0:0,0:0:0:0:
509,98,226601,6,0,B|462:50|363:67|349:190|437:236,1,230.4,4|0,1:2|0:0,0:0:0:0:
497,366,226954,2,0,B|518:386|580:341|533:256|443:247|398:325,1,230.4,2|0,1:2|0:0,0:0:0:0:
320,290,227307,6,0,B|357:378|251:411|176:350|220:278,1,249.599988574219,4|2,1:0|0:0,0:0:0:0:
111,159,227836,1,0,1:0:0:0:
88,136,227924,1,2,0:3:0:0:
59,125,228012,1,0,0:0:0:0:
28,125,228100,1,2,0:3:0:0:
0,138,228189,2,0,P|53:172|119:151,1,124.79999428711,8|0,0:0|0:0,0:0:0:0:
274,18,228542,5,2,1:2:0:0:
277,100,228718,2,0,B|305:80|305:80|297:3|297:3|274:18,1,139.200004248047,2|8,0:0|0:0,0:0:0:0:
190,86,229071,1,2,0:0:0:0:
348,235,229248,1,0,1:0:0:0:
356,244,229336,1,2,0:3:0:0:
491,36,229512,1,2,0:3:0:0:
499,27,229600,1,8,0:0:0:0:
341,174,229777,6,0,L|351:260,1,62.3999971435548,2|0,0:0|0:0,0:0:0:0:
470,376,229954,6,0,L|463:315,1,62.3999971435548,2|0,1:2|0:0,0:0:0:0:
374,113,230130,6,0,B|353:80|272:96|269:198|353:238,1,216.000008239746,4|0,1:2|0:0,0:0:0:0:
347,235,230483,1,0,0:0:0:0:
221,15,230660,6,0,B|154:-11|97:31|121:60|72:101|16:76,1,230.4,4|0,1:2|0:0,0:0:0:0:
15,67,231012,2,0,P|39:94|46:147,1,52.8000016113282,0|0,1:0|3:0,0:0:0:0:
221,15,231189,2,0,P|228:91|147:160,1,144.000005493164,2|0,1:2|0:0,0:0:0:0:
39,376,231542,6,0,B|-6:319|13:236|88:191|157:235|157:235|132:265|85:248,1,326.400006225586,4|2,1:1|0:0,0:0:0:0:
11,159,232071,2,0,P|21:60|168:46,1,259.199992089844,4|0,1:2|0:0,0:0:0:0:
233,85,232424,2,0,B|257:76|257:76|233:62,1,52.8000016113282,0|0,1:0|3:0,0:0:0:0:
11,159,232601,2,0,P|72:212|190:142,1,230.4,2|0,1:2|0:0,0:0:0:0:
293,15,232954,6,0,B|317:3|317:3|378:50|331:110|331:110|294:155|361:205|385:157,1,273.599992694092,4|0,1:1|0:0,0:0:0:0:
409,168,233307,2,0,P|418:130|396:115,1,52.8000016113282,2|2,0:3|0:0,0:0:0:0:
266,267,233483,6,0,B|246:291|246:291|237:341|279:375,1,124.79999428711,0|0,1:0|0:0,0:0:0:0:
512,304,233836,1,10,0:0:0:0:
491,282,233924,1,0,3:0:0:0:
462,271,234012,1,2,3:0:0:0:
431,271,234100,1,0,3:0:0:0:
403,284,234189,2,0,P|456:318|522:297,1,124.79999428711,0|2,1:0|0:0,0:0:0:0:
235,172,234542,6,0,P|175:158|125:192,1,124.79999428711,14|0,0:0|0:0,0:0:0:0:
47,370,234895,1,0,1:0:0:0:
42,349,234983,1,0,3:0:0:0:
38,329,235071,1,0,3:0:0:0:
125,192,235248,5,8,0:0:0:0:
93,27,235424,1,0,1:0:0:0:
121,288,235601,5,0,1:0:0:0:
175,338,235689,1,0,1:0:0:0:
250,335,235777,1,8,1:2:0:0:
312,295,235865,1,8,1:2:0:0:
330,224,235953,5,4,0:1:0:0:
233,188,236130,1,2,0:0:0:0:
347,324,236307,1,2,1:2:0:0:
413,159,236483,2,0,B|406:108|406:108|376:152,1,105.600003222656,2|8,0:0|0:0,0:0:0:0:
347,324,236836,2,0,L|468:310,1,105.600003222656,2|0,0:0|1:0,0:0:0:0:
405,109,237189,5,2,3:2:0:0:
409,132,237277,1,0,3:0:0:0:
413,159,237365,1,8,3:2:0:0:
496,188,237542,1,2,0:0:0:0:
328,11,237718,1,2,1:2:0:0:
254,61,237895,2,0,B|202:67|202:67|204:71|204:71|203:68|203:68|110:79,1,105.600003222656,2|8,0:0|0:0,0:0:0:0:
51,15,238248,1,2,0:0:0:0:
7,195,238424,1,0,1:0:0:0:
187,239,238601,5,2,3:2:0:0:
195,232,238689,1,0,3:0:0:0:
203,225,238777,2,0,P|123:203|51:281,1,158.400004833985,8|0,3:2|0:0,0:0:0:0:
58,325,239130,2,0,B|97:364|97:364|100:306,1,105.600003222656,0|0,1:0|0:0,0:0:0:0:
24,90,239483,2,0,L|1:235,1,105.600003222656,8|0,0:0|0:0,0:0:0:0:
203,225,239836,1,0,1:0:0:0:
159,10,240012,1,0,1:0:0:0:
195,232,240189,5,6,0:0:0:0:
12,84,240365,1,2,1:2:0:0:
398,31,240718,1,2,1:2:0:0:
12,84,241071,1,2,1:2:0:0:
57,224,241248,5,0,1:0:0:0:
79,225,241336,1,0,1:0:0:0:
101,215,241424,1,0,1:0:0:0:
114,196,241512,1,0,1:0:0:0:
116,171,241601,5,4,0:1:0:0:
43,7,241777,1,2,0:0:0:0:
110,55,241954,1,2,1:2:0:0:
239,7,242130,2,0,B|272:14|272:14|310:-2|310:-2|339:5,1,105.600003222656,2|8,0:0|0:0,0:0:0:0:
435,205,242483,2,0,B|450:239|439:257|439:257|408:242|406:211,1,105.600003222656,2|0,0:0|1:0,0:0:0:0:
309,30,242836,5,2,3:2:0:0:
306,40,242924,1,0,3:2:0:0:
303,50,243012,1,8,3:2:0:0:
258,112,243189,1,2,0:0:0:0:
411,185,243365,1,2,1:2:0:0:
439,257,243542,2,0,P|480:252|485:183,1,105.600003222656,2|8,0:0|0:0,0:0:0:0:
343,362,243895,2,0,B|292:366|292:366|291:371|291:371|211:378,1,105.600003222656,2|0,0:0|1:0,0:0:0:0:
24,226,244248,5,0,3:0:0:0:
24,226,244336,1,0,3:0:0:0:
24,226,244424,2,0,B|35:191|35:191|78:159|158:197|132:279,1,211.200006445313,10|0,3:2|1:0,0:0:0:0:
0,365,244954,2,0,B|49:360|49:360|50:355|50:355|101:351,1,105.600003222656,2|8,0:0|0:0,0:0:0:0:
209,289,245307,5,2,0:0:0:0:
225,365,245483,1,2,1:2:0:0:
194,212,245660,1,6,1:2:0:0:
406,8,246012,5,6,1:2:0:0:
375,157,246188,1,2,1:2:0:0:
422,4,246365,1,2,1:2:0:0:
203,11,246718,5,2,1:2:0:0:
256,89,246895,1,0,1:0:0:0:
240,106,246983,1,0,1:0:0:0:
218,115,247071,1,0,1:0:0:0:
195,115,247159,1,0,1:0:0:0:
173,105,247247,5,4,0:1:0:0:
17,45,247424,1,2,0:0:0:0:
9,127,247601,1,2,1:2:0:0:
105,10,247777,2,0,B|57:3|25:24|25:24|8:69,1,105.600003222656,2|8,0:0|0:0,0:0:0:0:
99,204,248130,2,0,L|85:83,1,105.600003222656,2|0,0:0|1:0,0:0:0:0:
31,289,248483,5,2,3:2:0:0:
29,299,248571,1,0,3:2:0:0:
27,309,248660,1,8,3:2:0:0:
97,358,248836,1,2,0:0:0:0:
281,275,249012,1,2,1:2:0:0:
211,315,249189,2,0,P|177:249|227:218,1,105.600003222656,2|8,0:0|0:0,0:0:0:0:
327,56,249542,1,2,0:0:0:0:
264,6,249718,1,0,1:0:0:0:
390,111,249895,5,2,3:2:0:0:
391,121,249983,1,0,3:2:0:0:
392,131,250071,2,0,P|447:120|475:17,1,158.400004833985,8|0,3:2|0:0,0:0:0:0:
477,17,250424,2,0,P|458:47|491:120,1,105.600003222656,0|0,1:0|0:0,0:0:0:0:
503,252,250777,1,8,0:0:0:0:
289,286,250954,1,0,0:0:0:0:
457,347,251130,2,0,B|460:330|460:330|414:278|414:278|418:256,1,105.600003222656,0|0,1:0|1:0,0:0:0:0:
343,157,251483,5,6,0:0:0:0:
284,303,251660,1,2,1:2:0:0:
197,19,252012,1,2,1:2:0:0:
284,303,252365,1,2,1:2:0:0:
157,345,252542,5,0,1:0:0:0:
135,332,252631,1,0,1:0:0:0:
112,332,252719,1,0,1:0:0:0:
91,344,252807,1,0,1:0:0:0:
79,363,252895,5,4,0:1:0:0:
156,241,253071,1,2,0:0:0:0:
34,164,253248,1,2,1:2:0:0:
111,42,253424,2,0,B|91:26|91:26|62:12|21:57|82:89,1,105.600003222656,2|8,0:0|0:0,0:0:0:0:
156,241,253777,2,0,L|277:227,1,105.600003222656,2|0,0:0|1:0,0:0:0:0:
450,109,254130,5,2,3:2:0:0:
448,120,254218,1,0,3:2:0:0:
446,134,254306,1,8,3:2:0:0:
464,221,254483,1,2,0:0:0:0:
361,106,254660,1,2,1:2:0:0:
512,74,254836,2,0,B|533:54|523:26|523:26|493:27|477:47,1,105.600003222656,2|8,0:0|0:0,0:0:0:0:
309,249,255189,2,0,B|303:203|303:203|306:202|306:202|302:204|302:204|296:152,1,105.600003222656,2|0,3:2|1:2,0:0:0:0:
264,1,255542,5,0,0:0:0:0:
269,7,255630,1,0,0:0:0:0:
274,12,255718,2,0,B|248:61|188:80|129:61|129:61|89:24,1,211.200006445313,10|0,0:0|1:0,0:0:0:0:
65,209,256248,2,0,P|59:144|25:103,1,105.600003222656,2|8,0:0|0:0,0:0:0:0:
276,184,256601,2,0,P|213:186|170:129,1,105.600003222656,2|0,0:0|1:0,0:0:0:0:
26,331,256954,6,0,B|58:300|58:300|117:281|177:300|203:349,1,211.200006445313,4|4,1:2|1:2,0:0:0:0:
203,349,257483,1,0,1:2:0:0:
388,283,257660,2,0,B|411:273|439:286|439:286|451:262|480:254,1,105.600003222656,4|0,1:2|0:0,0:0:0:0:
344,62,258012,1,2,0:3:0:0:
238,277,258189,5,8,0:0:0:0:
290,284,258277,1,8,0:0:0:0:
315,232,258365,2,0,P|305:160|264:78,1,158.400004833985,4|0,1:2|0:0,0:0:0:0:
258,70,258718,1,4,1:2:0:0:
179,211,258895,1,0,1:0:0:0:
328,363,259071,2,0,P|409:366|479:221,1,211.200006445313,4|2,1:2|0:3,0:0:0:0:
512,44,259601,5,8,0:0:0:0:
482,86,259689,1,8,0:0:0:0:
432,95,259777,2,0,P|396:35|268:37,1,180,4|0,1:1|0:0,0:0:0:0:
236,72,260130,2,0,B|232:98|232:98|228:101|228:101|225:129,1,60,4|0,1:2|0:0,0:0:0:0:
294,248,260307,2,0,B|297:274|297:274|301:277|301:277|304:305,1,60,0|0,1:0|0:0,0:0:0:0:
218,362,260483,2,0,P|131:359|80:289,1,180,4|0,1:1|0:0,0:0:0:0:
79,288,260836,1,2,0:3:0:0:
0,78,261012,5,0,1:0:0:0:
45,84,261100,1,0,1:0:0:0:
80,115,261188,1,0,1:0:0:0:
111,152,261276,1,0,1:0:0:0:
157,161,261364,1,2,0:0:0:0:
164,150,262777,5,4,0:1:0:0:
256,192,262865,12,2,265601,0:0:0:0:
