osu file format v14

[General]
AudioFilename: audio.ogg
AudioLeadIn: 0
PreviewTime: 35324
Countdown: 0
SampleSet: Soft
StackLeniency: 0.7
Mode: 0
LetterboxInBreaks: 0
WidescreenStoryboard: 1

[Editor]
Bookmarks: 11238,22209,30438,35924,68838
DistanceSpacing: 0.3
BeatDivisor: 4
GridSize: 32
TimelineZoom: 1.8

[Metadata]
Title:STUDY STEADY
TitleUnicode:STUDY§STEADY
Artist:solfa feat. Shimotsuki Haruka + Ceui
ArtistUnicode:solfa feat. 霜月はるか+Ceui
Creator:tomatas95
Version:Suou's Insane
Source:スタディ§ステディ2
Tags:eroge Study § Steady 2 video game marmalade galgame visual novel vn japanese opening op shimotsukin gazimal shirahane suou _xyliac pop j-pop jpop
BeatmapID:4018375
BeatmapSetID:1907991

[Difficulty]
HPDrainRate:5.2
CircleSize:4
OverallDifficulty:8.2
ApproachRate:8.8
SliderMultiplier:1.7
SliderTickRate:1

[Events]
//Background and Video events
0,0,"YaeDaisuki.jpg",0,0
Video,0,"lewdvideo.mp4"
//Break Periods
//Storyboard Layer 0 (Background)
//Storyboard Layer 1 (Fail)
//Storyboard Layer 2 (Pass)
//Storyboard Layer 3 (Foreground)
//Storyboard Layer 4 (Overlay)
//Storyboard Sound Samples

[TimingPoints]
267,342.857142857143,4,2,1,40,1,0
267,-166.666666666667,4,2,1,40,0,0
2838,-166.666666666667,4,2,1,30,0,0
3009,-166.666666666667,4,2,1,40,0,0
9867,-166.666666666667,4,2,1,5,0,0
10038,-166.666666666667,4,2,1,35,0,0
10124,-166.666666666667,4,2,1,45,0,0
10552,-166.666666666667,4,2,1,50,0,0
10895,-166.666666666667,4,2,1,60,0,0
11067,-166.666666666667,4,2,1,15,0,0
11238,-133.333333333333,4,2,1,65,0,0
11581,-133.333333333333,4,2,1,60,0,0
12952,-133.333333333333,4,2,1,55,0,0
13981,-133.333333333333,4,2,1,60,0,0
15695,-133.333333333333,4,2,1,55,0,0
16724,-133.333333333333,4,2,3,60,0,0
17067,-133.333333333333,4,2,1,60,0,0
19809,-133.333333333333,4,2,1,55,0,0
21181,-133.333333333333,4,2,1,60,0,0
21524,-133.333333333333,4,2,1,65,0,0
21867,-133.333333333333,4,2,1,70,0,0
22209,-117.647058823529,4,2,4,75,0,0
22552,-117.647058823529,4,2,6,70,0,0
23581,-117.647058823529,4,2,6,75,0,0
23752,-117.647058823529,4,2,6,70,0,0
23838,-117.647058823529,4,2,6,5,0,0
23924,-117.647058823529,4,2,6,70,0,0
24524,-117.647058823529,4,2,6,5,0,0
24609,-117.647058823529,4,2,6,70,0,0
24952,-117.647058823529,4,2,6,75,0,0
25123,-117.647058823529,4,2,6,70,0,0
26324,-117.647058823529,4,2,6,75,0,0
26495,-117.647058823529,4,2,6,70,0,0
27695,-117.647058823529,4,2,6,65,0,0
27866,-117.647058823529,4,2,6,70,0,0
28209,-117.647058823529,4,2,3,75,0,0
28467,-117.647058823529,4,2,6,5,0,0
28552,-117.647058823529,4,2,6,70,0,0
28895,-117.647058823529,4,2,1,75,0,0
29238,-117.647058823529,4,2,6,70,0,0
30438,-111.111111111111,4,2,4,75,0,0
30781,-111.111111111111,4,2,6,70,0,0
31809,-111.111111111111,4,2,6,75,0,0
31981,-111.111111111111,4,2,6,70,0,0
32067,-117.647058823529,4,2,6,5,0,0
32152,-111.111111111111,4,2,6,70,0,0
33181,-111.111111111111,4,2,1,75,0,0
33352,-111.111111111111,4,2,1,70,0,0
33695,-111.111111111111,4,2,1,75,0,0
33867,-111.111111111111,4,2,1,70,0,0
34209,-111.111111111111,4,2,1,75,0,0
34381,-111.111111111111,4,2,3,80,0,0
34638,-117.647058823529,4,2,6,5,0,0
34724,-111.111111111111,4,2,1,75,0,0
35238,-111.111111111111,4,2,1,40,0,0
35924,-90.9090909090909,4,2,4,85,0,1
36267,-90.9090909090909,4,2,1,80,0,1
37895,-90.9090909090909,4,2,1,5,0,1
37981,-90.9090909090909,4,2,1,80,0,1
40638,-90.9090909090909,4,2,1,5,0,1
40724,-90.9090909090909,4,2,1,80,0,1
41409,-90.9090909090909,4,2,1,75,0,1
41924,-90.9090909090909,4,2,1,80,0,1
42181,-90.9090909090909,4,2,1,5,0,1
42267,-90.9090909090909,4,2,1,80,0,1
42781,-90.9090909090909,4,2,1,75,0,1
43295,-90.9090909090909,4,2,1,80,0,1
43552,-90.9090909090909,4,2,1,5,0,1
43638,-90.9090909090909,4,2,1,80,0,1
43981,-90.9090909090909,4,2,1,75,0,1
44152,-90.9090909090909,4,2,1,80,0,1
44324,-90.9090909090909,4,2,1,75,0,1
44924,-90.9090909090909,4,2,1,5,0,1
45009,-90.9090909090909,4,2,1,80,0,1
45352,-90.9090909090909,4,2,3,80,0,1
45609,-90.9090909090909,4,2,3,5,0,1
45695,-90.9090909090909,4,2,1,80,0,1
46295,-90.9090909090909,4,2,1,5,0,1
46381,-90.9090909090909,4,2,1,70,0,1
46552,-90.9090909090909,4,2,1,75,0,1
46724,-90.9090909090909,4,2,1,80,0,1
46895,-90.9090909090909,4,2,4,85,0,1
47238,-90.9090909090909,4,2,1,80,0,1
48867,-90.9090909090909,4,2,1,5,0,1
48953,-90.9090909090909,4,2,1,80,0,1
50667,-90.9090909090909,4,2,1,75,0,1
50838,-90.9090909090909,4,2,1,80,0,1
51524,-90.9090909090909,4,2,1,75,0,1
51867,-90.9090909090909,4,2,1,70,0,1
52038,-90.9090909090909,4,2,1,75,0,1
52209,-90.9090909090909,4,2,1,80,0,1
52381,-90.9090909090909,4,2,1,85,0,1
52724,-90.9090909090909,4,2,1,80,0,1
53152,-90.9090909090909,4,2,1,5,0,1
53238,-90.9090909090909,4,2,1,80,0,1
54524,-90.9090909090909,4,2,1,5,0,1
54610,-90.9090909090909,4,2,1,80,0,1
55895,-90.9090909090909,4,2,1,5,0,1
55981,-90.9090909090909,4,2,1,80,0,1
56495,-90.9090909090909,4,2,4,80,0,1
56838,-90.9090909090909,4,2,1,80,0,1
57181,-90.9090909090909,4,2,1,70,0,1
57524,-90.9090909090909,4,2,1,75,0,1
57695,-90.9090909090909,4,2,1,80,0,1
57867,-90.9090909090909,4,2,1,85,0,1
59238,-90.9090909090909,4,2,4,85,0,1
59581,-90.9090909090909,4,2,1,85,0,1
59924,-90.9090909090909,4,2,1,75,0,1
60609,-90.9090909090909,4,2,1,80,0,1
61124,-90.9090909090909,4,2,6,85,0,1
61381,-90.9090909090909,4,2,6,5,0,1
61467,-90.9090909090909,4,2,1,75,0,1
61638,-90.9090909090909,4,2,6,85,0,1
61809,-90.9090909090909,4,2,1,80,0,1
62667,-90.9090909090909,4,2,1,70,0,1
62838,-90.9090909090909,4,2,1,75,0,1
63009,-90.9090909090909,4,2,1,80,0,1
63352,-90.9090909090909,4,2,4,85,0,1
63524,-90.9090909090909,4,2,1,85,0,1
64895,-90.9090909090909,4,2,1,80,0,1
65752,-90.9090909090909,4,2,1,75,0,1
65924,-90.9090909090909,4,2,1,70,0,1
66095,-90.9090909090909,4,2,4,85,0,1
66267,-90.9090909090909,4,2,1,80,0,1
66609,-90.9090909090909,4,2,6,85,0,1
66867,-90.9090909090909,4,2,6,5,0,1
66952,-90.9090909090909,4,2,1,75,0,1
67124,-90.9090909090909,4,2,6,85,0,1
67467,-90.9090909090909,4,2,1,75,0,1
67638,-90.9090909090909,4,2,6,80,0,1
67981,-90.9090909090909,4,2,6,25,0,1
68152,-90.9090909090909,4,2,1,70,0,1
68838,-80,4,2,1,75,0,0
69181,-80,4,2,1,70,0,0
69352,-80,4,2,1,75,0,0
69695,-80,4,2,1,70,0,0
69867,-80,4,2,4,75,0,0
70209,-80,4,2,1,70,0,0
70895,-80,4,2,1,60,0,0
71581,-80,4,2,1,50,0,0
72267,-80,4,2,1,40,0,0
72952,-80,4,2,1,30,0,0
73638,-80,4,2,1,20,0,0
74324,-80,4,2,1,15,0,0
75009,-80,4,2,1,10,0,0
75695,-80,4,2,1,5,0,0

[Colours]
Combo1 : 249,242,157
Combo2 : 253,185,251
Combo3 : 172,208,249
Combo4 : 210,186,252

[HitObjects]
416,81,267,5,2,0:0:0:0:
416,81,781,2,0,P|420:55|430:32,2,50.9999984436036,2|2|0,0:0|0:0|0:0,0:0:0:0:
423,200,1295,1,2,0:0:0:0:
423,200,1467,2,0,P|391:169|323:176,1,101.999996887207,2|0,0:0|0:0,0:0:0:0:
315,74,1981,2,0,P|272:86|244:148,1,101.999996887207,2|2,0:0|0:0,0:0:0:0:
396,324,3009,5,2,0:0:0:0:
396,324,3524,2,0,P|420:332|445:335,2,50.9999984436036,2|2|0,0:0|0:0|0:0,0:0:0:0:
297,352,4038,1,2,0:0:0:0:
297,352,4209,2,0,P|313:303|319:253,1,101.999996887207,2|0,0:0|0:0,0:0:0:0:
228,232,4724,2,0,P|211:280|205:330,1,101.999996887207,2|2,0:0|0:0,0:0:0:0:
63,200,5581,5,2,0:0:0:0:
63,200,5752,2,0,P|103:170|153:171,1,101.999996887207,2|0,0:0|0:0,0:0:0:0:
228,232,6267,2,0,P|278:233|318:203,1,101.999996887207,2|0,0:0|0:0,0:0:0:0:
338,116,6781,1,2,0:0:0:0:
250,142,6952,1,2,0:0:0:0:
406,176,7124,5,2,0:0:0:0:
357,23,7467,1,2,0:0:0:0:
318,202,7809,1,2,0:0:0:0:
426,90,8152,1,2,0:0:0:0:
270,56,8495,6,0,P|219:51|170:37,1,101.999996887207,2|0,0:0|0:0,0:0:0:0:
134,134,9009,2,0,P|83:138|34:152,1,101.999996887207,2|0,0:0|0:0,0:0:0:0:
66,0,9524,1,2,0:0:0:0:
66,0,9695,2,0,P|69:25|77:49,1,50.9999984436036,2|0,0:0|0:0,0:0:0:0:
234,197,10038,5,2,0:0:0:0:
234,197,10124,1,2,0:0:0:0:
234,197,10209,2,0,B|256:194|276:175|276:175|305:262|379:265|414:226|412:164|364:152,1,280.49999143982,2|0,0:0|0:0,0:0:0:0:
360,161,11238,6,0,P|382:229|391:284,1,127.500004863739,4|0,3:2|3:0,0:0:0:0:
331,362,11752,1,2,0:0:0:0:
331,362,11924,2,0,P|296:350|269:346,1,63.7500024318696,2|2,3:2|0:0,0:0:0:0:
181,249,12267,2,0,P|212:243|242:233,1,63.7500024318696,2|2,3:2|0:0,0:0:0:0:
126,384,12609,6,0,P|120:352|110:322,1,63.7500024318696,0|2,3:2|0:0,0:0:0:0:
42,248,12952,2,0,L|71:114,1,127.500004863739,0|0,3:2|3:0,0:0:0:0:
68,123,13638,1,0,3:0:0:0:
318,299,13981,6,0,P|256:281|193:272,1,127.500004863739,0|0,3:2|3:0,0:0:0:0:
117,322,14495,1,2,0:0:0:0:
117,322,14667,2,0,P|125:352|130:384,1,63.7500024318696,2|2,3:2|0:0,0:0:0:0:
27,282,15009,2,0,P|18:251|13:219,1,63.7500024318696,2|2,3:2|0:0,0:0:0:0:
164,180,15352,6,0,P|133:171|101:166,1,63.7500024318696,0|2,3:0|0:0,0:0:0:0:
197,13,15695,2,0,P|165:7|134:0,1,63.7500024318696,2|0,3:2|0:0,0:0:0:0:
73,78,15952,1,2,0:0:0:0:
79,74,16038,2,0,L|203:102,1,127.500004863739,0|0,3:0|3:0,0:0:0:0:
336,238,16552,1,2,0:0:0:0:
369,154,16724,6,0,P|307:144|261:185,1,127.500004863739,4|0,3:2|3:0,0:0:0:0:
168,200,17238,2,0,P|181:228|187:260,1,63.7500024318696,2|0,0:0|3:0,0:0:0:0:
295,384,17581,2,0,P|301:352|314:323,1,63.7500024318696,2|0,0:0|3:0,0:0:0:0:
396,218,17924,6,0,P|367:231|335:237,1,63.7500024318696,2|0,0:0|3:0,0:0:0:0:
260,94,18267,2,0,P|291:100|320:113,1,63.7500024318696,2|0,0:0|3:0,0:0:0:0:
436,52,18609,2,0,P|432:83|424:114,1,63.7500024318696,2|0,0:0|3:0,0:0:0:0:
483,264,18952,2,0,P|486:232|494:201,1,63.7500024318696,2|0,0:0|3:0,0:0:0:0:
356,329,19295,6,0,P|387:332|418:340,1,63.7500024318696,2|0,0:0|3:0,0:0:0:0:
336,237,19638,1,2,0:0:0:0:
336,237,19809,2,0,P|305:244|273:248,1,63.7500024318696,2|0,3:2|0:0,0:0:0:0:
189,384,20152,2,0,P|183:320|172:257,1,127.500004863739,0|0,3:0|3:0,0:0:0:0:
49,23,20838,5,0,3:0:0:0:
128,62,21009,1,8,0:0:0:0:
55,111,21181,1,10,0:0:0:0:
136,58,21352,1,8,0:0:0:0:
134,150,21524,5,10,0:0:0:0:
48,108,21695,1,8,0:0:0:0:
60,198,21867,1,10,0:0:0:0:
41,105,22038,1,10,0:0:0:0:
139,239,22209,6,0,P|173:228|209:221,1,72.2500013780594,6|0,3:2|0:0,0:0:0:0:
362,137,22552,1,10,0:0:0:0:
262,95,22724,2,0,P|284:166|297:240,1,144.500002756119,2|0,0:0|3:0,0:0:0:0:
288,384,23238,1,10,0:0:0:0:
230,305,23409,1,2,0:0:0:0:
374,357,23581,6,0,P|426:342|479:332,1,108.375002067089,2|0,3:2|0:0,0:0:0:0:
490,320,23924,2,0,P|495:280|469:245,1,72.2500013780594,10|0,0:0|0:0,0:0:0:0:
346,138,24267,2,0,P|360:190|370:243,1,108.375002067089,2|0,3:2|0:0,0:0:0:0:
368,260,24609,1,8,0:0:0:0:
458,151,24781,1,2,0:0:0:0:
458,151,24867,1,2,0:0:0:0:
458,151,24952,6,0,P|438:80|424:9,1,144.500002756119,0|8,3:0|0:0,0:0:0:0:
346,138,25467,1,2,0:0:0:0:
248,19,25638,2,0,P|283:29|319:36,1,72.2500013780594,2|2,3:2|3:2,0:0:0:0:
155,114,25981,1,10,0:0:0:0:
149,22,26152,1,2,0:0:0:0:
252,124,26324,6,0,P|241:159|234:194,1,72.2500013780594,0|2,3:0|0:0,0:0:0:0:
195,280,26667,1,10,0:0:0:0:
68,185,26838,2,0,P|103:195|139:202,1,72.2500013780594,2|0,0:0|3:0,0:0:0:0:
298,279,27181,5,8,0:0:0:0:
298,279,27267,1,8,0:0:0:0:
298,279,27352,1,8,0:0:0:0:
150,378,27524,1,8,0:0:0:0:
234,193,27695,6,0,P|223:158|216:123,1,72.2500013780594,2|2,3:2|3:2,0:0:0:0:
66,19,28038,1,8,0:0:0:0:
37,106,28209,2,0,P|86:111|144:69,1,108.375002067089,6|0,3:2|0:0,0:0:0:0:
142,63,28552,1,0,3:2:0:0:
123,197,28724,1,10,0:0:0:0:
236,32,28895,6,0,P|293:16|351:84,1,144.500002756119,6|0,3:2|3:0,0:0:0:0:
473,141,29409,2,0,P|437:149|402:158,1,72.2500013780594,10|0,0:0|0:0,0:0:0:0:
272,223,29752,1,2,3:2:0:0:
376,261,29924,5,8,0:0:0:0:
376,261,30009,1,8,0:0:0:0:
376,261,30095,1,10,0:0:0:0:
263,123,30267,1,2,0:0:0:0:
200,290,30438,6,0,P|147:308|61:253,1,152.999995330811,6|8,3:2|0:0,0:0:0:0:
125,98,30952,1,2,0:0:0:0:
7,149,31124,2,0,P|82:176|152:210,1,152.999995330811,2|8,3:2|0:0,0:0:0:0:
323,111,31638,1,2,0:0:0:0:
323,111,31724,1,2,0:0:0:0:
323,111,31809,6,0,P|293:68|229:82,1,114.749996498108,2|0,3:2|0:0,0:0:0:0:
216,75,32152,2,0,P|233:149|248:224,1,152.999995330811,10|2,0:0|3:2,0:0:0:0:
342,215,32667,1,0,3:0:0:0:
219,330,32838,2,0,P|183:315|146:307,1,76.4999976654053,10|2,0:0|0:0,0:0:0:0:
7,186,33181,5,12,0:0:0:0:
162,210,33353,1,0,3:0:0:0:
64,332,33524,1,0,3:0:0:0:
93,141,33695,5,8,0:0:0:0:
147,308,33867,1,0,3:0:0:0:
87,126,34038,1,0,3:0:0:0:
75,243,34209,1,8,0:0:0:0:
204,114,34381,6,0,P|253:100|296:161,1,114.749996498108,6|0,3:2|0:0,0:0:0:0:
295,157,34724,1,8,3:2:0:0:
142,22,34895,1,8,3:2:0:0:
214,226,35067,1,8,3:2:0:0:
442,12,35924,6,0,B|388:56|388:56|374:120|425:186,1,187.000005706787,6|8,3:2|0:0,0:0:0:0:
344,349,36438,1,2,0:0:0:0:
244,211,36609,2,0,P|288:226|333:236,1,93.5000028533936,2|0,3:2|0:0,0:0:0:0:
441,305,36952,1,10,0:0:0:0:
296,117,37124,6,0,P|209:97|143:165,1,187.000005706787,2|2,0:0|0:0,0:0:0:0:
0,305,37638,2,0,P|67:323|132:349,1,140.25000428009,10|0,0:0|0:0,0:0:0:0:
149,363,37981,2,0,P|160:317|178:274,1,93.5000028533936,0|0,3:0|0:0,0:0:0:0:
45,122,38324,1,8,0:0:0:0:
77,242,38495,1,2,0:0:0:0:
213,74,38667,6,0,P|167:62|124:44,1,93.5000028533936,2|2,3:2|0:0,0:0:0:0:
263,176,39009,2,0,P|306:158|351:146,1,93.5000028533936,10|2,0:0|0:0,0:0:0:0:
179,275,39352,2,0,P|167:229|149:186,1,93.5000028533936,2|0,3:2|0:0,0:0:0:0:
213,74,39695,1,10,0:0:0:0:
315,265,39867,6,0,P|405:259|455:184,1,187.000005706787,2|0,0:0|0:0,0:0:0:0:
380,9,40381,2,0,P|364:77|351:146,1,140.25000428009,8|0,0:0|0:0,0:0:0:0:
358,161,40724,1,0,3:0:0:0:
466,92,40895,1,10,0:0:0:0:
466,92,40981,1,8,0:0:0:0:
466,92,41067,1,10,0:0:0:0:
278,45,41238,1,10,0:0:0:0:
278,45,41324,1,8,0:0:0:0:
278,45,41409,6,0,B|217:60|217:60|184:116|184:116|103:136,1,187.000005706787,2|8,3:2|0:0,0:0:0:0:
0,0,41924,2,0,P|16:68|27:137,1,140.25000428009,4|0,3:2|0:0,0:0:0:0:
24,156,42267,1,0,3:0:0:0:
122,29,42438,1,8,0:0:0:0:
104,234,42609,1,2,3:2:0:0:
228,83,42781,6,0,B|283:126|283:126|294:190|249:260,1,187.000005706787,2|8,3:2|0:0,0:0:0:0:
114,384,43295,2,0,P|151:328|233:340,1,140.25000428009,4|0,3:2|0:0,0:0:0:0:
236,342,43638,1,0,3:0:0:0:
355,218,43809,1,10,0:0:0:0:
188,177,43981,1,4,3:0:0:0:
333,323,44152,5,10,0:0:0:0:
284,141,44324,1,4,3:0:0:0:
284,141,44409,1,4,3:0:0:0:
284,141,44495,1,4,3:0:0:0:
435,296,44667,2,0,P|503:290|509:223,1,140.25000428009,10|0,0:0|0:0,0:0:0:0:
498,216,45009,1,8,0:0:0:0:
377,384,45181,1,8,0:0:0:0:
234,255,45352,6,0,P|167:276|98:286,1,140.25000428009,6|0,3:2|0:0,0:0:0:0:
27,253,45695,1,10,0:0:0:0:
21,247,45781,1,8,0:0:0:0:
15,242,45867,2,0,B|-5:199|-5:199|32:145,1,93.5000028533936,10|8,0:0|0:0,0:0:0:0:
113,74,46124,1,8,0:0:0:0:
122,85,46209,6,0,L|107:141,1,46.7500014266968,2|0,3:2|0:0,0:0:0:0:
234,255,46381,1,8,0:0:0:0:
264,263,46466,1,8,0:0:0:0:
293,252,46552,1,10,0:0:0:0:
310,227,46638,1,8,0:0:0:0:
308,196,46723,1,10,0:0:0:0:
289,172,46809,1,8,0:0:0:0:
260,164,46895,6,0,P|283:254|299:346,1,187.000005706787,6|8,3:2|0:0,0:0:0:0:
461,219,47409,1,2,0:0:0:0:
411,384,47581,2,0,P|399:338|391:292,1,93.5000028533936,2|0,3:2|0:0,0:0:0:0:
382,157,47924,1,8,0:0:0:0:
205,279,48095,6,0,P|154:291|73:191,1,187.000005706787,2|2,0:0|0:0,0:0:0:0:
201,48,48609,2,0,P|177:114|161:182,1,140.25000428009,10|0,0:0|0:0,0:0:0:0:
162,198,48952,2,0,P|218:178|276:163,1,93.5000028533936,0|0,3:0|0:0,0:0:0:0:
409,63,49295,1,8,0:0:0:0:
299,23,49467,1,2,0:0:0:0:
338,251,49638,6,0,P|351:206|367:162,1,93.5000028533936,2|2,3:2|0:0,0:0:0:0:
197,0,49981,2,0,P|183:44|167:88,1,93.5000028533936,10|2,0:0|0:0,0:0:0:0:
70,229,50324,2,0,P|113:212|158:199,1,93.5000028533936,2|0,3:2|0:0,0:0:0:0:
45,130,50667,1,10,0:0:0:0:
200,291,50838,6,0,P|258:251|243:130,1,187.000005706787,6|4,3:2|3:0,0:0:0:0:
109,0,51352,2,0,P|124:43|135:89,1,93.5000028533936,10|0,0:0|3:0,0:0:0:0:
145,121,51609,1,0,3:0:0:0:
145,121,51695,1,10,0:0:0:0:
298,44,51867,5,8,0:0:0:0:
327,33,51952,1,8,0:0:0:0:
357,37,52038,1,10,0:0:0:0:
383,53,52124,1,8,0:0:0:0:
400,79,52209,1,8,0:0:0:0:
403,110,52295,1,8,0:0:0:0:
392,139,52381,6,0,P|301:161|211:188,1,187.000005706787,6|8,3:2|0:0,0:0:0:0:
53,35,52895,2,0,P|112:15|166:77,1,140.25000428009,2|0,0:0|0:0,0:0:0:0:
175,79,53238,1,2,0:0:0:0:
121,255,53409,1,8,0:0:0:0:
83,136,53581,1,2,0:0:0:0:
245,297,53752,6,0,B|306:282|306:282|339:226|339:226|420:206,1,187.000005706787,0|8,3:0|0:0,0:0:0:0:
497,28,54267,2,0,P|434:18|398:93,1,140.25000428009,2|0,0:0|0:0,0:0:0:0:
408,91,54609,1,2,0:0:0:0:
222,56,54781,1,10,0:0:0:0:
323,0,54952,1,2,0:0:0:0:
221,164,55124,6,0,B|173:172|124:191|124:191|75:155|105:92,1,187.000005706787,2|8,3:2|0:0,0:0:0:0:
309,266,55638,2,0,P|376:283|443:305,1,140.25000428009,2|0,0:0|0:0,0:0:0:0:
455,314,55981,1,2,0:0:0:0:
321,168,56152,1,8,0:0:0:0:
333,369,56324,1,2,0:0:0:0:
436,182,56495,6,0,P|421:137|415:91,1,93.5000028533936,6|0,3:2|0:0,0:0:0:0:
229,228,56838,2,0,P|222:181|208:137,1,93.5000028533936,8|0,0:0|0:0,0:0:0:0:
298,59,57181,1,2,3:2:0:0:
396,271,57352,1,8,0:0:0:0:
396,271,57438,1,8,0:0:0:0:
396,271,57524,2,0,P|350:281|305:298,1,93.5000028533936,10|8,0:0|0:0,0:0:0:0:
238,234,57781,1,8,0:0:0:0:
229,228,57867,6,0,P|185:244|139:254,1,93.5000028533936,14|2,0:0|3:2,0:0:0:0:
298,59,58209,2,0,P|314:102|324:148,1,93.5000028533936,10|2,0:0|3:2,0:0:0:0:
213,349,58552,5,10,0:0:0:0:
141,136,58724,1,2,3:2:0:0:
321,268,58895,5,10,0:0:0:0:
110,350,59067,1,2,3:2:0:0:
337,262,59238,6,0,P|380:280|425:290,1,93.5000028533936,14|0,0:0|0:0,0:0:0:0:
509,90,59581,1,8,0:0:0:0:
412,174,59752,1,2,0:0:0:0:
223,102,59924,5,4,3:0:0:0:
236,70,60009,1,8,0:0:0:0:
264,50,60095,1,8,0:0:0:0:
298,48,60181,1,0,3:0:0:0:
329,67,60267,2,0,P|314:111|304:157,1,93.5000028533936,8|0,0:0|3:0,0:0:0:0:
236,286,60524,1,0,3:0:0:0:
228,292,60609,6,0,P|217:246|203:201,1,93.5000028533936,6|2,3:2|0:0,0:0:0:0:
113,13,60952,1,10,0:0:0:0:
0,166,61124,2,0,P|66:143|135:131,1,140.25000428009,6|0,3:2|0:0,0:0:0:0:
151,124,61467,1,8,0:0:0:0:
103,342,61638,6,0,P|92:296|78:251,1,93.5000028533936,6|0,3:2|0:0,0:0:0:0:
15,62,61981,1,8,0:0:0:0:
211,209,62152,1,8,0:0:0:0:
211,209,62238,1,8,0:0:0:0:
211,209,62324,2,0,P|263:196|307:191,1,93.5000028533936,8|10,0:0|0:0,0:0:0:0:
380,108,62581,1,8,0:0:0:0:
377,97,62667,6,0,L|330:84,1,46.7500014266968,10|8,0:0|0:0,0:0:0:0:
190,0,62838,1,8,0:0:0:0:
159,7,62923,1,8,0:0:0:0:
134,25,63009,1,10,0:0:0:0:
118,51,63095,1,8,0:0:0:0:
113,82,63180,1,8,0:0:0:0:
120,112,63266,1,8,0:0:0:0:
138,137,63352,6,0,P|190:124|234:119,1,93.5000028533936,14|0,0:2|3:0,0:0:0:0:
175,323,63695,2,0,P|227:310|271:305,1,93.5000028533936,10|2,0:0|3:2,0:0:0:0:
377,97,64038,5,8,0:0:0:0:
206,216,64209,1,0,3:0:0:0:
398,278,64381,5,8,0:0:0:0:
229,119,64552,1,2,3:2:0:0:
437,8,64724,5,6,3:2:0:0:
327,210,64895,1,8,0:0:0:0:
327,210,64981,1,8,0:0:0:0:
327,210,65067,2,0,L|311:147,1,46.7500014266968,10|8,0:0|0:0,0:0:0:0:
377,97,65238,2,0,L|422:108,1,46.7500014266968,10|8,0:0|0:0,0:0:0:0:
488,208,65409,5,8,0:0:0:0:
485,242,65494,1,8,0:0:0:0:
464,270,65580,1,10,0:0:0:0:
432,283,65666,1,8,0:0:0:0:
398,278,65752,2,0,L|414:215,3,46.7500014266968,0|0|4|0,3:0|3:0|3:0|3:0,0:0:0:0:
321,338,66095,6,0,P|276:352|232:368,1,93.5000028533936,6|2,3:2|0:0,0:0:0:0:
62,262,66438,1,8,0:0:0:0:
209,150,66609,2,0,P|185:215|165:283,1,140.25000428009,6|0,3:2|0:0,0:0:0:0:
164,302,66952,1,8,0:0:0:0:
0,164,67124,6,0,P|44:149|88:133,1,93.5000028533936,6|0,3:2|0:0,0:0:0:0:
285,245,67467,1,8,0:0:0:0:
275,23,67638,2,0,P|208:47|229:165,1,187.000005706787,6|0,3:2|0:0,0:0:0:0:
377,318,68152,6,0,L|437:302,1,46.7500014266968
512,217,68324,1,0,3:0:0:0:
512,217,68409,1,0,3:0:0:0:
512,217,68495,2,0,B|483:193|464:164|464:164|430:191|377:194,1,140.25000428009,8|0,0:0|3:0,0:0:0:0:
377,191,68838,6,0,B|302:154|344:74|344:74|391:62|417:117,1,212.5,2|0,3:2|0:0,0:0:0:0:
277,284,69352,2,0,B|240:358|160:316|160:316|148:269|203:243,1,212.5,2|0,3:2|0:0,0:0:0:0:
422,305,69867,5,6,3:2:0:0:
256,192,70038,12,0,75695,0:0:0:0:
