osu file format v14

[General]
AudioFilename: audio.ogg
AudioLeadIn: 0
PreviewTime: 35324
Countdown: 0
SampleSet: Soft
StackLeniency: 0.7
Mode: 0
LetterboxInBreaks: 0
WidescreenStoryboard: 1

[Editor]
Bookmarks: 267,11238,22209,33181,35924,56324,75695
DistanceSpacing: 0.3
BeatDivisor: 4
GridSize: 32
TimelineZoom: 1.8

[Metadata]
Title:STUDY STEADY
TitleUnicode:STUDY§STEADY
Artist:solfa feat. Shimotsuki Haruka + Ceui
ArtistUnicode:solfa feat. 霜月はるか+Ceui
Creator:tomatas95
Version:Shinmitsu Kyouiku Jugyou
Source:スタディ§ステディ2
Tags:eroge Study § Steady 2 video game marmalade galgame visual novel vn japanese opening op shimotsukin gazimal shirahane suou _xyliac pop j-pop jpop
BeatmapID:4018365
BeatmapSetID:1907991

[Difficulty]
HPDrainRate:5.5
CircleSize:4
OverallDifficulty:8.7
ApproachRate:9.3
SliderMultiplier:1.8
SliderTickRate:1

[Events]
//Background and Video events
0,0,"YunoMyWaifuu.jpg",0,0
Video,0,"lewdvideo.mp4"
//Break Periods
//Storyboard Layer 0 (Background)
//Storyboard Layer 1 (Fail)
//Storyboard Layer 2 (Pass)
//Storyboard Layer 3 (Foreground)
//Storyboard Layer 4 (Overlay)
//Storyboard Sound Samples

[TimingPoints]
267,342.857142857143,4,2,1,40,1,0
267,-166.666666666667,4,2,1,40,0,0
2838,-166.666666666667,4,2,1,30,0,0
3009,-166.666666666667,4,2,1,40,0,0
8409,-166.666666666667,4,2,1,5,0,0
8495,-166.666666666667,4,2,1,40,0,0
10124,-166.666666666667,4,2,1,45,0,0
10209,-166.666666666667,4,2,1,45,0,0
10552,-166.666666666667,4,2,1,50,0,0
10895,-166.666666666667,4,2,1,60,0,0
11067,-166.666666666667,4,2,1,15,0,0
11238,-142.857142857143,4,2,1,65,0,0
11581,-142.857142857143,4,2,1,60,0,0
12952,-142.857142857143,4,2,1,55,0,0
13981,-142.857142857143,4,2,1,60,0,0
15695,-142.857142857143,4,2,1,55,0,0
16724,-142.857142857143,4,2,3,60,0,0
17067,-142.857142857143,4,2,1,60,0,0
19809,-142.857142857143,4,2,1,55,0,0
21181,-142.857142857143,4,2,1,60,0,0
21524,-142.857142857143,4,2,1,65,0,0
21867,-142.857142857143,4,2,1,70,0,0
22209,-100,4,2,4,75,0,0
22467,-166.666666666667,4,2,4,5,0,0
22552,-111.111111111111,4,2,6,70,0,0
23581,-333.333333333333,4,2,6,75,0,0
23752,-333.333333333333,4,2,6,70,0,0
23838,-166.666666666667,4,2,6,5,0,0
23924,-111.111111111111,4,2,6,70,0,0
24952,-100,4,2,6,75,0,0
25123,-90.9090909090908,4,2,6,70,0,0
25209,-166.666666666667,4,2,6,5,0,0
25295,-111.111111111111,4,2,6,70,0,0
26324,-100,4,2,6,75,0,0
26495,-100,4,2,6,70,0,0
26581,-166.666666666667,4,2,6,5,0,0
26667,-111.111111111111,4,2,6,70,0,0
27695,-111.111111111111,4,2,6,65,0,0
27866,-111.111111111111,4,2,6,70,0,0
28209,-90.9090909090908,4,2,3,75,0,0
28552,-111.111111111111,4,2,6,70,0,0
28895,-90.9090909090909,4,2,1,75,0,0
29238,-111.111111111111,4,2,6,70,0,0
30438,-100,4,2,4,75,0,0
30781,-100,4,2,6,70,0,0
31809,-333.333333333333,4,2,6,75,0,0
31981,-333.333333333333,4,2,6,70,0,0
32067,-166.666666666667,4,2,6,5,0,0
32152,-111.111111111111,4,2,6,70,0,0
33181,-111.111111111111,4,2,1,75,0,0
33352,-111.111111111111,4,2,1,70,0,0
33695,-111.111111111111,4,2,1,75,0,0
33867,-111.111111111111,4,2,1,70,0,0
34209,-111.111111111111,4,2,1,75,0,0
34381,-83.3333333333333,4,2,3,80,0,0
34638,-166.666666666667,4,2,3,5,0,0
34724,-90.9090909090909,4,2,1,75,0,0
35238,-90.9090909090909,4,2,1,40,0,0
35924,-83.3333333333333,4,2,4,85,0,1
36181,-83.3333333333333,4,2,4,5,0,1
36267,-90.9090909090909,4,2,1,80,0,1
41409,-90.9090909090909,4,2,1,75,0,1
41924,-90.9090909090909,4,2,1,80,0,1
42781,-90.9090909090909,4,2,1,75,0,1
43295,-90.9090909090909,4,2,1,80,0,1
43981,-90.9090909090909,4,2,1,75,0,1
44152,-90.9090909090909,4,2,1,80,0,1
44324,-90.9090909090909,4,2,1,75,0,1
45009,-90.9090909090909,4,2,1,80,0,1
45352,-83.3333333333333,4,2,3,80,0,1
45695,-90.9090909090909,4,2,1,80,0,1
46295,-90.9090909090909,4,2,1,80,0,1
46381,-90.9090909090909,4,2,1,70,0,0
46552,-90.9090909090909,4,2,1,75,0,0
46724,-90.9090909090909,4,2,1,80,0,0
46895,-76.9230769230769,4,2,4,85,0,1
47152,-83.3333333333333,4,2,4,5,0,1
47238,-90.9090909090909,4,2,1,80,0,1
50667,-90.9090909090909,4,2,1,75,0,1
50838,-76.9230769230769,4,2,1,80,0,1
51181,-83.3333333333333,4,2,1,80,0,1
51524,-83.3333333333333,4,2,1,75,0,1
51867,-83.3333333333333,4,2,1,70,0,1
52038,-83.3333333333333,4,2,1,75,0,1
52209,-83.3333333333333,4,2,1,80,0,1
52381,-90.9090909090909,4,2,1,85,0,1
52724,-90.9090909090909,4,2,1,80,0,1
56495,-76.9230769230769,4,2,4,80,0,1
56752,-83.3333333333333,4,2,4,5,0,1
56838,-90.9090909090909,4,2,1,80,0,1
57181,-90.9090909090909,4,2,1,70,0,0
57524,-90.9090909090909,4,2,1,75,0,0
57695,-90.9090909090909,4,2,1,80,0,0
57867,-90.9090909090909,4,2,1,85,0,1
59238,-83.3333333333333,4,2,4,85,0,1
59581,-90.9090909090909,4,2,1,85,0,1
59924,-90.9090909090909,4,2,1,75,0,1
60609,-90.9090909090909,4,2,1,80,0,1
61124,-76.9230769230769,4,2,6,85,0,1
61381,-90.9090909090909,4,2,6,5,0,1
61467,-83.3333333333333,4,2,1,75,0,1
61552,-90.9090909090909,4,2,1,5,0,1
61638,-76.9230769230769,4,2,6,85,0,1
61809,-76.9230769230769,4,2,1,80,0,1
61895,-83.3333333333333,4,2,1,5,0,1
61981,-83.3333333333333,4,2,1,80,0,1
62067,-90.9090909090909,4,2,1,5,0,1
62152,-83.3333333333333,4,2,1,80,0,1
62324,-83.3333333333333,4,2,1,80,0,1
62667,-90.9090909090909,4,2,1,70,0,1
62838,-90.9090909090909,4,2,1,75,0,1
63009,-90.9090909090909,4,2,1,80,0,1
63352,-83.3333333333333,4,2,4,85,0,1
63524,-83.3333333333333,4,2,1,85,0,1
64724,-83.3333333333333,4,2,1,85,0,1
64895,-83.3333333333333,4,2,1,80,0,1
65067,-83.3333333333333,4,2,1,80,0,1
65752,-83.3333333333333,4,2,1,75,0,1
65838,-90.9090909090909,4,2,1,5,0,1
65924,-83.3333333333333,4,2,1,70,0,1
66009,-90.9090909090909,4,2,1,5,0,1
66095,-83.3333333333333,4,2,4,85,0,1
66267,-83.3333333333333,4,2,1,80,0,1
66438,-90.9090909090909,4,2,1,80,0,1
66609,-83.3333333333333,4,2,6,85,0,1
66867,-90.9090909090909,4,2,6,5,0,1
66952,-83.3333333333333,4,2,1,75,0,1
67038,-90.9090909090909,4,2,1,5,0,1
67124,-83.3333333333333,4,2,6,85,0,1
67381,-90.9090909090909,4,2,6,5,0,1
67467,-83.3333333333333,4,2,1,75,0,1
67552,-90.9090909090909,4,2,1,5,0,1
67638,-125,4,2,6,80,0,1
68152,-125,4,2,1,70,0,1
68495,-100,4,2,1,70,0,1
68838,-100,4,2,1,75,0,0
69181,-100,4,2,1,70,0,0
69352,-100,4,2,1,75,0,0
69695,-100,4,2,1,70,0,0
69867,-200,4,2,4,75,0,0
70209,-250,4,2,1,70,0,0
70895,-250,4,2,1,60,0,0
71581,-250,4,2,1,50,0,0
72267,-250,4,2,1,40,0,0
72952,-250,4,2,1,30,0,0
73638,-250,4,2,1,20,0,0
74324,-250,4,2,1,15,0,0
75009,-250,4,2,1,10,0,0
75695,-250,4,2,1,5,0,0

[Colours]
Combo1 : 249,242,157
Combo2 : 253,185,251
Combo3 : 172,208,249
Combo4 : 210,186,252

[HitObjects]
27,81,267,6,0,P|26:52|44:11,2,53.9999983520508,2|2|0,0:0|0:0|0:0,0:0:0:0:
92,137,781,1,2,0:0:0:0:
92,137,952,2,0,P|116:121|161:116,2,53.9999983520508,2|0|2,0:0|0:0|0:0,0:0:0:0:
12,166,1467,2,0,P|27:214|40:295,1,107.999996704102,2|0,0:0|0:0,0:0:0:0:
10,351,1981,6,0,B|66:366|133:335|80:305|140:263|197:274,1,215.999993408203,2|0,0:0|0:0,0:0:0:0:
195,273,3009,6,0,P|195:246|187:220,2,53.9999983520508,2|2|0,0:0|0:0|0:0,0:0:0:0:
127,321,3524,1,2,0:0:0:0:
127,321,3695,2,0,P|108:301|84:288,2,53.9999983520508,2|0|2,0:0|0:0|0:0,0:0:0:0:
203,356,4209,6,0,P|247:340|316:378,1,107.999996704102,2|0,0:0|0:0,0:0:0:0:
358,291,4724,2,0,P|322:260|320:182,1,107.999996704102,2|2,0:0|0:0,0:0:0:0:
392,216,5238,1,2,0:0:0:0:
472,81,5581,1,2,0:0:0:0:
472,81,5752,6,0,P|421:61|367:85,1,107.999996704102,2|0,0:0|0:0,0:0:0:0:
469,227,6267,2,0,P|460:173|413:138,1,107.999996704102,2|0,0:0|0:0,0:0:0:0:
300,116,6781,5,2,0:0:0:0:
300,116,6952,1,2,0:0:0:0:
263,191,7124,2,0,L|284:303,2,107.999996704102,2|2|2,0:0|0:0|0:0,0:0:0:0:
216,121,7981,1,2,0:0:0:0:
216,121,8152,2,0,L|133:110,1,80.9999975280763,2|0,0:0|0:0,0:0:0:0:
127,110,8495,6,0,P|129:61|150:-1,1,107.999996704102,2|0,0:0|0:0,0:0:0:0:
22,5,9009,2,0,P|40:57|41:110,1,107.999996704102,2|0,0:0|0:0,0:0:0:0:
41,259,9524,1,2,0:0:0:0:
84,185,9695,1,2,0:0:0:0:
84,185,10209,6,0,B|26:245|58:317|99:337|99:337|136:318|148:290|140:256,1,269.999991760254,2|0,0:0|0:0,0:0:0:0:
141,262,11238,6,0,B|189:253|189:253|196:239|196:239|264:226,1,125.999996154785,4|0,3:2|3:0,0:0:0:0:
326,182,11752,1,2,0:0:0:0:
343,325,11924,2,0,P|338:284|329:262,1,62.9999980773926,2|2,3:2|0:0,0:0:0:0:
436,363,12267,2,0,P|441:322|450:300,1,62.9999980773926,2|2,3:2|0:0,0:0:0:0:
450,199,12609,6,0,L|313:180,3,125.999996154785,0|0|0|0,3:2|3:2|3:0|3:0,0:0:0:0:
325,181,13981,6,0,P|313:125|364:60,1,125.999996154785,0|0,3:2|3:0,0:0:0:0:
265,21,14495,1,2,0:0:0:0:
265,21,14667,2,0,P|234:40|198:44,1,62.9999980773926,2|2,3:2|0:0,0:0:0:0:
186,131,15009,2,0,P|218:147|239:176,1,62.9999980773926,2|2,3:2|0:0,0:0:0:0:
316,291,15352,6,0,P|251:283|190:275,1,125.999996154785,0|2,3:0|3:2,0:0:0:0:
40,319,15867,1,0,0:0:0:0:
114,356,16038,2,0,P|119:297|64:240,1,125.999996154785,0|0,3:0|3:0,0:0:0:0:
42,90,16552,2,0,L|52:137,1,31.4999990386963,2|0,0:0|0:0,0:0:0:0:
0,182,16724,6,0,P|58:171|150:156,1,125.999996154785,4|0,3:2|3:0,0:0:0:0:
191,73,17238,1,2,0:0:0:0:
191,73,17409,2,0,P|159:78|128:84,1,62.9999980773926,0|2,3:0|0:0,0:0:0:0:
273,59,17752,2,0,P|304:53|335:47,1,62.9999980773926,0|2,3:0|0:0,0:0:0:0:
216,4,18095,6,0,P|230:65|240:128,1,125.999996154785,0|0,3:0|3:0,0:0:0:0:
293,247,18609,1,2,0:0:0:0:
207,214,18781,2,0,L|141:223,1,62.9999980773926,0|2,3:0|0:0,0:0:0:0:
326,161,19124,2,0,L|392:152,1,62.9999980773926,0|2,3:0|0:0,0:0:0:0:
477,73,19467,6,0,L|466:211,1,125.999996154785,0|2,3:0|3:2,0:0:0:0:
440,353,19981,1,0,0:0:0:0:
500,298,20152,2,0,P|464:273|383:296,1,125.999996154785,0|0,3:0|3:0,0:0:0:0:
388,290,20838,5,0,3:0:0:0:
329,358,21009,1,8,0:0:0:0:
225,218,21181,5,10,0:0:0:0:
295,275,21352,1,8,0:0:0:0:
241,130,21524,1,10,0:0:0:0:
212,308,21695,5,8,0:0:0:0:
158,161,21867,1,10,0:0:0:0:
311,187,22038,1,10,0:0:0:0:
70,369,22209,6,0,P|66:307|44:207,1,135,6|0,3:2|0:0,0:0:0:0:
7,175,22552,2,0,B|45:156|45:156|101:174,1,80.9999975280763,10|0,0:0|0:0,0:0:0:0:
81,62,22895,2,0,B|43:81|43:81|-13:63,1,80.9999975280763,0|0,3:0|3:0,0:0:0:0:
35,0,23238,5,10,0:0:0:0:
81,167,23409,1,2,0:0:0:0:
199,35,23581,6,0,L|245:43,1,40.4999987640381,2|0,3:2|0:0,0:0:0:0:
236,124,23924,6,0,L|156:110,1,80.9999975280763,10|0,0:0|0:0,0:0:0:0:
22,234,24267,1,2,3:2:0:0:
81,167,24438,1,0,3:0:0:0:
113,327,24609,2,0,P|110:289|102:226,1,80.9999975280763,8|2,0:0|0:0,0:0:0:0:
284,204,24952,6,0,P|274:274|268:359,1,135,0|0,3:0|0:0,0:0:0:0:
269,351,25295,2,0,P|308:341|357:358,1,80.9999975280763,8|2,0:0|0:0,0:0:0:0:
500,323,25638,1,2,3:2:0:0:
500,323,25809,1,2,3:2:0:0:
427,374,25981,2,0,L|414:289,1,80.9999975280763,10|2,0:0|0:0,0:0:0:0:
303,188,26324,6,0,B|336:174|364:200|364:200|394:227|429:212,1,135,0|0,3:0|0:0,0:0:0:0:
490,168,26667,2,0,P|504:206|498:246,1,80.9999975280763,10|2,0:0|0:0,0:0:0:0:
421,136,27009,2,0,P|414:96|427:58,1,80.9999975280763,0|8,3:0|0:0,0:0:0:0:
435,49,27267,1,8,0:0:0:0:
443,40,27352,1,8,0:0:0:0:
225,101,27524,1,8,0:0:0:0:
225,101,27609,1,8,0:0:0:0:
225,101,27695,5,2,3:2:0:0:
276,179,27867,1,2,3:2:0:0:
319,97,28038,1,8,0:0:0:0:
406,343,28209,6,0,P|307:333|209:325,1,198.000006042481,6|0,3:2|3:2,0:0:0:0:
43,223,28724,1,10,0:0:0:0:
125,367,28895,6,0,B|96:322|125:274|125:274|157:226|126:179,1,198.000006042481,6|0,3:2|3:0,0:0:0:0:
28,45,29409,2,0,P|42:98|52:145,1,80.9999975280763,10|0,0:0|0:0,0:0:0:0:
204,114,29752,2,0,P|213:74|223:35,1,80.9999975280763,2|8,3:2|0:0,0:0:0:0:
229,24,30009,1,8,0:0:0:0:
235,10,30095,1,10,0:0:0:0:
123,71,30267,1,2,0:0:0:0:
272,177,30438,6,0,B|297:135|356:152|356:152|388:190|435:179,1,180,6|8,3:2|0:0,0:0:0:0:
349,21,30952,1,2,0:0:0:0:
437,19,31124,2,0,P|425:63|415:119,1,90,2|0,3:2|3:0,0:0:0:0:
329,229,31467,2,0,P|340:272|349:316,1,90,8|2,0:0|0:0,0:0:0:0:
352,329,31724,1,2,0:0:0:0:
353,342,31809,6,0,L|402:335,1,40.4999987640381,2|0,3:2|0:0,0:0:0:0:
455,288,32152,6,0,P|471:324|465:363,1,80.9999975280763,10|0,0:0|0:0,0:0:0:0:
451,202,32495,2,0,P|475:170|512:155,1,80.9999975280763,2|0,3:2|3:0,0:0:0:0:
379,249,32838,2,0,P|339:244|309:220,1,80.9999975280763,10|2,0:0|0:0,0:0:0:0:
158,43,33181,5,12,0:0:0:0:
240,285,33352,1,0,3:0:0:0:
284,35,33524,1,0,3:0:0:0:
120,175,33695,5,8,0:0:0:0:
371,127,33867,1,0,3:0:0:0:
108,179,34038,1,0,3:0:0:0:
284,35,34209,1,8,0:0:0:0:
183,340,34381,6,0,P|160:266|231:206,1,161.999995056153,6|0,3:2|0:0,0:0:0:0:
240,285,34724,5,8,3:2:0:0:
140,6,34895,1,8,3:2:0:0:
78,295,35067,1,8,3:2:0:0:
82,366,35924,6,0,B|57:328|82:287|82:287|109:247|83:207,1,161.999995056153,6|0,3:2|0:0,0:0:0:0:
19,166,36267,1,8,0:0:0:0:
147,329,36438,1,2,0:0:0:0:
92,126,36609,2,0,L|72:10,1,99.0000030212403,2|0,3:2|0:0,0:0:0:0:
282,135,36952,1,10,0:0:0:0:
166,198,37124,1,2,0:0:0:0:
174,206,37209,1,2,0:0:0:0:
174,206,37295,5,0,3:0:0:0:
293,11,37467,1,2,0:0:0:0:
372,227,37638,2,0,P|435:231|476:103,2,198.000006042481,10|0|8,0:0|3:0|0:0,0:0:0:0:
196,33,38495,1,2,0:0:0:0:
196,33,38581,1,2,0:0:0:0:
196,33,38667,5,2,3:2:0:0:
410,153,38838,1,2,0:0:0:0:
222,276,39009,1,10,0:0:0:0:
324,35,39181,1,2,0:0:0:0:
221,289,39352,2,0,P|224:239|241:162,1,99.0000030212403,2|0,3:2|0:0,0:0:0:0:
114,77,39695,1,10,0:0:0:0:
107,331,39867,1,2,0:0:0:0:
107,331,39952,1,2,0:0:0:0:
107,331,40038,6,0,P|104:281|87:204,1,99.0000030212403,2|0,3:2|0:0,0:0:0:0:
15,59,40381,2,0,L|221:42,1,198.000006042481,8|0,0:0|3:0,0:0:0:0:
407,25,40895,1,10,0:0:0:0:
407,25,40981,1,8,0:0:0:0:
407,25,41067,1,10,0:0:0:0:
344,294,41238,1,10,0:0:0:0:
344,294,41324,1,8,0:0:0:0:
344,294,41409,5,2,3:2:0:0:
325,172,41581,1,0,3:0:0:0:
306,50,41752,1,8,0:0:0:0:
249,348,41924,6,0,P|347:336|446:332,1,198.000006042481,4|0,3:2|3:0,0:0:0:0:
489,103,42438,1,8,0:0:0:0:
286,248,42609,1,2,3:2:0:0:
390,22,42781,5,2,3:2:0:0:
405,136,42953,1,0,3:0:0:0:
420,250,43124,1,8,0:0:0:0:
241,67,43295,6,0,P|159:48|96:148,1,198.000006042481,4|0,3:2|3:0,0:0:0:0:
265,325,43809,1,10,0:0:0:0:
53,298,43981,1,4,3:0:0:0:
182,127,44152,1,10,0:0:0:0:
180,246,44324,1,4,3:0:0:0:
180,246,44409,1,4,3:0:0:0:
180,246,44495,1,4,3:0:0:0:
439,30,44667,5,10,0:0:0:0:
389,140,44838,1,0,3:0:0:0:
331,32,45009,1,8,0:0:0:0:
428,315,45181,1,8,0:0:0:0:
504,220,45352,6,0,P|407:230|257:247,1,215.999993408203,6|10,3:2|0:0,0:0:0:0:
274,247,45781,1,8,0:0:0:0:
260,252,45867,1,10,0:0:0:0:
163,348,46038,1,8,0:0:0:0:
163,348,46124,1,8,0:0:0:0:
163,348,46209,1,2,3:2:0:0:
46,207,46381,5,8,0:0:0:0:
64,182,46466,1,8,0:0:0:0:
94,175,46552,1,10,0:0:0:0:
121,190,46638,1,8,0:0:0:0:
131,217,46723,1,10,0:0:0:0:
122,247,46809,1,8,0:0:0:0:
97,262,46895,6,0,P|103:211|127:86,1,175.499991966248,6|0,3:2|0:0,0:0:0:0:
138,9,47238,1,8,0:0:0:0:
27,227,47409,1,2,0:0:0:0:
203,58,47581,2,0,L|332:69,1,99.0000030212403,2|0,3:2|0:0,0:0:0:0:
498,229,47924,1,8,0:0:0:0:
284,180,48095,1,2,0:0:0:0:
284,180,48181,1,2,0:0:0:0:
284,180,48267,5,0,3:0:0:0:
435,25,48438,1,2,0:0:0:0:
401,138,48609,2,0,P|393:233|383:343,2,198.000006042481,10|0|8,0:0|3:0|0:0,0:0:0:0:
158,65,49467,1,2,0:0:0:0:
158,65,49552,1,2,0:0:0:0:
158,65,49638,5,2,3:2:0:0:
310,286,49809,1,2,0:0:0:0:
292,10,49981,1,10,0:0:0:0:
160,249,50152,1,2,0:0:0:0:
408,124,50324,2,0,L|509:113,1,99.0000030212403,2|0,3:2|0:0,0:0:0:0:
165,68,50667,1,10,0:0:0:0:
283,366,50838,6,0,P|279:290|260:101,1,233.999989288331,6|4,3:2|3:0,0:0:0:0:
55,29,51352,1,10,0:0:0:0:
55,29,51438,1,8,0:0:0:0:
55,29,51524,2,0,P|61:61|67:100,1,53.9999983520508,0|0,3:0|3:0,0:0:0:0:
102,238,51695,1,10,0:0:0:0:
102,238,51781,1,8,0:0:0:0:
102,238,51867,2,0,P|96:270|90:309,1,53.9999983520508,8|8,0:0|0:0,0:0:0:0:
40,161,52038,5,10,0:0:0:0:
66,156,52123,1,8,0:0:0:0:
92,152,52209,1,8,0:0:0:0:
119,149,52295,1,8,0:0:0:0:
145,144,52381,6,0,P|212:136|347:113,1,198.000006042481,6|8,3:2|0:0,0:0:0:0:
447,281,52895,2,0,P|403:286|344:300,1,99.0000030212403,2|0,0:0|3:0,0:0:0:0:
214,344,53238,1,2,0:0:0:0:
380,197,53409,1,8,0:0:0:0:
160,135,53581,1,2,0:0:0:0:
248,230,53752,6,0,L|268:5,1,198.000006042481,0|8,3:0|0:0,0:0:0:0:
75,44,54267,2,0,L|66:142,1,99.0000030212403,2|0,0:0|3:0,0:0:0:0:
58,328,54609,5,2,0:0:0:0:
160,118,54781,1,10,0:0:0:0:
218,341,54952,1,2,0:0:0:0:
42,228,55124,6,0,P|139:241|258:258,1,198.000006042481,2|8,3:2|0:0,0:0:0:0:
451,208,55638,2,0,P|401:201|352:194,1,99.0000030212403,2|0,0:0|3:0,0:0:0:0:
342,82,55981,5,2,0:0:0:0:
412,321,56152,1,8,0:0:0:0:
493,92,56324,1,2,0:0:0:0:
242,270,56495,6,0,L|210:65,1,175.499991966248,6|0,3:2|0:0,0:0:0:0:
206,20,56838,1,8,0:0:0:0:
352,194,57009,1,2,0:0:0:0:
205,10,57181,1,2,3:2:0:0:
119,221,57352,6,0,P|93:224|65:231,1,49.5000015106202,10|8,0:0|0:0,0:0:0:0:
45,132,57524,2,0,P|71:128|99:122,1,49.5000015106202,10|8,0:0|0:0,0:0:0:0:
296,61,57695,1,8,0:0:0:0:
296,61,57781,1,8,0:0:0:0:
296,61,57867,5,14,0:0:0:0:
190,337,58038,1,2,3:2:0:0:
410,130,58209,5,10,0:0:0:0:
119,221,58381,1,2,3:2:0:0:
421,262,58552,5,8,0:0:0:0:
167,95,58723,1,0,3:2:0:0:
323,359,58894,5,10,0:0:0:0:
296,61,59067,1,0,3:2:0:0:
445,357,59238,6,0,P|450:287|477:126,1,215.999993408203,14|8,0:0|0:0,0:0:0:0:
296,44,59752,1,2,0:0:0:0:
350,217,59924,5,4,3:0:0:0:
350,217,60009,1,0,3:0:0:0:
350,217,60095,2,0,P|354:183|365:149,1,49.5000015106202,0|0,3:0|3:0,0:0:0:0:
386,34,60267,1,8,0:0:0:0:
386,34,60352,1,0,3:0:0:0:
386,34,60438,2,0,P|383:67|371:102,1,49.5000015106202,0|0,3:0|3:0,0:0:0:0:
318,302,60609,5,6,3:2:0:0:
473,143,60781,1,2,0:0:0:0:
256,90,60952,1,10,0:0:0:0:
410,353,61124,6,0,P|321:343|194:331,1,175.499991966248,6|0,3:2|0:0,0:0:0:0:
162,356,61467,2,0,P|157:329|164:303,1,53.9999983520508,8|0,0:0|0:0,0:0:0:0:
244,82,61638,6,0,P|234:171|222:298,1,175.499991966248,6|0,3:2|0:0,0:0:0:0:
86,292,61981,2,0,P|83:265|80:238,1,53.9999983520508,8|0,0:0|0:0,0:0:0:0:
89,85,62152,5,8,0:0:0:0:
89,85,62238,1,8,0:0:0:0:
89,85,62324,2,0,P|82:111|75:137,1,53.9999983520508,8|0,0:0|0:0,0:0:0:0:
27,352,62495,5,10,0:0:0:0:
45,332,62580,1,8,0:0:0:0:
68,319,62666,1,10,0:0:0:0:
95,315,62752,1,8,0:0:0:0:
121,321,62837,1,8,0:0:0:0:
144,335,62923,1,8,0:0:0:0:
163,355,63009,6,0,L|232:346,1,49.5000015106202,10|8,0:0|0:0,0:0:0:0:
269,186,63181,2,0,L|200:177,1,49.5000015106202,8|8,0:0|0:0,0:0:0:0:
409,362,63352,6,0,P|410:314|430:236,1,107.999996704102,14|0,0:2|3:0,0:0:0:0:
247,60,63695,5,10,0:0:0:0:
283,318,63867,1,2,3:2:0:0:
176,18,64038,5,8,0:0:0:0:
212,276,64210,1,0,3:0:0:0:
318,18,64381,5,8,0:0:0:0:
354,276,64552,1,2,3:2:0:0:
172,9,64724,6,0,L|57:23,1,107.999996704102,6|8,3:2|0:0,0:0:0:0:
49,27,64981,1,8,0:0:0:0:
35,35,65067,2,0,P|43:70|47:102,1,53.9999983520508,10|8,0:0|0:0,0:0:0:0:
150,169,65238,2,0,P|141:204|137:236,1,53.9999983520508,10|8,0:0|0:0,0:0:0:0:
19,314,65409,5,8,0:0:0:0:
39,297,65494,1,8,0:0:0:0:
64,293,65580,1,10,0:0:0:0:
89,301,65666,1,8,0:0:0:0:
106,320,65752,6,0,L|162:310,1,53.9999983520508,0|0,3:0|0:0,0:0:0:0:
150,169,65924,2,0,L|96:161,1,53.9999983520508,4|0,3:0|0:0,0:0:0:0:
317,14,66095,5,6,3:2:0:0:
265,269,66267,1,2,0:0:0:0:
207,16,66438,1,8,0:0:0:0:
271,283,66609,6,0,B|313:292|341:256|341:256|369:219|413:229,1,161.999995056153,6|0,3:2|0:0,0:0:0:0:
489,196,66952,2,0,P|495:221|488:257,1,53.9999983520508,8|0,0:0|0:0,0:0:0:0:
313,150,67124,6,0,B|271:159|243:123|243:123|215:86|171:96,1,161.999995056153,6|0,3:2|0:0,0:0:0:0:
95,63,67467,2,0,P|88:88|95:124,1,53.9999983520508,8|0,0:0|0:0,0:0:0:0:
146,310,67638,6,0,P|153:202|170:95,1,216,6|0,3:2|0:0,0:0:0:0:
95,63,68324,1,0,3:0:0:0:
95,63,68409,1,0,3:0:0:0:
95,63,68495,6,0,L|48:70,1,45,8|0,0:0|0:0,0:0:0:0:
171,187,68667,2,0,L|218:194,1,45,0|0,3:0|3:0,0:0:0:0:
351,294,68838,6,0,B|336:339|275:334|275:334|251:276|278:253,1,180,2|0,3:2|0:0,0:0:0:0:
437,224,69352,2,0,B|452:269|513:264|513:264|537:206|510:183,1,180,2|0,3:2|0:0,0:0:0:0:
324,53,69867,6,0,B|239:65|162:-14|98:71|98:71|162:65|207:80|267:113|287:171|296:227|296:227|267:251|230:268|230:268|82:327|22:243|45:149|104:97|229:126|231:232|223:317|151:373|151:373|50:375|1:310|-15:278|-23:233|-25:186|-4:143|35:105,1,1530,6|0,3:2|0:0,0:0:0:0:
