osu file format v14

[General]
AudioFilename: audio.ogg
AudioLeadIn: 0
PreviewTime: 35324
Countdown: 0
SampleSet: Soft
StackLeniency: 0.7
Mode: 0
LetterboxInBreaks: 0
WidescreenStoryboard: 1

[Editor]
Bookmarks: 267,11238,22209,33181,35924,75695
DistanceSpacing: 0.8
BeatDivisor: 4
GridSize: 32
TimelineZoom: 1.8

[Metadata]
Title:STUDY STEADY
TitleUnicode:STUDY§STEADY
Artist:solfa feat. Shimotsuki Haruka + Ceui
ArtistUnicode:solfa feat. 霜月はるか+Ceui
Creator:tomatas95
Version:Normal
Source:スタディ§ステディ2
Tags:eroge Study § Steady 2 video game marmalade galgame visual novel vn japanese opening op shimotsukin gazimal shirahane suou _xyliac pop j-pop jpop
BeatmapID:4018374
BeatmapSetID:1907991

[Difficulty]
HPDrainRate:3
CircleSize:3
OverallDifficulty:4.5
ApproachRate:5.5
SliderMultiplier:1.1
SliderTickRate:1

[Events]
//Background and Video events
0,0,"UramiKimono.jpg",0,0
Video,0,"lewdvideo.mp4"
//Break Periods
//Storyboard Layer 0 (Background)
//Storyboard Layer 1 (Fail)
//Storyboard Layer 2 (Pass)
//Storyboard Layer 3 (Foreground)
//Storyboard Layer 4 (Overlay)
//Storyboard Sound Samples

[TimingPoints]
267,342.857142857143,4,2,1,40,1,0
267,-111.111111111111,4,2,1,40,0,0
2838,-111.111111111111,4,2,1,30,0,0
3009,-111.111111111111,4,2,1,40,0,0
10124,-111.111111111111,4,2,1,45,0,0
10552,-111.111111111111,4,2,1,50,0,0
10895,-111.111111111111,4,2,1,60,0,0
11238,-111.111111111111,4,2,1,65,0,0
11581,-111.111111111111,4,2,1,60,0,0
12952,-111.111111111111,4,2,1,55,0,0
13981,-111.111111111111,4,2,1,60,0,0
15695,-111.111111111111,4,2,1,55,0,0
16724,-111.111111111111,4,2,3,60,0,0
17067,-111.111111111111,4,2,1,60,0,0
19809,-111.111111111111,4,2,1,55,0,0
21181,-111.111111111111,4,2,1,60,0,0
21524,-111.111111111111,4,2,1,65,0,0
21867,-111.111111111111,4,2,1,70,0,0
22209,-100,4,2,4,75,0,0
22552,-100,4,2,6,70,0,0
23581,-100,4,2,6,75,0,0
23752,-100,4,2,6,70,0,0
24952,-100,4,2,6,75,0,0
25123,-100,4,2,6,70,0,0
26324,-100,4,2,6,75,0,0
26495,-100,4,2,6,70,0,0
27695,-100,4,2,6,65,0,0
27866,-100,4,2,6,70,0,0
28209,-100,4,2,3,75,0,0
28552,-100,4,2,6,70,0,0
28895,-100,4,2,1,75,0,0
29238,-100,4,2,6,70,0,0
30438,-100,4,2,4,75,0,0
30781,-100,4,2,6,70,0,0
31809,-100,4,2,6,75,0,0
31981,-100,4,2,6,70,0,0
33181,-100,4,2,1,75,0,0
33352,-100,4,2,1,70,0,0
33695,-100,4,2,1,75,0,0
33867,-100,4,2,1,70,0,0
34209,-100,4,2,1,75,0,0
34381,-100,4,2,3,80,0,0
34724,-100,4,2,1,75,0,0
35238,-100,4,2,1,40,0,0
35924,-90.9090909090908,4,2,4,85,0,1
36267,-90.9090909090908,4,2,1,80,0,1
41409,-90.9090909090908,4,2,1,75,0,1
41924,-90.9090909090908,4,2,1,80,0,1
42781,-90.9090909090908,4,2,1,75,0,1
43295,-90.9090909090908,4,2,1,80,0,1
43981,-90.9090909090908,4,2,1,75,0,1
44152,-90.9090909090908,4,2,1,80,0,1
44324,-90.9090909090908,4,2,1,75,0,1
45009,-90.9090909090908,4,2,1,80,0,1
45352,-90.9090909090908,4,2,3,80,0,1
45695,-90.9090909090908,4,2,1,80,0,1
46381,-90.9090909090909,4,2,1,70,0,0
46552,-90.9090909090909,4,2,1,75,0,0
46724,-90.9090909090909,4,2,1,80,0,0
46895,-90.9090909090909,4,2,4,85,0,1
47238,-90.9090909090909,4,2,1,80,0,1
50667,-90.9090909090909,4,2,1,75,0,1
50838,-90.9090909090909,4,2,1,80,0,1
51524,-90.9090909090909,4,2,1,75,0,1
51867,-90.9090909090909,4,2,1,70,0,1
52038,-90.9090909090909,4,2,1,75,0,1
52209,-90.9090909090909,4,2,1,80,0,1
52381,-90.9090909090909,4,2,1,85,0,1
52724,-90.9090909090909,4,2,1,80,0,1
56495,-90.9090909090909,4,2,4,80,0,1
56838,-90.9090909090909,4,2,1,80,0,1
57181,-90.9090909090909,4,2,1,70,0,0
57524,-90.9090909090909,4,2,1,75,0,0
57695,-90.9090909090909,4,2,1,80,0,0
57867,-90.9090909090909,4,2,1,85,0,1
59238,-90.9090909090909,4,2,4,85,0,1
59581,-90.9090909090909,4,2,1,85,0,1
59924,-90.9090909090909,4,2,1,75,0,1
60609,-90.9090909090909,4,2,1,80,0,1
61124,-90.9090909090909,4,2,6,80,0,1
61467,-90.9090909090909,4,2,1,75,0,1
61638,-90.9090909090909,4,2,6,85,0,1
61981,-90.9090909090909,4,2,1,80,0,1
62667,-90.9090909090909,4,2,1,70,0,1
62838,-90.9090909090909,4,2,1,75,0,1
63009,-90.9090909090909,4,2,1,80,0,1
63352,-90.9090909090909,4,2,4,85,0,1
63524,-90.9090909090909,4,2,1,85,0,1
64895,-90.9090909090909,4,2,1,80,0,1
65752,-90.9090909090909,4,2,1,75,0,1
65924,-90.9090909090909,4,2,1,70,0,1
66095,-90.9090909090909,4,2,4,85,0,1
66267,-90.9090909090909,4,2,1,80,0,1
66609,-90.9090909090909,4,2,6,85,0,1
66952,-90.9090909090909,4,2,1,75,0,1
67124,-90.9090909090909,4,2,6,80,0,1
67467,-90.9090909090909,4,2,1,75,0,1
67638,-90.9090909090909,4,2,6,80,0,1
68152,-90.9090909090909,4,2,1,70,0,1
68838,-100,4,2,1,75,0,0
69181,-100,4,2,1,70,0,0
69352,-100,4,2,1,75,0,0
69695,-100,4,2,1,70,0,0
69867,-100,4,2,4,75,0,0
70209,-100,4,2,1,70,0,0
70895,-100,4,2,1,60,0,0
71581,-100,4,2,1,50,0,0
72267,-100,4,2,1,40,0,0
72952,-100,4,2,1,30,0,0
73638,-100,4,2,1,20,0,0
74324,-100,4,2,1,15,0,0
75009,-100,4,2,1,10,0,0
75695,-100,4,2,1,5,0,0

[Colours]
Combo1 : 249,242,157
Combo2 : 253,185,251
Combo3 : 172,208,249
Combo4 : 210,186,252

[HitObjects]
490,353,267,6,0,L|371:342,1,98.9999969787599,2|0,0:0|0:0,0:0:0:0:
302,334,952,2,0,P|308:373|309:400,2,49.4999984893799,2|0|2,0:0|0:0|0:0,0:0:0:0:
293,289,1467,1,2,0:0:0:0:
367,238,1809,1,2,0:0:0:0:
367,238,1981,2,0,L|465:247,2,98.9999969787599,2|2|0,0:0|0:0|0:0,0:0:0:0:
300,178,3009,5,2,0:0:0:0:
267,53,3524,1,2,0:0:0:0:
267,53,3695,2,0,L|217:57,2,49.4999984893799,2|0|2,0:0|0:0|0:0,0:0:0:0:
306,31,4209,2,0,L|454:19,1,148.49999546814,2|2,0:0|0:0,0:0:0:0:
496,97,5067,2,0,P|490:121|487:145,1,49.4999984893799,2|2,0:0|0:0,0:0:0:0:
382,227,5752,6,0,P|338:243|286:225,1,98.9999969787599,2|0,0:0|0:0,0:0:0:0:
256,198,6267,2,0,P|248:243|207:279,1,98.9999969787599,2|0,0:0|0:0,0:0:0:0:
165,277,6781,1,2,0:0:0:0:
76,284,7124,2,0,L|90:386,2,98.9999969787599,2|2|2,0:0|0:0|0:0,0:0:0:0:
11,222,8152,1,2,0:0:0:0:
41,138,8495,6,0,P|46:94|11:36,1,98.9999969787599,2|0,0:0|0:0,0:0:0:0:
53,14,9009,2,0,P|104:55|189:29,1,148.49999546814,2|2,0:0|0:0,0:0:0:0:
223,26,9695,1,2,0:0:0:0:
191,155,10209,6,0,B|236:77|332:71|419:159|329:243|279:194,1,296.99999093628,2|4,0:0|3:2,0:0:0:0:
210,247,11581,1,0,3:0:0:0:
188,333,11924,2,0,L|134:327,2,49.4999984893799,2|2|2,3:2|0:0|3:2,0:0:0:0:
216,367,12438,2,0,L|314:356,1,98.9999969787599,2|2,0:0|0:0,0:0:0:0:
357,367,12952,1,0,3:2:0:0:
443,350,13295,1,0,3:0:0:0:
473,266,13638,1,0,3:0:0:0:
413,203,13981,6,0,L|314:192,1,98.9999969787599,0|0,3:2|3:0,0:0:0:0:
225,199,14667,2,0,P|233:237|237:267,2,49.4999984893799,2|2|2,3:2|0:0|3:2,0:0:0:0:
209,157,15181,2,0,P|201:108|190:59,1,98.9999969787599,2|2,0:0|0:0,0:0:0:0:
203,17,15695,1,2,3:2:0:0:
292,19,16038,1,0,3:0:0:0:
381,23,16381,2,0,L|441:15,1,49.4999984893799,0|2,3:0|0:0,0:0:0:0:
474,9,16724,6,0,B|469:48|469:48|475:67|475:67|464:129,1,98.9999969787599,4|0,3:2|3:0,0:0:0:0:
464,150,17238,1,2,0:0:0:0:
507,227,17581,1,2,0:0:0:0:
453,298,17924,2,0,P|483:323|504:381,2,98.9999969787599,2|2|2,0:0|0:0|0:0,0:0:0:0:
411,377,18952,1,2,0:0:0:0:
337,326,19295,2,0,L|319:209,1,98.9999969787599,2|2,0:0|0:0,0:0:0:0:
292,194,19809,2,0,P|244:193|203:157,2,98.9999969787599,2|0|0,3:2|3:0|3:0,0:0:0:0:
274,106,20838,5,0,3:0:0:0:
217,37,21181,2,0,P|188:37|157:31,1,49.4999984893799,10|8,0:0|0:0,0:0:0:0:
123,31,21524,2,0,P|108:55|87:79,1,49.4999984893799,10|8,0:0|0:0,0:0:0:0:
71,109,21867,2,0,P|85:133|95:163,1,49.4999984893799,10|10,0:0|0:0,0:0:0:0:
103,201,22209,6,0,B|48:184|48:184|-8:215,2,110,6|10|0,3:2|0:0|3:0,0:0:0:0:
197,169,23238,2,0,P|204:208|208:234,1,55,10|2,0:2|0:2,0:0:0:0:
248,249,23581,2,0,P|230:315|224:356,1,110,2|10,3:2|0:2,0:0:0:0:
128,382,24267,1,2,3:2:0:0:
36,344,24609,2,0,L|26:282,1,55,8|2,0:0|0:0,0:0:0:0:
40,241,24952,6,0,L|21:126,1,110,0|8,3:0|0:0,0:0:0:0:
55,47,25638,2,0,P|22:42|1:27,2,55,2|2|10,3:2|3:2|0:0,0:0:0:0:
101,29,26152,2,0,P|147:13|211:39,1,110,2|2,0:0|0:0,0:0:0:0:
217,84,26667,1,10,0:0:0:0:
217,84,26838,1,2,0:0:0:0:
243,179,27181,2,0,L|305:168,2,55,8|10|10,0:0|0:0|0:0,0:0:0:0:
227,226,27695,5,2,3:2:0:0:
197,323,28038,1,8,0:0:0:0:
197,323,28209,2,0,P|243:311|305:340,1,110,6|0,3:2|3:2,0:0:0:0:
342,369,28724,1,10,0:0:0:0:
342,369,28895,2,0,P|388:381|450:352,1,110,6|0,3:2|3:2,0:0:0:0:
477,321,29409,1,10,0:0:0:0:
508,226,29752,2,0,P|505:193|512:158,1,55,2|8,3:2|0:0,0:0:0:0:
500,122,30095,2,0,P|470:108|443:84,1,55,10|0,0:0|0:0,0:0:0:0:
405,112,30438,6,0,P|403:58|416:-8,2,110,6|8|2,3:2|0:0|3:2,0:0:0:0:
319,173,31467,2,0,L|255:162,1,55,8|2,0:0|0:0,0:0:0:0:
218,146,31809,1,2,3:2:0:0:
155,221,32152,1,10,0:0:0:0:
61,188,32495,1,2,3:2:0:0:
48,89,32838,2,0,L|52:28,1,55,10|2,0:0|0:0,0:0:0:0:
95,10,33181,6,0,P|140:32|200:7,1,110,12|0,0:0|3:0,0:0:0:0:
243,7,33695,2,0,P|246:56|298:96,1,110,8|0,0:0|3:0,0:0:0:0:
338,119,34209,1,8,0:0:0:0:
338,119,34381,1,6,3:2:0:0:
396,33,34724,2,0,L|455:27,1,55,8|8,3:2|3:2,0:0:0:0:
500,29,35067,1,8,3:2:0:0:
507,270,35924,6,0,B|461:269|444:291|444:291|423:328|386:324,1,121.000003692627,6|8,3:2|0:0,0:0:0:0:
371,358,36438,1,2,0:0:0:0:
371,358,36609,2,0,P|312:327|238:340,1,121.000003692627,2|10,3:2|0:0,0:0:0:0:
212,343,37124,2,0,P|153:374|79:361,1,121.000003692627,2|2,0:0|0:0,0:0:0:0:
53,357,37638,1,10,0:0:0:0:
7,271,37981,1,0,3:0:0:0:
63,192,38324,1,8,0:0:0:0:
63,192,38495,6,0,L|189:180,1,121.000003692627,2|2,0:0|0:0,0:0:0:0:
231,173,39009,2,0,P|227:134|235:99,1,60.5000018463135,10|2,0:0|0:0,0:0:0:0:
256,72,39352,1,2,3:2:0:0:
180,20,39695,1,10,0:0:0:0:
180,20,39867,2,0,P|121:39|61:19,1,121.000003692627,2|0,0:0|0:0,0:0:0:0:
22,43,40381,2,0,P|41:102|21:162,1,121.000003692627,8|0,0:0|3:0,0:0:0:0:
11,206,40895,1,10,0:0:0:0:
11,206,41067,1,10,0:0:0:0:
9,302,41409,6,0,P|49:293|117:335,1,121.000003692627,2|8,3:2|0:0,0:0:0:0:
159,312,41924,2,0,P|131:281|133:201,1,121.000003692627,4|0,3:2|3:0,0:0:0:0:
162,168,42438,1,8,0:0:0:0:
258,158,42781,2,0,P|260:120|244:34,1,121.000003692627,2|8,3:2|0:0,0:0:0:0:
286,12,43295,2,0,P|317:32|400:61,1,121.000003692627,4|0,3:2|3:0,0:0:0:0:
443,65,43809,1,10,0:0:0:0:
452,161,44152,6,0,P|484:152|517:157,2,60.5000018463135,10|4|4,0:0|3:0|3:0,0:0:0:0:
420,198,44667,2,0,P|432:256|432:317,1,121.000003692627,10|8,0:0|0:0,0:0:0:0:
426,365,45181,1,8,0:0:0:0:
426,365,45352,2,0,L|296:353,1,121.000003692627,6|10,3:2|0:0,0:0:0:0:
259,370,45867,1,10,0:0:0:0:
217,282,46209,2,0,L|225:212,1,60.5000018463135,2|8,3:2|0:0,0:0:0:0:
205,177,46552,2,0,L|213:107,1,60.5000018463135,10|10,0:0|0:0,0:0:0:0:
215,68,46895,6,0,B|152:83|152:83|99:47,1,121.000003692627,6|8,3:2|0:0,0:0:0:0:
68,29,47409,1,2,0:0:0:0:
68,29,47581,1,2,3:2:0:0:
7,104,47924,1,8,0:0:0:0:
7,104,48095,2,0,L|24:235,1,121.000003692627,2|2,0:0|0:0,0:0:0:0:
26,272,48609,1,10,0:0:0:0:
54,364,48952,1,0,3:0:0:0:
154,380,49295,1,8,0:0:0:0:
154,380,49467,6,0,L|171:249,1,121.000003692627,2|2,0:0|0:0,0:0:0:0:
137,223,49981,2,0,L|145:157,1,60.5000018463135,10|2,0:0|0:0,0:0:0:0:
153,115,50324,1,2,3:2:0:0:
216,42,50667,1,10,0:0:0:0:
216,42,50838,2,0,B|254:43|254:43|282:28|282:28|338:26,1,121.000003692627,6|4,3:2|3:0,0:0:0:0:
379,14,51352,1,10,0:0:0:0:
468,50,51695,2,0,P|461:92|464:134,1,60.5000018463135,10|8,0:0|0:0,0:0:0:0:
457,158,52038,2,0,P|417:172|382:196,1,60.5000018463135,10|8,0:0|0:0,0:0:0:0:
357,201,52381,6,0,P|369:242|386:343,1,121.000003692627,6|8,3:2|0:0,0:0:0:0:
395,365,52895,1,2,0:0:0:0:
489,383,53238,2,0,P|494:353|502:324,1,60.5000018463135,2|8,0:0|0:0,0:0:0:0:
485,278,53581,2,0,P|474:218|458:160,1,121.000003692627,2|0,0:0|0:0,0:0:0:0:
454,116,54095,1,8,0:0:0:0:
454,116,54267,1,2,0:0:0:0:
370,67,54609,2,0,L|377:-6,2,60.5000018463135,2|10|2,0:0|0:0|0:0,0:0:0:0:
327,95,55124,6,0,P|277:76|206:101,1,121.000003692627,2|8,3:2|0:0,0:0:0:0:
171,117,55638,1,2,0:0:0:0:
88,66,55981,2,0,L|95:0,2,60.5000018463135,2|8|2,0:0|0:0|0:0,0:0:0:0:
40,74,56495,2,0,L|27:194,1,121.000003692627,6|8,3:2|0:0,0:0:0:0:
4,288,57181,2,0,P|35:282|68:290,1,60.5000018463135,2|8,3:2|0:0,0:0:0:0:
74,334,57524,2,0,P|105:340|138:332,1,60.5000018463135,10|8,0:0|0:0,0:0:0:0:
180,323,57867,6,0,L|188:399,2,60.5000018463135,14|2|10,0:0|3:2|0:0,0:0:0:0:
208,283,58381,2,0,L|194:151,1,121.000003692627,2|0,3:2|3:2,0:0:0:0:
184,115,58895,1,10,0:0:0:0:
209,21,59238,2,0,P|263:35|324:6,1,121.000003692627,14|8,0:0|0:0,0:0:0:0:
368,5,59752,2,0,P|382:58|438:97,1,121.000003692627,2|0,0:0|3:0,0:0:0:0:
469,128,60267,1,8,0:0:0:0:
427,215,60609,6,0,L|487:222,2,60.5000018463135,6|2|10,3:2|0:0|0:0,0:0:0:0:
378,214,61124,2,0,L|256:198,1,121.000003692627,6|8,3:2|0:0,0:0:0:0:
209,195,61638,2,0,P|217:233|227:319,1,121.000003692627,6|8,3:2|0:0,0:0:0:0:
199,354,62152,1,8,0:0:0:0:
298,373,62495,1,10,0:0:0:0:
298,373,62667,2,0,L|358:365,1,60.5000018463135,10|8,0:0|0:0,0:0:0:0:
405,372,63009,1,10,0:0:0:0:
501,369,63352,6,0,P|511:321|472:240,1,121.000003692627,14|10,0:2|0:0,0:0:0:0:
457,216,63867,2,0,P|443:157|462:101,1,121.000003692627,2|0,3:2|3:0,0:0:0:0:
479,59,64381,1,8,0:0:0:0:
384,36,64724,2,0,B|322:58|322:58|247:22,1,121.000003692627,6|10,3:2|0:0,0:0:0:0:
228,30,65238,1,10,0:0:0:0:
228,30,65409,2,0,L|160:20,1,60.5000018463135,8|10,0:0|0:0,0:0:0:0:
123,39,65752,1,0,3:0:0:0:
26,28,66095,6,0,P|33:57|43:153,1,121.000003692627,6|2,3:2|0:0,0:0:0:0:
31,194,66609,2,0,P|86:173|140:197,1,121.000003692627,6|8,3:2|0:0,0:0:0:0:
184,219,67124,2,0,P|194:160|242:125,1,121.000003692627,6|8,3:2|0:0,0:0:0:0:
289,114,67638,1,6,3:2:0:0:
432,133,68152,6,0,L|438:71,2,60.5000018463135,2|0|8,0:0|3:0|0:0,0:0:0:0:
449,190,68667,1,0,3:0:0:0:
449,190,68838,2,0,P|441:238|441:316,1,110,2|0,3:2|0:0,0:0:0:0:
392,316,69352,2,0,P|354:285|286:246,1,110,2|0,3:2|0:0,0:0:0:0:
252,243,69867,1,6,3:2:0:0:
256,192,70038,12,0,75695,0:0:0:0:
