osu file format v14

[General]
AudioFilename: audio.ogg
AudioLeadIn: 0
PreviewTime: 35324
Countdown: 0
SampleSet: Soft
StackLeniency: 0.7
Mode: 0
LetterboxInBreaks: 0
WidescreenStoryboard: 1

[Editor]
Bookmarks: 267,11238,22209,33181,35924,75695
DistanceSpacing: 0.3
BeatDivisor: 4
GridSize: 32
TimelineZoom: 1.8

[Metadata]
Title:STUDY STEADY
TitleUnicode:STUDY§STEADY
Artist:solfa feat. Shimotsuki Haruka + Ceui
ArtistUnicode:solfa feat. 霜月はるか+Ceui
Creator:tomatas95
Version:Light Insane
Source:スタディ§ステディ2
Tags:eroge Study § Steady 2 video game marmalade galgame visual novel vn japanese opening op shimotsukin gazimal shirahane suou _xyliac pop j-pop jpop
BeatmapID:4018373
BeatmapSetID:1907991

[Difficulty]
HPDrainRate:4.5
CircleSize:3.5
OverallDifficulty:7.5
ApproachRate:8.2
SliderMultiplier:1.4
SliderTickRate:1

[Events]
//Background and Video events
0,0,"PrincessYunoWaifu.jpg",0,0
Video,0,"lewdvideo.mp4"
//Break Periods
//Storyboard Layer 0 (Background)
//Storyboard Layer 1 (Fail)
//Storyboard Layer 2 (Pass)
//Storyboard Layer 3 (Foreground)
//Storyboard Layer 4 (Overlay)
//Storyboard Sound Samples

[TimingPoints]
267,342.857142857143,4,2,1,40,1,0
267,-142.857142857143,4,2,1,40,0,0
2838,-142.857142857143,4,2,1,30,0,0
3009,-142.857142857143,4,2,1,40,0,0
10124,-142.857142857143,4,2,1,45,0,0
10209,-142.857142857143,4,2,1,45,0,0
10552,-142.857142857143,4,2,1,50,0,0
10895,-142.857142857143,4,2,1,60,0,0
11067,-142.857142857143,4,2,1,15,0,0
11238,-125,4,2,1,65,0,0
11581,-125,4,2,1,60,0,0
12952,-125,4,2,1,55,0,0
13981,-125,4,2,1,60,0,0
15695,-125,4,2,1,55,0,0
16724,-125,4,2,3,60,0,0
17067,-125,4,2,1,60,0,0
19809,-125,4,2,1,55,0,0
21181,-125,4,2,1,60,0,0
21524,-125,4,2,1,65,0,0
21867,-125,4,2,1,70,0,0
22209,-100,4,2,4,75,0,0
22552,-100,4,2,6,70,0,0
22895,-111.111111111111,4,2,6,70,0,0
23581,-111.111111111111,4,2,6,75,0,0
23752,-111.111111111111,4,2,6,70,0,0
23838,-111.111111111111,4,2,6,5,0,0
23924,-111.111111111111,4,2,6,70,0,0
24952,-111.111111111111,4,2,6,75,0,0
25123,-111.111111111111,4,2,6,70,0,0
26324,-111.111111111111,4,2,6,75,0,0
26495,-111.111111111111,4,2,6,70,0,0
27695,-111.111111111111,4,2,6,65,0,0
27866,-111.111111111111,4,2,6,70,0,0
28209,-111.111111111111,4,2,3,75,0,0
28552,-111.111111111111,4,2,6,70,0,0
28895,-111.111111111111,4,2,1,75,0,0
29238,-111.111111111111,4,2,6,70,0,0
30438,-111.111111111111,4,2,4,75,0,0
30781,-111.111111111111,4,2,6,70,0,0
31809,-111.111111111111,4,2,6,75,0,0
31981,-111.111111111111,4,2,6,70,0,0
32067,-111.111111111111,4,2,6,5,0,0
32152,-111.111111111111,4,2,6,70,0,0
33181,-100,4,2,1,75,0,0
33352,-100,4,2,1,70,0,0
33695,-100,4,2,1,75,0,0
33867,-100,4,2,1,70,0,0
34209,-100,4,2,1,75,0,0
34381,-100,4,2,3,80,0,0
34724,-100,4,2,1,75,0,0
35238,-100,4,2,1,40,0,0
35924,-83.3333333333333,4,2,4,85,0,1
36267,-90.9090909090909,4,2,1,80,0,1
41409,-90.9090909090909,4,2,1,75,0,1
41924,-90.9090909090909,4,2,1,80,0,1
42781,-90.9090909090909,4,2,1,75,0,1
43295,-90.9090909090909,4,2,1,80,0,1
43981,-90.9090909090909,4,2,1,75,0,1
44152,-90.9090909090909,4,2,1,80,0,1
44324,-90.9090909090909,4,2,1,75,0,1
45009,-90.9090909090909,4,2,1,80,0,1
45352,-90.9090909090909,4,2,3,80,0,1
45695,-90.9090909090909,4,2,1,80,0,1
46381,-90.9090909090909,4,2,1,70,0,0
46552,-90.9090909090909,4,2,1,75,0,0
46724,-90.9090909090909,4,2,1,80,0,0
46895,-83.3333333333333,4,2,4,85,0,1
47238,-90.9090909090909,4,2,1,80,0,1
50667,-90.9090909090909,4,2,1,75,0,1
50838,-90.9090909090909,4,2,1,80,0,1
51524,-90.9090909090909,4,2,1,75,0,1
51867,-90.9090909090909,4,2,1,70,0,1
52038,-90.9090909090909,4,2,1,75,0,1
52209,-90.9090909090909,4,2,1,80,0,1
52381,-90.9090909090909,4,2,1,85,0,1
52724,-90.9090909090909,4,2,1,80,0,1
56495,-90.9090909090909,4,2,4,80,0,1
56838,-90.9090909090909,4,2,1,80,0,1
57181,-90.9090909090909,4,2,1,70,0,0
57524,-90.9090909090909,4,2,1,75,0,0
57695,-90.9090909090909,4,2,1,80,0,0
57867,-90.9090909090909,4,2,1,85,0,1
59238,-90.9090909090909,4,2,4,85,0,1
59581,-90.9090909090909,4,2,1,85,0,1
59924,-90.9090909090909,4,2,1,75,0,1
60609,-90.9090909090909,4,2,1,80,0,1
61124,-90.9090909090909,4,2,6,85,0,1
61467,-90.9090909090909,4,2,1,75,0,1
61638,-90.9090909090909,4,2,6,85,0,1
61981,-90.9090909090909,4,2,1,80,0,1
62667,-90.9090909090909,4,2,1,70,0,1
62838,-90.9090909090909,4,2,1,75,0,1
63009,-90.9090909090909,4,2,1,80,0,1
63352,-90.9090909090909,4,2,4,85,0,1
63524,-90.9090909090909,4,2,1,85,0,1
64895,-90.9090909090909,4,2,1,80,0,1
65752,-90.9090909090909,4,2,1,75,0,1
65924,-90.9090909090909,4,2,1,70,0,1
66095,-90.9090909090909,4,2,4,85,0,1
66267,-90.9090909090909,4,2,1,80,0,1
66609,-90.9090909090909,4,2,6,85,0,1
66952,-90.9090909090909,4,2,1,75,0,1
67124,-90.9090909090909,4,2,6,85,0,1
67467,-90.9090909090909,4,2,1,75,0,1
67638,-111.111111111111,4,2,6,80,0,1
68152,-111.111111111111,4,2,1,70,0,1
68495,-90.9090909090909,4,2,1,70,0,1
68838,-90.9090909090909,4,2,1,75,0,0
69181,-90.9090909090909,4,2,1,70,0,0
69352,-90.9090909090909,4,2,1,75,0,0
69695,-90.9090909090909,4,2,1,70,0,0
69867,-222.222222222222,4,2,4,75,0,0
70209,-222.222222222222,4,2,1,70,0,0
70895,-222.222222222222,4,2,1,60,0,0
71581,-222.222222222222,4,2,1,50,0,0
72267,-222.222222222222,4,2,1,40,0,0
72952,-222.222222222222,4,2,1,30,0,0
73638,-222.222222222222,4,2,1,20,0,0
74324,-222.222222222222,4,2,1,15,0,0
75009,-222.222222222222,4,2,1,10,0,0
75695,-100,4,2,1,5,0,0

[Colours]
Combo1 : 249,242,157
Combo2 : 253,185,251
Combo3 : 172,208,249
Combo4 : 210,186,252

[HitObjects]
14,59,267,6,0,L|119:45,1,97.9999970092774,2|0,0:0|0:0,0:0:0:0:
195,52,781,1,2,0:0:0:0:
195,52,952,2,0,P|195:25|178:-7,2,48.9999985046387,2|0|2,0:0|0:0|0:0,0:0:0:0:
147,121,1467,6,0,P|156:166|167:239,1,97.9999970092774,2|0,0:0|0:0,0:0:0:0:
211,295,1981,2,0,B|165:324|118:293|118:293|71:264|26:291,1,195.999994018555,2|0,0:0|0:0,0:0:0:0:
26,291,3009,2,0,P|18:242|8:194,1,97.9999970092774,2|0,0:0|0:0,0:0:0:0:
95,197,3524,1,2,0:0:0:0:
95,197,3695,2,0,P|99:221|103:245,2,48.9999985046387,2|0|2,0:0|0:0|0:0,0:0:0:0:
165,138,4209,6,0,P|214:152|268:122,1,97.9999970092774,2|0,0:0|0:0,0:0:0:0:
317,198,4724,2,0,P|280:233|279:295,1,97.9999970092774,2|2,0:0|0:0,0:0:0:0:
357,269,5238,2,0,L|472:281,1,97.9999970092774,2|2,0:0|0:0,0:0:0:0:
492,200,5752,6,0,P|485:156|527:101,1,97.9999970092774,2|0,0:0|0:0,0:0:0:0:
453,43,6267,2,0,P|418:71|349:62,1,97.9999970092774,2|0,0:0|0:0,0:0:0:0:
362,162,6781,2,0,P|385:170|407:206,1,48.9999985046387,2|2,0:0|0:0,0:0:0:0:
456,280,7124,6,0,P|448:319|442:395,2,97.9999970092774,2|2|2,0:0|0:0|0:0,0:0:0:0:
359,266,7981,1,2,0:0:0:0:
359,266,8152,2,0,P|362:285|366:323,1,48.9999985046387,2|0,0:0|0:0,0:0:0:0:
287,370,8495,6,0,L|171:357,1,97.9999970092774,2|0,0:0|0:0,0:0:0:0:
131,290,9009,2,0,L|15:277,1,97.9999970092774,2|0,0:0|0:0,0:0:0:0:
53,369,9524,2,0,L|101:374,1,48.9999985046387,2|0,0:0|0:0,0:0:0:0:
222,285,10209,6,0,B|289:234|261:125|162:124|138:197|180:223,1,244.999992523194,2|0,0:0|0:0,0:0:0:0:
172,216,11238,6,0,L|50:205,1,112,4|0,3:2|3:0,0:0:0:0:
17,130,11752,1,2,0:0:0:0:
17,130,11924,2,0,P|13:97|2:62,2,56,2|2|2,3:2|0:0|3:2,0:0:0:0:
110,130,12438,6,0,P|100:79|141:21,1,112,2|2,0:0|0:0,0:0:0:0:
183,91,12952,2,0,L|302:79,2,112,0|0|0,3:2|3:0|3:0,0:0:0:0:
183,91,13981,6,0,P|194:138|203:203,1,112,0|0,3:2|3:0,0:0:0:0:
157,278,14495,1,2,0:0:0:0:
157,278,14667,2,0,L|79:268,2,56,2|2|2,3:2|0:0|3:2,0:0:0:0:
202,356,15181,6,0,L|313:370,1,112,2|2,0:0|0:0,0:0:0:0:
356,292,15695,2,0,L|244:277,2,112,2|0|0,3:2|3:0|3:0,0:0:0:0:
395,377,16552,1,2,0:0:0:0:
479,337,16724,6,0,P|475:289|452:209,1,112,4|0,3:2|3:0,0:0:0:0:
389,175,17238,2,0,P|334:187|278:156,2,112,2|2|2,0:0|0:0|0:0,0:0:0:0:
390,86,18095,5,0,3:0:0:0:
390,86,18267,2,0,P|445:96|500:65,2,112,2|2|2,0:0|0:0|0:0,0:0:0:0:
390,86,19295,6,0,L|269:98,1,112,2|2,0:0|0:0,0:0:0:0:
264,14,19809,2,0,L|385:2,2,112,2|0|0,3:2|3:0|3:0,0:0:0:0:
263,14,20838,6,0,P|273:57|278:81,2,56,0|8|10,3:0|0:0|0:0,0:0:0:0:
145,85,21352,1,8,0:0:0:0:
145,85,21524,1,10,0:0:0:0:
158,0,21695,5,8,0:0:0:0:
61,119,21867,1,10,0:0:0:0:
214,143,22038,1,10,0:0:0:0:
126,223,22209,6,0,P|131:180|148:64,2,140,6|10|0,3:2|0:0|3:0,0:0:0:0:
190,285,23067,1,0,3:0:0:0:
190,285,23238,2,0,L|252:279,1,62.9999980773926,10|2,0:0|0:0,0:0:0:0:
105,309,23581,6,0,L|10:301,1,94.499997116089,2|0,3:2|0:0,0:0:0:0:
0,302,23924,2,0,P|9:338|11:376,1,62.9999980773926,10|0,0:0|0:0,0:0:0:0:
40,217,24267,2,0,P|43:185|51:155,1,62.9999980773926,2|0,3:2|3:0,0:0:0:0:
77,1,24609,1,8,0:0:0:0:
77,1,24781,1,2,0:0:0:0:
0,73,24952,6,0,L|130:84,1,125.999996154785,0|8,3:0|0:0,0:0:0:0:
196,24,25467,1,2,0:0:0:0:
212,115,25638,2,0,L|223:188,2,62.9999980773926,2|2|10,3:2|3:2|0:0,0:0:0:0:
282,55,26152,6,0,P|338:29|398:45,1,125.999996154785,2|2,0:0|0:0,0:0:0:0:
438,139,26667,1,10,0:0:0:0:
359,179,26838,2,0,L|350:117,1,62.9999980773926,2|0,0:0|3:0,0:0:0:0:
491,76,27181,2,0,L|486:44,2,31.4999990386963,8|8|8,0:0|0:0|0:0,0:0:0:0:
500,223,27524,1,8,0:0:0:0:
500,223,27609,1,8,0:0:0:0:
500,223,27695,6,0,P|465:217|421:230,2,62.9999980773926,2|2|8,3:2|3:2|0:0,0:0:0:0:
443,363,28209,2,0,B|476:382|476:382|485:343|457:334|469:289,1,125.999996154785,6|0,3:2|3:2,0:0:0:0:
339,216,28724,1,10,0:0:0:0:
389,284,28895,6,0,P|347:301|266:251,1,125.999996154785,6|0,3:2|3:0,0:0:0:0:
269,126,29409,2,0,P|262:165|258:197,1,62.9999980773926,10|0,0:0|0:0,0:0:0:0:
188,292,29752,2,0,P|183:260|178:229,1,62.9999980773926,2|8,3:2|0:0,0:0:0:0:
175,220,30009,1,8,0:0:0:0:
173,210,30095,1,10,0:0:0:0:
169,114,30267,1,2,0:0:0:0:
61,244,30438,6,0,P|53:191|31:101,1,125.999996154785,6|8,3:2|0:0,0:0:0:0:
0,24,30952,1,2,0:0:0:0:
102,41,31124,2,0,L|193:26,1,62.9999980773926,2|0,3:2|3:0,0:0:0:0:
322,85,31467,2,0,L|413:70,1,62.9999980773926,8|2,0:0|0:0,0:0:0:0:
246,31,31809,6,0,L|228:145,1,94.499997116089,2|0,3:2|0:0,0:0:0:0:
230,133,32152,2,0,P|240:172|246:207,1,62.9999980773926,10|0,0:0|0:0,0:0:0:0:
311,306,32495,2,0,P|301:345|295:380,1,62.9999980773926,2|0,3:2|3:0,0:0:0:0:
224,282,32838,1,10,0:0:0:0:
332,214,33009,1,2,0:0:0:0:
419,369,33181,6,0,B|426:321|426:321|421:294|421:294|439:222,1,140,12|0,0:0|3:0,0:0:0:0:
504,56,33695,1,8,0:0:0:0:
382,148,33867,1,0,3:0:0:0:
426,6,34038,1,0,3:0:0:0:
480,148,34209,1,8,0:0:0:0:
352,62,34381,6,0,L|198:78,1,140,6|8,3:2|3:2,0:0:0:0:
85,165,34895,1,8,3:2:0:0:
71,11,35067,1,8,3:2:0:0:
0,301,35924,6,0,B|34:304|60:314|60:314|72:344|72:344|100:357|153:354,1,167.999994873047,6|8,3:2|0:0,0:0:0:0:
222,242,36438,1,2,0:0:0:0:
135,272,36609,2,0,P|131:227|120:188,1,77.0000023498536,2|0,3:2|0:0,0:0:0:0:
31,61,36952,1,10,0:0:0:0:
0,137,37124,6,0,P|49:144|109:50,1,154.000004699707,2|2,0:0|0:0,0:0:0:0:
265,5,37638,2,0,L|291:169,2,154.000004699707,10|0|8,0:0|3:0|0:0,0:0:0:0:
180,0,38495,6,0,L|206:164,1,154.000004699707,2|2,0:0|0:0,0:0:0:0:
178,347,39009,1,10,0:0:0:0:
240,227,39181,1,2,0:0:0:0:
312,340,39352,2,0,L|404:331,1,77.0000023498536,2|0,3:2|0:0,0:0:0:0:
489,313,39695,1,10,0:0:0:0:
489,313,39867,1,2,0:0:0:0:
401,235,40038,6,0,P|391:183|368:81,2,154.000004699707,2|8|0,3:2|0:0|3:0,0:0:0:0:
307,332,40895,2,0,L|315:375,2,38.5000011749268,10|8|8,0:0|0:0|0:0,0:0:0:0:
311,182,41238,1,10,0:0:0:0:
311,182,41324,1,8,0:0:0:0:
311,182,41409,6,0,B|261:175|235:192|235:192|200:239|147:211,1,154.000004699707,2|8,3:2|0:0,0:0:0:0:
26,257,41924,2,0,B|76:250|102:267|102:267|137:314|188:293,1,154.000004699707,4|0,3:2|3:0,0:0:0:0:
55,342,42438,1,8,0:0:0:0:
55,342,42609,1,2,3:2:0:0:
13,179,42781,6,0,B|6:132|6:132|13:101|13:101|-2:20,1,154.000004699707,2|8,3:2|0:0,0:0:0:0:
98,175,43295,2,0,B|105:128|105:128|98:97|98:97|113:16,1,154.000004699707,4|0,3:2|3:0,0:0:0:0:
322,2,43809,1,10,0:0:0:0:
183,89,43981,1,4,3:0:0:0:
328,166,44152,5,10,0:0:0:0:
269,100,44324,2,0,L|265:51,2,38.5000011749268,4|4|4,3:0|3:0|3:0,0:0:0:0:
188,212,44667,2,0,B|238:205|264:222|264:222|299:269|352:241,1,154.000004699707,10|8,0:0|0:0,0:0:0:0:
486,206,45181,1,8,0:0:0:0:
429,358,45352,6,0,P|421:305|395:185,1,154.000004699707,6|10,3:2|0:0,0:0:0:0:
401,195,45781,1,8,0:0:0:0:
402,183,45867,1,10,0:0:0:0:
470,82,46038,2,0,L|461:136,2,38.5000011749268,8|8|2,0:0|0:0|3:2,0:0:0:0:
395,28,46381,1,8,0:0:0:0:
395,28,46467,1,8,0:0:0:0:
395,28,46552,2,0,L|337:35,1,38.5000011749268,10|8,0:0|0:0,0:0:0:0:
288,86,46724,2,0,L|230:93,1,38.5000011749268,10|8,0:0|0:0,0:0:0:0:
203,156,46895,6,0,P|170:106|227:14,1,167.999994873047,6|8,3:2|0:0,0:0:0:0:
395,28,47409,1,2,0:0:0:0:
395,28,47581,2,0,P|389:70|389:111,1,77.0000023498536,2|0,3:2|0:0,0:0:0:0:
400,272,47924,1,8,0:0:0:0:
455,207,48095,6,0,P|405:187|315:255,1,154.000004699707,2|2,0:0|0:0,0:0:0:0:
229,298,48609,2,0,P|217:220|202:136,2,154.000004699707,10|0|8,0:0|3:0|0:0,0:0:0:0:
331,308,49467,2,0,P|319:230|304:146,1,154.000004699707,2|2,0:0|0:0,0:0:0:0:
254,37,49981,5,10,0:0:0:0:
203,146,50152,1,2,0:0:0:0:
252,25,50324,2,0,P|208:32|168:38,1,77.0000023498536,2|0,3:2|0:0,0:0:0:0:
27,112,50667,1,10,0:0:0:0:
101,0,50838,6,0,B|78:36|102:73|102:73|125:110|102:148,1,154.000004699707,6|4,3:2|3:0,0:0:0:0:
49,269,51352,2,0,P|44:229|34:190,1,77.0000023498536,10|0,0:0|3:0,0:0:0:0:
188,157,51695,2,0,P|178:194|174:232,1,77.0000023498536,10|8,0:0|0:0,0:0:0:0:
50,352,52039,5,10,0:0:0:0:
69,349,52123,1,8,0:0:0:0:
88,347,52209,1,8,0:0:0:0:
107,344,52295,1,8,0:0:0:0:
128,339,52381,6,0,B|163:334|191:343|191:343|206:362|206:362|238:369|288:353,1,154.000004699707,6|8,3:2|0:0,0:0:0:0:
458,369,52895,2,0,P|393:375|338:288,1,154.000004699707,2|2,0:0|0:0,0:0:0:0:
497,237,53409,1,8,0:0:0:0:
497,237,53581,1,2,0:0:0:0:
420,295,53752,6,0,P|413:235|389:121,1,154.000004699707,0|8,3:0|0:0,0:0:0:0:
503,71,54267,2,0,B|467:94|430:70|430:70|393:47|355:70,1,154.000004699707,2|2,0:0|0:0,0:0:0:0:
159,60,54781,1,10,0:0:0:0:
311,138,54952,1,2,0:0:0:0:
223,190,55124,6,0,P|228:139|261:15,2,154.000004699707,2|8|0,3:2|0:0|3:0,0:0:0:0:
230,295,55981,1,2,0:0:0:0:
230,295,56152,1,8,0:0:0:0:
319,331,56324,1,2,0:0:0:0:
149,344,56495,6,0,P|100:358|24:278,2,154.000004699707,6|8|2,3:2|0:0|3:2,0:0:0:0:
105,274,57352,1,8,0:0:0:0:
105,274,57438,1,8,0:0:0:0:
105,274,57524,2,0,L|96:213,1,38.5000011749268,10|8,0:0|0:0,0:0:0:0:
32,185,57695,2,0,L|23:124,1,38.5000011749268,8|8,0:0|0:0,0:0:0:0:
0,64,57867,6,0,B|35:53|35:53|91:65,1,77.0000023498536,14|2,0:0|3:2,0:0:0:0:
180,181,58209,5,10,0:0:0:0:
229,39,58381,1,2,3:2:0:0:
233,252,58552,5,10,0:0:0:0:
282,110,58724,1,0,3:2:0:0:
286,323,58895,5,10,0:0:0:0:
335,181,59067,1,2,3:2:0:0:
398,365,59238,6,0,P|409:291|440:180,1,154.000004699707,14|8,0:0|0:0,0:0:0:0:
508,93,59752,2,0,P|442:98|395:4,1,154.000004699707,2|0,0:0|3:0,0:0:0:0:
472,18,60267,1,8,0:0:0:0:
331,108,60438,1,0,3:0:0:0:
331,108,60524,1,0,3:0:0:0:
331,108,60609,6,0,B|287:106|268:94|268:94|261:78|261:78|241:59|164:69,1,154.000004699707,6|10,3:2|0:0,0:0:0:0:
48,19,61124,2,0,B|98:-6|118:27|118:27|96:74|128:115,1,154.000004699707,6|8,3:2|0:0,0:0:0:0:
200,234,61638,6,0,B|213:181|183:145|183:145|164:179|118:178,1,154.000004699707,6|8,3:2|0:0,0:0:0:0:
22,160,62152,2,0,L|69:152,2,38.5000011749268,8|8|8,0:0|0:0|0:0,0:0:0:0:
8,278,62495,1,10,0:0:0:0:
8,278,62581,1,8,0:0:0:0:
8,278,62667,2,0,P|2:248|-9:218,1,38.5000011749268,10|8,0:0|0:0,0:0:0:0:
100,252,62838,2,0,P|94:270|91:289,1,38.5000011749268,8|8,0:0|0:0,0:0:0:0:
24,360,63009,5,10,0:0:0:0:
43,362,63094,1,8,0:0:0:0:
62,364,63180,1,8,0:0:0:0:
81,367,63266,1,8,0:0:0:0:
102,370,63352,6,0,L|273:347,1,154.000004699707,14|10,0:2|0:0,0:0:0:0:
428,346,63867,5,2,3:2:0:0:
336,185,64038,1,8,0:0:0:0:
335,345,64209,5,0,3:0:0:0:
429,185,64381,1,8,0:0:0:0:
290,265,64552,1,2,3:2:0:0:
475,265,64724,6,0,L|524:274,3,38.5000011749268,6|8|8|8,3:2|0:0|0:0|0:0,0:0:0:0:
433,190,65067,1,10,0:0:0:0:
433,190,65152,1,8,0:0:0:0:
433,190,65238,2,0,L|428:139,1,38.5000011749268,10|8,0:0|0:0,0:0:0:0:
332,146,65409,1,8,0:0:0:0:
332,146,65494,1,8,0:0:0:0:
332,146,65580,2,0,L|337:197,1,38.5000011749268,10|8,0:0|0:0,0:0:0:0:
267,240,65752,2,0,L|163:227,1,77.0000023498536,0|4,3:0|3:0,0:0:0:0:
0,66,66095,5,6,3:2:0:0:
99,201,66267,1,2,0:0:0:0:
173,55,66438,1,8,0:0:0:0:
97,218,66609,2,0,P|95:153|77:39,1,154.000004699707,6|8,3:2|0:0,0:0:0:0:
271,16,67124,2,0,P|259:92|256:169,1,154.000004699707,6|8,3:2|0:0,0:0:0:0:
363,354,67638,6,0,B|387:293|334:203|334:203|306:259|250:252,1,251.999992309571,6|0,3:2|3:0,0:0:0:0:
168,237,68495,2,0,L|164:161,1,77.0000023498536,10|0,0:0|3:0,0:0:0:0:
119,344,68838,6,0,B|80:361|80:361|63:315|100:288|57:235,1,154.000004699707,2|0,3:2|0:0,0:0:0:0:
211,344,69352,2,0,B|250:361|250:361|267:315|230:288|273:235,1,154.000004699707,2|0,3:2|0:0,0:0:0:0:
164,141,69867,5,6,3:2:0:0:
256,192,69952,12,0,75695,0:0:0:0:
