osu file format v14

[General]
AudioFilename: audio.mp3
AudioLeadIn: 0
PreviewTime: 62176
Countdown: 0
SampleSet: Soft
StackLeniency: 0.4
Mode: 0
LetterboxInBreaks: 0
WidescreenStoryboard: 1

[Editor]
Bookmarks: 9853,17414,32710,47891,63129
DistanceSpacing: 0.9
BeatDivisor: 4
GridSize: 32
TimelineZoom: 2.3

[Metadata]
Title:Happy Beat!
TitleUnicode:Happy Beat!
Artist:solfa feat. Misato Aki
ArtistUnicode:solfa feat. 美郷あき
Creator:Alan-
Version:Normal
Source:ケモノ娘の育て方
Tags:galgame anime japanese pop video game SWEET&TEA How to Raise a Wolf Girl kemono musume no sodatekata eroge visual novel opening kuro fuyusaki fuyu
BeatmapID:2621908
BeatmapSetID:1169943

[Difficulty]
HPDrainRate:4
CircleSize:3.4
OverallDifficulty:4
ApproachRate:5
SliderMultiplier:1.4
SliderTickRate:1

[Events]
//Background and Video events
0,0,"KUBING.jpg",0,0
//Break Periods
//Storyboard Layer 0 (Background)
//Storyboard Layer 1 (Fail)
//Storyboard Layer 2 (Pass)
//Storyboard Layer 3 (Foreground)
//Storyboard Layer 4 (Overlay)
//Storyboard Sound Samples

[TimingPoints]
390,476.190476190476,4,2,1,30,1,0
9913,-83.3333333333333,4,2,1,70,0,0
17532,-100,4,2,1,70,0,0
18009,-100,4,2,1,55,0,0
62294,-100,4,2,1,40,0,0
62532,-100,4,2,1,50,0,0
62770,-100,4,2,1,60,0,0
63009,-100,4,2,1,70,0,0
63247,-83.3333333333333,4,2,1,70,0,1
78485,-83.3333333333333,4,2,1,70,0,0
86104,-83.3333333333333,4,2,1,40,0,0
86580,-83.3333333333333,4,2,1,50,0,0
87056,-83.3333333333333,4,2,1,60,0,0
87532,-83.3333333333333,4,2,1,70,0,0

[Colours]
Combo1 : 255,135,245
Combo2 : 157,252,61
Combo3 : 255,125,125
Combo4 : 184,125,255
Combo5 : 89,171,255

[HitObjects]
4,80,390,5,4,1:0:0:0:
4,80,628,2,0,L|104:58,1,70,2|10,0:0|0:1,0:0:0:0:
196,41,1342,2,0,P|234:106|221:161,2,105,2|2|2,1:0|0:0|0:0,0:0:0:0:
72,64,2532,5,2,0:0:0:0:
72,64,2770,2,0,L|56:158,1,70,10|2,0:1|0:0,0:0:0:0:
38,207,3247,2,0,P|66:242|117:255,1,70,2|2,1:0|1:2,0:0:0:0:
158,215,3723,2,0,P|201:205|244:231,1,70,10|2,0:1|0:0,0:0:0:0:
367,151,4437,5,2,0:0:0:0:
367,151,4675,1,10,0:1:0:0:
410,297,5151,2,0,P|475:303|498:362,2,105,2|2|2,1:0|0:0|0:0,0:0:0:0:
283,345,6342,5,2,0:0:0:0:
305,271,6580,2,0,P|329:239|362:228,1,70,10|2,0:1|0:0,0:0:0:0:
434,220,7056,2,0,P|473:238|523:229,2,70,2|2|10,1:0|1:2|0:1,0:0:0:0:
432,142,7770,2,0,B|385:86|430:20|430:20|291:0|237:131|237:131|287:173|369:142,1,490,10|8,0:1|0:1,0:0:0:0:
488,84,9913,6,0,P|511:133|492:195,1,83.9999974365235,6|0,1:2|0:0,0:0:0:0:
492,252,10389,2,0,P|445:248|402:273,1,83.9999974365235,10|0,0:0|0:0,0:0:0:0:
386,352,10866,2,0,P|326:377|239:324,1,167.999994873047,2|8,1:2|0:0,0:0:0:0:
283,149,11818,2,0,P|297:57|325:26,2,125.999996154785,2|0|0,1:2|0:0|0:0,0:0:0:0:
291,241,12770,2,0,B|76:263|223:360|-9:375,1,335.999989746094,2|0,1:2|1:0,0:0:0:0:
25,288,13961,5,2,0:0:0:0:
25,288,14199,2,0,L|42:182,1,83.9999974365235,10|0,0:0|0:0,0:0:0:0:
49,116,14675,1,2,1:2:0:0:
49,116,14913,2,0,P|152:94|108:200,1,251.999992309571,2|0,0:0|1:0,0:0:0:0:
38,205,15866,5,10,0:0:0:0:
38,205,16104,2,0,P|52:262|90:299,1,83.9999974365235,10|8,0:0|0:0,0:0:0:0:
152,316,16580,2,0,P|195:297|256:294,2,83.9999974365235,10|8|8,0:0|0:0|0:0,0:0:0:0:
89,383,17294,1,8,0:0:0:0:
89,383,17532,1,4,1:2:0:0:
124,225,18009,6,0,P|175:187|265:194,1,140,10|0,0:0|1:0,0:0:0:0:
317,233,18723,1,2,0:0:0:0:
317,233,18961,2,0,P|361:221|399:238,1,70,10|0,0:0|0:0,0:0:0:0:
453,260,19437,2,0,B|488:393,2,105,2|2|2,1:2|0:0|0:0,0:0:0:0:
448,183,20389,2,0,P|425:107|370:77,1,140,0|10,1:2|0:0,0:0:0:0:
234,15,21342,1,2,1:2:0:0:
253,160,21818,6,0,P|317:180|377:130,1,140,10|0,0:0|1:0,0:0:0:0:
386,67,22532,1,2,0:0:0:0:
386,67,22770,2,0,P|350:37|297:37,1,70,10|0,0:0|0:0,0:0:0:0:
305,106,23247,2,0,L|324:228,2,105,2|2|2,1:2|0:0|0:0,0:0:0:0:
237,68,24199,2,0,B|164:67|179:124|106:120,1,140,0|10,1:0|0:0,0:0:0:0:
13,238,25151,6,0,P|65:285|146:261,1,140,2|8,1:2|0:0,0:0:0:0:
166,208,25866,1,2,0:0:0:0:
166,208,26104,2,0,L|249:189,1,70,2|0,1:2|0:0,0:0:0:0:
311,199,26580,2,0,P|327:229|331:266,1,70,10|0,0:0|0:0,0:0:0:0:
366,332,27056,2,0,P|433:342|489:303,2,140,2|10|2,1:2|0:0|1:2,0:0:0:0:
214,358,28485,2,0,L|228:281,1,70,10|0,0:0|0:0,0:0:0:0:
239,213,28961,5,2,1:2:0:0:
325,85,29437,1,10,0:0:0:0:
427,199,29913,1,2,1:2:0:0:
356,334,30389,5,10,0:0:0:0:
356,334,30628,2,0,P|307:337|281:329,1,70,2|0,0:0|1:2,0:0:0:0:
228,281,31104,2,0,P|260:214|278:204,1,70,2|8,0:0|0:0,0:0:0:0:
326,184,31580,2,0,L|346:95,1,70,2|8,0:0|0:0,0:0:0:0:
362,42,32056,1,8,0:0:0:0:
362,42,32294,2,0,L|410:29,1,35,8|8,0:0|0:0,0:0:0:0:
507,20,32770,6,0,P|495:79|484:96,1,70,4|0,1:2|0:0,0:0:0:0:
447,151,33247,2,0,P|392:144|326:195,1,140,10|0,0:0|1:2,0:0:0:0:
357,268,33961,1,2,0:0:0:0:
357,268,34199,2,0,P|372:330|363:355,1,70,10|0,0:0|0:0,0:0:0:0:
304,372,34675,2,0,L|174:387,2,105,2|2|2,1:2|0:0|0:0,0:0:0:0:
371,334,35628,2,0,P|344:257|287:237,1,140,0|10,1:2|0:0,0:0:0:0:
157,306,36580,1,2,1:2:0:0:
144,170,37056,6,0,B|77:176|89:225|23:232,1,140,10|0,0:0|1:2,0:0:0:0:
19,155,37770,1,2,0:0:0:0:
19,155,38009,2,0,P|26:93|46:78,1,70,10|0,0:0|0:0,0:0:0:0:
64,22,38485,2,0,L|197:-8,2,105,2|2|2,1:2|0:0|0:0,0:0:0:0:
28,90,39437,2,0,B|94:104|77:152|148:168,1,140,0|10,1:2|0:0,0:0:0:0:
259,67,40389,6,0,P|333:33|410:52,1,140,2|10,1:2|0:0,0:0:0:0:
501,146,41342,2,0,P|449:216|404:203,1,140,2|10,1:2|0:0,0:0:0:0:
334,71,42294,2,0,B|344:38|375:18|375:18|420:25|447:69,1,140,2|10,1:2|0:0,0:0:0:0:
485,198,43247,1,2,1:2:0:0:
454,350,43723,1,10,0:0:0:0:
305,307,44199,6,0,P|234:256|185:260,1,140,2|8,1:2|0:0,0:0:0:0:
120,301,44913,2,0,L|27:285,1,70,2|0,0:0|1:2,0:0:0:0:
8,151,45628,5,10,0:0:0:0:
8,151,45866,2,0,L|102:131,1,70,2|2,0:0|1:2,0:0:0:0:
189,31,46580,1,10,0:0:0:0:
189,31,46818,2,0,L|277:49,1,70,2|8,0:0|0:0,0:0:0:0:
301,114,47294,1,8,0:0:0:0:
301,114,47532,2,0,L|349:104,1,35,8|8,0:0|0:0,0:0:0:0:
418,26,48009,6,0,P|486:95|466:153,1,140,6|10,1:2|0:0,0:0:0:0:
337,185,48961,1,2,1:2:0:0:
421,312,49437,2,0,P|471:261|530:286,2,140,10|2|10,0:0|1:2|0:0,0:0:0:0:
273,350,50866,6,0,L|196:365,2,70,2|0|10,1:2|0:0|0:0,0:0:0:0:
348,334,51580,2,0,P|324:291|296:276,1,70,2|0,0:0|1:2,0:0:0:0:
241,241,52056,2,0,P|200:180|296:87,1,210,2|2,0:0|1:2,0:0:0:0:
333,229,53247,2,0,L|415:216,1,70,8|0,0:0|0:0,0:0:0:0:
471,184,53723,6,0,P|491:113|462:53,1,140,2|10,1:2|0:0,0:0:0:0:
394,25,54437,1,0,0:0:0:0:
394,25,54675,2,0,L|308:9,2,70,2|2|10,1:2|0:0|0:0,0:0:0:0:
503,134,55628,6,0,P|412:138|372:184,1,140,2|10,1:2|0:0,0:0:0:0:
294,297,56580,1,2,1:2:0:0:
196,177,57056,2,0,P|193:111|244:36,2,140,10|2|10,0:0|1:2|0:0,0:0:0:0:
121,302,58485,6,0,P|149:335|150:371,2,70,2|0|10,1:2|0:0|0:0,0:0:0:0:
58,256,59199,2,0,P|39:206|47:179,1,70,2|0,0:0|1:2,0:0:0:0:
29,120,59675,1,2,0:0:0:0:
29,120,59913,2,0,P|58:71|152:86,1,140,10|2,0:0|1:2,0:0:0:0:
276,9,60866,1,10,0:0:0:0:
322,155,61342,5,6,0:2:0:0:
175,202,61818,1,10,1:2:0:0:
67,91,62294,2,0,P|41:114|28:164,1,70,10|8,1:2|0:0,0:0:0:0:
29,227,62770,2,0,P|30:253|5:305,1,70,10|8,1:2|0:0,0:0:0:0:
1,368,63247,6,0,P|105:364|145:305,1,167.999994873047,14|8,1:2|0:0,0:0:0:0:
118,234,63961,1,2,0:0:0:0:
118,234,64199,2,0,B|135:195|183:187|183:187|218:223|214:265,1,167.999994873047,2|8,1:2|0:0,0:0:0:0:
216,354,64913,1,2,0:0:0:0:
216,354,65151,2,0,L|316:371,2,83.9999974365235,2|2|10,1:2|0:0|0:0,0:0:0:0:
214,262,65866,1,2,0:0:0:0:
214,262,66104,2,0,P|235:213|283:199,1,83.9999974365235,2|2,1:2|0:0,0:0:0:0:
350,179,66580,2,0,P|391:181|421:209,1,83.9999974365235,10|2,0:0|0:0,0:0:0:0:
445,298,67056,6,0,L|311:318,2,125.999996154785,2|2|2,1:2|0:0|0:0,0:0:0:0:
421,209,68009,2,0,P|406:113|482:64,1,167.999994873047,0|8,1:2|0:0,0:0:0:0:
495,157,68723,1,2,0:0:0:0:
495,157,68961,2,0,L|519:282,2,125.999996154785,2|2|2,1:2|0:0|0:0,0:0:0:0:
452,69,69913,2,0,P|414:64|355:81,1,83.9999974365235,0|2,1:2|0:0,0:0:0:0:
310,144,70389,1,8,0:0:0:0:
174,20,70866,6,0,P|70:12|28:65,1,167.999994873047,6|10,1:2|0:0,0:0:0:0:
14,144,71580,1,2,0:0:0:0:
14,144,71818,2,0,B|0:205|43:246|43:246|88:241|115:192,1,167.999994873047,2|10,1:2|0:0,0:0:0:0:
166,165,72532,5,2,0:0:0:0:
166,165,72770,2,0,P|201:142|254:145,2,83.9999974365235,2|2|10,1:2|0:0|0:0,0:0:0:0:
180,261,73485,1,2,0:0:0:0:
180,261,73723,2,0,P|179:311|220:361,1,83.9999974365235,2|2,1:2|0:0,0:0:0:0:
284,320,74199,2,0,P|285:270|244:220,1,83.9999974365235,10|2,0:0|0:0,0:0:0:0:
209,170,74675,1,0,1:2:0:0:
370,80,75151,6,0,L|477:99,1,83.9999974365235,10|0,0:0|0:0,0:0:0:0:
511,166,75628,2,0,P|445:235|465:304,1,167.999994873047,2|10,1:2|0:0,0:0:0:0:
405,372,76342,1,2,0:0:0:0:
405,372,76580,6,0,P|357:350|301:358,1,83.9999974365235,2|2,1:2|0:0,0:0:0:0:
234,354,77056,2,0,P|192:351|155:332,1,83.9999974365235,10|10,0:0|0:0,0:0:0:0:
94,263,77532,2,0,P|75:225|73:184,1,83.9999974365235,10|10,1:2|0:0,0:0:0:0:
99,97,78009,1,10,0:0:0:0:
99,97,78247,1,10,0:0:0:0:
286,123,78723,5,2,0:0:0:0:
286,123,78961,1,10,0:0:0:0:
438,35,79437,2,0,P|472:87|460:157,2,125.999996154785,2|2|2,1:2|0:0|0:0,0:0:0:0:
261,78,80628,5,2,0:0:0:0:
261,78,80866,2,0,P|208:58|162:74,1,83.9999974365235,10|2,0:0|0:0,0:0:0:0:
119,129,81342,2,0,L|36:113,2,83.9999974365235,2|2|10,1:2|0:0|0:0,0:0:0:0:
209,147,82056,1,2,0:0:0:0:
94,293,82532,5,2,0:0:0:0:
94,293,82770,1,10,0:0:0:0:
267,357,83247,2,0,P|337:362|383:320,2,125.999996154785,2|2|2,1:2|0:0|0:0,0:0:0:0:
182,321,84199,1,0,1:2:0:0:
349,242,84675,6,0,P|392:213|435:214,1,83.9999974365235,10|0,0:0|0:0,0:0:0:0:
463,128,85151,2,0,P|434:80|385:58,1,83.9999974365235,2|0,1:2|0:0,0:0:0:0:
319,71,85628,2,0,P|270:98|226:91,1,83.9999974365235,10|0,0:0|0:0,0:0:0:0:
152,81,86104,6,0,L|127:-22,2,83.9999974365235,2|8|10,1:2|0:0|0:0,0:0:0:0:
168,171,86818,1,8,0:0:0:0:
168,171,87056,2,0,P|131:229|145:261,1,83.9999974365235,10|8,1:2|0:0,0:0:0:0:
156,332,87532,1,10,0:0:0:0:
156,332,87770,1,8,0:0:0:0:
333,280,88247,5,6,1:2:0:0:
333,280,88485,1,6,1:2:0:0:
419,116,88961,2,0,B|441:93|472:85|472:85|505:100|530:150,2,125.999996154785,6|6|6,1:2|1:2|1:2,0:0:0:0:
