osu file format v14

[General]
AudioFilename: audio.mp3
AudioLeadIn: 0
PreviewTime: 62176
Countdown: 0
SampleSet: Soft
StackLeniency: 0.4
Mode: 0
LetterboxInBreaks: 0
WidescreenStoryboard: 1

[Editor]
Bookmarks: 9853,17414,32710,47891,63129,78425
DistanceSpacing: 0.9
BeatDivisor: 4
GridSize: 16
TimelineZoom: 1.8

[Metadata]
Title:Happy Beat!
TitleUnicode:Happy Beat!
Artist:solfa feat. Misato Aki
ArtistUnicode:solfa feat. 美郷あき
Creator:Alan-
Version:Insane
Source:ケモノ娘の育て方
Tags:galgame anime japanese pop video game SWEET&TEA How to Raise a Wolf Girl kemono musume no sodatekata eroge visual novel opening kuro fuyusaki fuyu
BeatmapID:2625140
BeatmapSetID:1169943

[Difficulty]
HPDrainRate:5
CircleSize:4
OverallDifficulty:7.5
ApproachRate:8.2
SliderMultiplier:1.6
SliderTickRate:1

[Events]
//Background and Video events
0,0,"KUBING.jpg",0,0
//Break Periods
//Storyboard Layer 0 (Background)
//Storyboard Layer 1 (Fail)
//Storyboard Layer 2 (Pass)
//Storyboard Layer 3 (Foreground)
//Storyboard Layer 4 (Overlay)
//Storyboard Sound Samples

[TimingPoints]
390,476.190476190476,4,2,1,30,1,0
390,-100,4,2,1,30,0,0
9913,-74.0740740740741,4,2,1,70,0,0
17532,-100,4,2,1,70,0,0
19437,-90.9090909090909,4,2,1,55,0,0
19675,-90.9090909090909,4,2,1,55,0,0
19794,-90.9090909090909,4,2,1,55,0,0
20032,-90.9090909090909,4,2,1,55,0,0
20151,-90.9090909090909,4,2,1,55,0,0
21342,-100,4,2,1,55,0,0
23247,-90.9090909090909,4,2,1,55,0,0
23485,-90.9090909090909,4,2,1,55,0,0
23604,-90.9090909090909,4,2,1,55,0,0
23842,-90.9090909090909,4,2,1,55,0,0
23961,-90.9090909090909,4,2,1,55,0,0
26104,-100,4,2,1,55,0,0
28485,-90.9090909090909,4,2,1,55,0,0
28842,-90.9090909090909,4,2,1,55,0,0
28961,-90.9090909090909,4,2,1,55,0,0
34675,-83.3333333333333,4,2,1,55,0,0
34913,-83.3333333333333,4,2,1,55,0,0
35032,-83.3333333333333,4,2,1,55,0,0
35270,-83.3333333333333,4,2,1,55,0,0
35389,-83.3333333333333,4,2,1,55,0,0
36580,-90.9090909090909,4,2,1,55,0,0
38485,-83.3333333333333,4,2,1,55,0,0
38723,-83.3333333333333,4,2,1,55,0,0
38842,-83.3333333333333,4,2,1,55,0,0
39080,-83.3333333333333,4,2,1,55,0,0
39199,-83.3333333333333,4,2,1,55,0,0
40747,-83.3333333333333,4,2,1,55,0,0
40866,-83.3333333333333,4,2,1,55,0,0
41699,-83.3333333333333,4,2,1,55,0,0
41818,-83.3333333333333,4,2,1,55,0,0
42651,-83.3333333333333,4,2,1,55,0,0
42770,-83.3333333333333,4,2,1,55,0,0
44556,-83.3333333333333,4,2,1,55,0,0
44675,-83.3333333333333,4,2,1,55,0,0
48842,-83.3333333333333,4,2,1,55,0,0
48961,-83.3333333333333,4,2,1,55,0,0
50747,-83.3333333333333,4,2,1,55,0,0
50866,-83.3333333333333,4,2,1,55,0,0
54080,-83.3333333333333,4,2,1,55,0,0
54199,-83.3333333333333,4,2,1,55,0,0
61342,-133.333333333333,4,2,1,55,0,0
61818,-83.3333333333333,4,2,1,55,0,0
62294,-76.9230769230769,4,2,1,40,0,0
62532,-76.9230769230769,4,2,1,50,0,0
62770,-76.9230769230769,4,2,1,60,0,0
63009,-76.9230769230769,4,2,1,70,0,0
63247,-76.9230769230769,4,2,1,70,0,1
78485,-76.9230769230769,4,2,1,70,0,0
79318,-76.9230769230769,4,2,1,70,0,0
79437,-76.9230769230769,4,2,1,70,0,0
83128,-76.9230769230769,4,2,1,70,0,0
83247,-76.9230769230769,4,2,1,70,0,0
84675,-76.9230769230769,4,2,1,70,0,0
85032,-76.9230769230769,4,2,1,70,0,0
85151,-76.9230769230769,4,2,1,70,0,0
85509,-76.9230769230769,4,2,1,70,0,0
85628,-76.9230769230769,4,2,1,70,0,0
86104,-76.9230769230769,4,2,1,40,0,0
86580,-76.9230769230769,4,2,1,50,0,0
87056,-76.9230769230769,4,2,1,60,0,0
87532,-76.9230769230769,4,2,1,70,0,0
88961,-66.6666666666667,4,2,1,70,0,0
89199,-66.6666666666667,4,2,1,70,0,0
89318,-66.6666666666667,4,2,1,70,0,0
89556,-66.6666666666667,4,2,1,70,0,0
89675,-66.6666666666667,4,2,1,70,0,0

[Colours]
Combo1 : 255,135,245
Combo2 : 157,252,61
Combo3 : 255,125,125
Combo4 : 184,125,255
Combo5 : 89,171,255

[HitObjects]
210,315,390,5,4,1:0:0:0:
119,354,628,1,2,0:0:0:0:
119,354,866,2,0,P|47:332|22:303,1,80,10|0,0:1|0:0,0:0:0:0:
183,212,1342,2,0,P|220:288|193:335,2,120,2|2|2,1:0|0:0|0:0,0:0:0:0:
111,194,2294,1,0,1:0:0:0:
20,119,2532,5,2,0:0:0:0:
111,194,2770,2,0,P|158:191|199:167,1,80,10|2,0:1|0:0,0:0:0:0:
283,68,3247,1,2,1:0:0:0:
313,186,3485,1,2,1:2:0:0:
220,147,3723,1,10,0:1:0:0:
370,107,3961,1,2,0:0:0:0:
410,28,4437,5,2,0:0:0:0:
410,28,4675,2,0,P|458:90|454:118,1,80,10|0,0:1|0:0,0:0:0:0:
273,155,5151,2,0,P|344:102|395:120,2,120,2|2|2,1:0|0:0|0:0,0:0:0:0:
256,228,6104,1,0,1:0:0:0:
209,113,6342,5,2,0:0:0:0:
347,181,6580,2,0,P|398:203|431:199,1,80,10|2,0:1|0:0,0:0:0:0:
403,96,7056,1,2,1:0:0:0:
505,133,7294,1,2,1:2:0:0:
421,201,7532,1,10,0:1:0:0:
433,362,7770,2,0,B|470:384|515:366|515:366|511:297|411:253|344:296|344:296|364:227|315:177|315:177|245:196|231:265,1,560,10|8,0:1|0:1,0:0:0:0:
394,69,9913,6,0,P|443:121|417:204,1,162.000000617981,6|0,1:2|0:0,0:0:0:0:
399,215,10389,2,0,P|342:180|301:186,1,108.000000411987,10|0,0:0|0:0,0:0:0:0:
118,325,10866,2,0,P|200:297|235:300,1,108.000000411987,2|0,1:2|0:0,0:0:0:0:
254,310,11223,1,0,0:0:0:0:
288,330,11342,2,0,P|342:301|299:254,1,108.000000411987,10|0,0:0|0:0,0:0:0:0:
429,129,11818,6,0,P|485:138|522:166,1,72.0000002746582,2|0,1:2|0:0,0:0:0:0:
388,66,12175,2,0,P|352:132|395:196,1,108.000000411987,2|0,0:0|0:0,0:0:0:0:
378,192,12532,1,2,0:0:0:0:
248,21,12770,2,0,P|190:1|136:19,1,108.000000411987,2|0,1:2|0:0,0:0:0:0:
113,34,13128,1,0,0:0:0:0:
86,61,13247,2,0,P|20:68|0:18,1,108.000000411987,10|0,0:0|0:0,0:0:0:0:
248,21,13723,5,0,1:2:0:0:
230,166,13961,1,2,0:0:0:0:
390,226,14199,2,0,P|391:148|366:102,1,108.000000411987,10|0,0:0|0:0,0:0:0:0:
248,21,14675,5,2,1:2:0:0:
230,166,14913,1,2,0:0:0:0:
230,166,15032,1,0,0:0:0:0:
230,166,15151,2,0,P|229:244|254:290,1,108.000000411987,8|0,0:0|0:0,0:0:0:0:
394,307,15628,5,0,1:2:0:0:
479,229,15866,1,10,0:0:0:0:
479,229,15985,1,8,0:0:0:0:
479,229,16104,1,10,0:0:0:0:
512,335,16342,1,8,0:0:0:0:
390,226,16580,5,10,0:0:0:0:
298,379,16818,1,10,0:0:0:0:
165,220,17056,5,8,0:0:0:0:
119,209,17175,1,8,0:0:0:0:
70,217,17294,1,8,0:0:0:0:
29,244,17413,1,8,0:0:0:0:
3,286,17532,2,0,P|46:303|103:297,1,80,4|0,1:2|0:0,0:0:0:0:
195,144,18009,6,0,P|244:203|222:277,1,160,10|0,0:0|1:0,0:0:0:0:
165,220,18723,1,2,0:0:0:0:
318,162,18961,2,0,P|368:162|411:182,1,80,10|0,0:0|0:0,0:0:0:0:
298,7,19437,6,0,P|252:17|219:54,1,88.000002685547,2|0,1:2|0:0,0:0:0:0:
206,69,19794,2,0,P|174:94|112:97,1,88.000002685547,2|0,0:0|0:0,0:0:0:0:
98,96,20151,1,2,0:0:0:0:
198,229,20389,2,0,P|275:245|306:278,1,88.000002685547,0|0,1:2|0:0,0:0:0:0:
306,280,20747,1,0,0:0:0:0:
309,318,20866,2,0,L|299:379,2,44.0000013427735,10|0|0,0:0|0:0|0:0,0:0:0:0:
198,229,21342,6,0,P|204:266|177:316,1,80,2|0,1:2|0:0,0:0:0:0:
40,359,21818,2,0,P|59:279|152:267,1,160,10|0,0:0|1:0,0:0:0:0:
244,274,22532,1,2,0:0:0:0:
314,370,22770,2,0,P|361:367|421:335,1,80,10|0,0:0|0:0,0:0:0:0:
496,133,23247,6,0,P|499:172|471:213,1,88.000002685547,2|0,1:2|0:0,0:0:0:0:
439,229,23604,2,0,P|399:232|357:201,1,88.000002685547,2|0,0:0|0:0,0:0:0:0:
344,172,23961,1,2,0:0:0:0:
282,50,24199,2,0,P|233:85|227:136,1,88.000002685547,0|0,1:0|0:0,0:0:0:0:
230,152,24556,1,0,0:0:0:0:
245,191,24675,2,0,L|234:264,2,44.0000013427735,10|0|0,0:0|0:0|0:0,0:0:0:0:
427,11,25151,6,0,P|360:70|269:36,1,176.000005371094,2|8,1:2|0:0,0:0:0:0:
163,7,25866,1,2,0:0:0:0:
32,106,26104,2,0,P|86:128|132:119,1,80,2|0,1:2|0:0,0:0:0:0:
237,27,26580,2,0,P|183:5|137:14,1,80,10|0,0:0|0:0,0:0:0:0:
32,106,27056,6,0,P|31:169|56:214,1,80,2|0,1:2|0:0,0:0:0:0:
51,209,27413,1,0,0:0:0:0:
70,234,27532,1,10,0:0:0:0:
200,301,27770,1,0,0:0:0:0:
293,162,28009,2,0,P|235:167|207:191,1,80,2|0,1:2|0:0,0:0:0:0:
435,316,28485,2,0,P|445:255|391:197,1,132.00000402832,10|0,0:0|0:0,0:0:0:0:
369,271,28961,6,0,P|333:295|290:297,1,88.000002685547,2|0,1:2|0:0,0:0:0:0:
337,98,29437,2,0,P|376:117|399:155,1,88.000002685547,10|0,0:0|0:0,0:0:0:0:
203,212,29913,2,0,P|200:168|222:131,1,88.000002685547,2|0,1:2|0:0,0:0:0:0:
260,33,30389,1,10,0:0:0:0:
127,111,30628,2,0,P|85:125|42:125,1,88.000002685547,2|0,0:0|1:2,0:0:0:0:
181,54,31104,2,0,P|204:90|190:153,1,88.000002685547,2|8,0:0|0:0,0:0:0:0:
74,201,31580,1,2,0:0:0:0:
218,259,31818,5,8,0:0:0:0:
34,264,32056,1,8,0:0:0:0:
127,111,32294,1,8,0:0:0:0:
127,111,32413,1,8,0:0:0:0:
4,334,32770,6,0,P|56:338|95:310,1,88.000002685547,4|0,1:2|0:0,0:0:0:0:
214,175,33247,2,0,P|147:247|177:314,1,176.000005371094,10|0,0:0|1:2,0:0:0:0:
316,378,33961,1,2,0:0:0:0:
308,231,34199,2,0,P|286:176|297:120,1,88.000002685547,10|0,0:0|0:0,0:0:0:0:
375,56,34675,6,0,P|402:109|391:151,1,95.9999970703126,2|0,1:2|0:0,0:0:0:0:
385,174,35032,2,0,P|383:217|424:266,1,95.9999970703126,2|0,0:0|0:0,0:0:0:0:
444,274,35389,1,2,0:0:0:0:
301,376,35628,2,0,P|275:297|284:265,1,95.9999970703126,0|0,1:2|0:0,0:0:0:0:
285,265,35985,1,0,0:0:0:0:
292,236,36104,2,0,L|278:169,2,47.9999985351563,10|0|0,0:0|0:0|0:0,0:0:0:0:
471,193,36580,6,0,P|471:145|434:100,1,88.000002685547,2|0,1:2|0:0,0:0:0:0:
234,28,37056,2,0,P|297:35|316:155,1,176.000005371094,10|0,0:0|1:2,0:0:0:0:
396,168,37770,1,2,0:0:0:0:
249,225,38009,2,0,P|197:225|147:184,1,88.000002685547,10|0,0:0|0:0,0:0:0:0:
0,16,38485,6,0,P|52:34|80:78,1,95.9999970703126,2|0,1:2|0:0,0:0:0:0:
86,101,38842,2,0,P|89:144|65:190,1,95.9999970703126,2|0,0:0|0:0,0:0:0:0:
46,220,39199,1,2,0:0:0:0:
70,342,39437,2,0,P|119:310|186:318,1,95.9999970703126,0|0,1:2|0:0,0:0:0:0:
182,313,39794,1,0,0:0:0:0:
214,318,39913,2,0,L|277:329,2,47.9999985351563,10|0|0,0:0|0:0|0:0,0:0:0:0:
318,190,40389,6,0,P|381:201|457:148,1,143.999995605469,2|0,1:2|0:0,0:0:0:0:
509,115,40866,2,0,P|483:93|411:94,1,95.9999970703126,10|0,0:0|0:0,0:0:0:0:
243,172,41342,2,0,P|180:155|134:76,1,143.999995605469,2|0,1:2|0:0,0:0:0:0:
95,27,41819,2,0,P|124:15|192:41,1,95.9999970703126,10|0,0:0|0:0,0:0:0:0:
122,224,42294,2,0,P|104:162|150:81,1,143.999995605469,2|0,1:2|0:0,0:0:0:0:
209,102,42770,6,0,P|288:86|306:57,1,95.9999970703126,10|0,0:0|0:0,0:0:0:0:
383,230,43247,2,0,P|329:169|295:168,1,95.9999970703126,2|0,1:2|0:0,0:0:0:0:
406,15,43723,2,0,P|380:91|396:121,1,95.9999970703126,10|0,0:0|0:0,0:0:0:0:
506,262,44199,6,0,P|425:215|375:235,1,143.999995605469,2|0,1:2|0:0,0:0:0:0:
357,253,44675,1,8,0:0:0:0:
238,379,44913,2,0,P|241:326|209:288,1,95.9999970703126,2|0,0:0|1:2,0:0:0:0:
77,208,45628,5,10,0:0:0:0:
150,100,45866,1,2,0:0:0:0:
34,272,46104,2,0,P|-1:212|5:174,1,95.9999970703126,2|0,1:2|0:0,0:0:0:0:
30,41,46580,1,10,0:0:0:0:
150,100,46818,1,2,0:0:0:0:
354,0,47056,5,8,0:0:0:0:
308,157,47294,1,8,0:0:0:0:
191,39,47532,1,8,0:0:0:0:
191,39,47651,1,8,0:0:0:0:
446,58,48009,6,0,P|473:116|475:148,1,95.9999970703126,6|0,1:2|0:0,0:0:0:0:
403,293,48485,2,0,P|321:255|268:292,1,143.999995605469,10|0,0:0|0:0,0:0:0:0:
247,347,48961,2,0,P|303:355|341:322,1,95.9999970703126,2|0,1:2|0:0,0:0:0:0:
307,156,49437,2,0,P|267:130|220:131,1,95.9999970703126,10|0,0:0|0:0,0:0:0:0:
196,273,49913,2,0,P|208:317|246:346,1,95.9999970703126,2|0,1:2|0:0,0:0:0:0:
125,186,50389,6,0,P|79:174|6:233,1,143.999995605469,10|0,0:0|0:0,0:0:0:0:
0,266,50866,1,2,1:2:0:0:
199,275,51104,1,0,0:0:0:0:
92,371,51342,1,10,0:0:0:0:
239,209,51580,2,0,P|270:244|274:294,1,95.9999970703126,2|0,0:0|1:2,0:0:0:0:
92,371,52056,2,0,P|96:320|127:286,1,95.9999970703126,2|8,0:0|0:0,0:0:0:0:
223,348,52532,5,0,0:0:0:0:
369,259,52770,2,0,P|441:259|473:290,1,95.9999970703126,2|0,1:2|0:0,0:0:0:0:
397,384,53247,1,8,0:0:0:0:
292,304,53485,1,0,0:0:0:0:
452,168,53723,6,0,P|401:160|305:192,1,143.999995605469,2|0,1:2|0:0,0:0:0:0:
283,204,54199,2,0,P|212:198|174:172,1,95.9999970703126,10|0,0:0|0:0,0:0:0:0:
167,52,54675,1,2,1:2:0:0:
310,69,54913,1,2,0:0:0:0:
95,27,55151,2,0,P|95:79|126:117,1,95.9999970703126,10|0,0:0|0:0,0:0:0:0:
342,155,55628,2,0,P|333:98|299:61,1,95.9999970703126,2|0,1:2|0:0,0:0:0:0:
120,113,56104,6,0,P|48:182|64:232,1,143.999995605469,10|0,0:0|0:0,0:0:0:0:
89,278,56580,2,0,P|96:333|67:372,1,95.9999970703126,2|0,1:2|0:0,0:0:0:0:
125,189,57056,2,0,P|180:186|216:219,1,95.9999970703126,10|0,0:0|0:0,0:0:0:0:
248,369,57532,2,0,P|245:313|278:277,1,95.9999970703126,2|0,1:2|0:0,0:0:0:0:
382,337,58009,6,0,P|465:323|494:266,1,143.999995605469,10|0,0:0|0:0,0:0:0:0:
496,242,58485,1,2,1:2:0:0:
344,258,58723,1,2,0:0:0:0:
408,141,58961,1,10,0:0:0:0:
305,326,59199,2,0,P|266:279|271:226,1,95.9999970703126,2|0,0:0|1:2,0:0:0:0:
286,100,59675,5,2,0:0:0:0:
140,263,59913,2,0,P|206:284|265:247,1,143.999995605469,10|0,0:0|0:0,0:0:0:0:
331,208,60389,2,0,P|286:173|241:174,1,95.9999970703126,2|0,1:2|0:0,0:0:0:0:
97,190,60866,1,10,0:0:0:0:
130,67,61104,1,0,0:0:0:0:
130,67,61342,6,0,P|73:47|37:45,1,90.0000034332277,6|0,0:2|0:0,0:0:0:0:
1,110,61818,2,0,P|65:151|143:142,1,143.999995605469,10|0,1:2|0:0,0:0:0:0:
198,106,62294,2,0,L|282:90,3,51.999997619629,10|8|8|8,1:2|0:0|0:0|0:0,0:0:0:0:
360,2,62770,5,10,1:2:0:0:
412,0,62889,1,8,0:0:0:0:
461,21,63009,1,8,0:0:0:0:
497,62,63128,1,8,0:0:0:0:
512,115,63247,6,0,P|454:174|482:246,1,155.999992858887,14|0,1:2|0:0,0:0:0:0:
497,268,63723,1,8,0:0:0:0:
316,347,63961,1,2,0:0:0:0:
256,197,64199,2,0,P|306:187|364:231,1,103.999995239258,2|0,1:2|0:0,0:0:0:0:
369,229,64556,1,0,0:0:0:0:
393,237,64675,1,8,0:0:0:0:
402,98,64913,1,2,0:0:0:0:
293,269,65151,6,0,P|210:296|164:289,1,103.999995239258,2|2,1:2|0:0,0:0:0:0:
168,290,65509,1,0,0:0:0:0:
142,284,65628,1,10,0:0:0:0:
188,178,65866,1,2,0:0:0:0:
0,198,66104,1,2,1:2:0:0:
111,351,66342,1,2,0:0:0:0:
91,148,66580,1,10,0:0:0:0:
88,132,66699,1,2,0:0:0:0:
86,116,66818,1,2,0:0:0:0:
294,57,67056,6,0,P|296:110|252:156,1,103.999995239258,2|2,1:2|0:0,0:0:0:0:
239,164,67413,1,2,0:0:0:0:
208,168,67532,1,8,0:0:0:0:
379,21,67770,1,2,0:0:0:0:
223,84,68009,2,0,P|162:70|83:119,1,155.999992858887,0|0,1:2|0:0,0:0:0:0:
72,144,68485,1,8,0:0:0:0:
186,242,68723,1,2,0:0:0:0:
294,57,68961,6,0,P|360:21|391:29,1,103.999995239258,2|2,1:2|0:0,0:0:0:0:
410,42,69318,1,2,0:0:0:0:
431,63,69437,1,8,0:0:0:0:
280,137,69675,1,2,0:0:0:0:
486,176,69913,2,0,P|506:227|498:293,1,103.999995239258,0|2,1:2|0:0,0:0:0:0:
497,305,70270,1,0,0:0:0:0:
493,330,70389,1,8,0:0:0:0:
303,378,70628,1,0,0:0:0:0:
417,243,70866,6,0,P|320:202|257:251,1,155.999992858887,6|0,1:2|0:0,0:0:0:0:
259,243,71342,1,10,0:0:0:0:
105,72,71580,1,2,0:0:0:0:
115,101,71699,1,2,0:0:0:0:
133,125,71818,2,0,P|210:154|262:100,1,155.999992858887,2|0,1:2|0:0,0:0:0:0:
268,85,72294,1,10,0:0:0:0:
422,164,72532,1,2,0:0:0:0:
331,32,72770,6,0,P|276:4|226:15,1,103.999995239258,2|2,1:2|0:0,0:0:0:0:
212,22,73128,1,0,0:0:0:0:
186,27,73247,1,10,0:0:0:0:
44,187,73485,1,2,0:0:0:0:
219,148,73723,1,2,1:2:0:0:
95,18,73961,1,2,0:0:0:0:
178,214,74199,1,10,0:0:0:0:
200,226,74318,1,2,0:0:0:0:
224,229,74437,1,2,0:0:0:0:
44,187,74675,6,0,P|-7:265|24:333,1,155.999992858887,0|0,1:2|0:0,0:0:0:0:
45,347,75151,2,0,P|116:316|181:329,1,103.999995239258,10|0,0:0|0:0,0:0:0:0:
366,307,75628,2,0,P|333:372|271:382,1,103.999995239258,2|0,1:2|0:0,0:0:0:0:
281,384,75985,1,0,0:0:0:0:
255,378,76104,1,10,0:0:0:0:
224,229,76342,1,2,0:0:0:0:
429,249,76580,5,2,1:2:0:0:
322,106,76818,1,10,0:0:0:0:
296,106,76937,1,8,0:0:0:0:
274,116,77056,1,10,0:0:0:0:
325,239,77294,1,10,0:0:0:0:
395,155,77532,1,10,1:2:0:0:
261,323,77770,1,10,0:0:0:0:
187,122,78009,5,10,0:0:0:0:
148,87,78128,1,8,0:0:0:0:
100,70,78247,1,10,0:0:0:0:
48,72,78366,1,8,0:0:0:0:
0,92,78485,6,0,P|2:164|17:191,1,103.999995239258,14|2,1:2|0:0,0:0:0:0:
210,262,78961,2,0,P|145:209|67:255,1,155.999992858887,10|0,0:0|0:0,0:0:0:0:
175,333,79437,2,0,P|234:338|280:299,1,103.999995239258,2|0,1:2|0:0,0:0:0:0:
296,297,79794,1,2,0:0:0:0:
326,292,79913,1,8,0:0:0:0:
250,176,80151,1,2,0:0:0:0:
378,350,80389,6,0,P|399:267|369:228,1,103.999995239258,0|2,1:2|0:0,0:0:0:0:
352,149,80866,1,10,0:0:0:0:
479,249,81104,1,2,0:0:0:0:
250,176,81342,1,2,1:2:0:0:
433,144,81580,1,2,0:0:0:0:
433,169,81699,1,0,0:0:0:0:
423,193,81818,1,10,0:0:0:0:
350,19,82056,1,2,0:0:0:0:
190,123,82294,6,0,P|243:97|307:120,1,103.999995239258,0|2,1:2|0:0,0:0:0:0:
507,93,82770,2,0,P|442:113|444:226,1,155.999992858887,10|0,0:0|0:0,0:0:0:0:
488,236,83247,2,0,P|447:269|397:268,1,103.999995239258,2|0,1:2|0:0,0:0:0:0:
371,253,83604,1,2,0:0:0:0:
340,248,83723,1,8,0:0:0:0:
230,355,83961,1,2,0:0:0:0:
57,277,84199,6,0,P|121:300|158:286,1,103.999995239258,0|0,1:2|0:0,0:0:0:0:
199,44,84675,2,0,P|118:26|73:78,1,155.999992858887,10|0,0:0|0:0,0:0:0:0:
112,221,85151,2,0,P|164:167|145:94,1,155.999992858887,2|0,1:2|0:0,0:0:0:0:
0,58,85628,2,0,P|19:129|91:148,1,155.999992858887,10|0,0:0|0:0,0:0:0:0:
120,135,86104,5,2,1:2:0:0:
304,80,86342,1,8,0:0:0:0:
304,105,86461,1,8,0:0:0:0:
294,129,86580,1,10,0:0:0:0:
198,41,86818,1,8,0:0:0:0:
252,194,87056,1,10,1:2:0:0:
404,133,87294,1,8,0:0:0:0:
512,329,87532,5,10,0:0:0:0:
467,284,87651,1,8,0:0:0:0:
412,263,87770,1,8,0:0:0:0:
351,269,87889,1,8,0:0:0:0:
177,317,88247,5,6,1:2:0:0:
404,351,88485,1,6,1:2:0:0:
272,189,88961,6,0,P|230:145|161:163,1,120.000004577637,6|0,1:2|0:0,0:0:0:0:
96,234,89318,2,0,P|38:239|0:196,1,120.000004577637,6|0,1:2|0:0,0:0:0:0:
5,58,89675,1,6,1:2:0:0:
