osu file format v14

[General]
AudioFilename: audio.mp3
AudioLeadIn: 0
PreviewTime: 49820
Countdown: 0
SampleSet: Soft
StackLeniency: 0.7
Mode: 0
LetterboxInBreaks: 0
WidescreenStoryboard: 1

[Editor]
Bookmarks: 160667,160743,160820
DistanceSpacing: 1
BeatDivisor: 4
GridSize: 32
TimelineZoom: 2.4

[Metadata]
Title:affection
TitleUnicode:affection
Artist:solfa feat. KOTOKO
ArtistUnicode:solfa feat. KOTOKO
Creator:Lasse
Version:Normal
Source:リーシャル・マージ
Tags:ImpurePug AXL Racial Merge visual novel eroge opening full version japanese rock pop chronicle marine stage 橋咲透 Tooru Hashizaki
BeatmapID:2422081
BeatmapSetID:1160766

[Difficulty]
HPDrainRate:3
CircleSize:3.4
OverallDifficulty:5
ApproachRate:6
SliderMultiplier:0.999999999999999
SliderTickRate:1

[Events]
//Background and Video events
0,0,"e.jpg",0,0
//Break Periods
2,153482,159617
2,190405,194078
//Storyboard Layer 0 (Background)
//Storyboard Layer 1 (Fail)
//Storyboard Layer 2 (Pass)
//Storyboard Layer 3 (Foreground)
//Storyboard Layer 4 (Overlay)
//Storyboard Sound Samples

[TimingPoints]
667,307.692307692308,4,2,34,40,1,0
667,-125,4,2,34,40,0,0
5282,-125,4,2,34,42,0,0
5590,-125,4,2,34,44,0,0
5897,-125,4,2,34,46,0,0
6205,-125,4,2,34,48,0,0
6513,-125,4,2,34,50,0,0
6820,-125,4,2,34,52,0,0
7128,-125,4,2,34,54,0,0
7436,-125,4,2,34,40,0,0
7743,-125,4,2,34,58,0,0
7897,-125,4,2,34,5,0,0
8051,-100,4,2,34,70,0,0
17897,-111.111111111111,4,2,34,65,0,0
18205,-111.111111111111,4,2,34,60,0,0
27743,-111.111111111111,4,2,34,62,0,0
37590,-100,4,2,34,64,0,0
42513,-99.9999999999999,4,2,34,66,0,0
45897,-99.9999999999999,4,2,34,68,0,0
46205,-99.9999999999999,4,2,34,70,0,0
46667,-99.9999999999999,4,2,34,72,0,0
47128,-99.9999999999999,4,2,34,74,0,0
47436,-100,4,2,34,50,0,0
48051,-133.333333333333,4,2,34,52,0,0
48667,-133.333333333333,4,2,34,54,0,0
49282,-133.333333333333,4,2,34,50,0,0
49897,-90.9090909090909,4,2,34,78,0,1
69590,-100,4,2,34,70,0,1
73282,-100,4,2,34,72,0,1
74513,-100,4,2,34,72,0,0
84359,-95.2380952380952,4,2,34,75,0,0
94205,-111.111111111111,4,2,34,60,0,0
104051,-111.111111111111,4,2,34,62,0,0
113897,-100,4,2,34,64,0,0
118820,-100,4,2,34,66,0,0
122205,-100,4,2,34,68,0,0
122513,-100,4,2,34,70,0,0
122974,-100,4,2,34,72,0,0
123436,-100,4,2,34,74,0,0
123743,-100,4,2,34,50,0,0
124359,-133.333333333333,4,2,34,52,0,0
124974,-133.333333333333,4,2,34,54,0,0
125590,-133.333333333333,4,2,34,50,0,0
126205,-83.3333333333333,4,2,34,78,0,1
126436,-90.9090909090909,4,2,34,40,0,1
126513,-90.9090909090909,4,2,34,78,0,1
138743,-90.9090909090909,4,2,34,40,0,1
138820,-90.9090909090909,4,2,34,78,0,1
145897,-100,4,2,34,70,0,1
150820,-90.9090909090909,4,2,34,70,0,0
150897,-90.9090909090909,4,2,34,40,0,0
151436,-90.9090909090909,4,2,34,35,0,0
152051,-90.9090909090909,4,2,34,30,0,0
152667,-90.9090909090909,4,2,34,25,0,0
152974,-90.9090909090909,4,2,34,20,0,0
153282,-90.9090909090909,4,2,99,32,0,0
160667,-117.647058823529,4,2,34,48,0,0
169897,-117.647058823529,4,2,34,50,0,0
170513,-117.647058823529,4,2,34,52,0,0
180359,-117.647058823529,4,2,34,54,0,0
185282,-111.111111111111,4,2,34,56,0,0
189590,-111.111111111111,4,2,34,58,0,0
189743,-111.111111111111,4,2,34,60,0,0
189897,-111.111111111111,4,2,34,62,0,0
190051,-111.111111111111,4,2,34,64,0,0
190205,-100,4,2,99,50,0,0
195128,-100,4,2,34,50,0,0
196359,-100,4,2,34,55,0,0
197590,-100,4,2,34,60,0,0
198513,-111.111111111111,4,2,34,50,0,0
198590,-111.111111111111,4,2,34,51,0,0
198667,-111.111111111111,4,2,34,52,0,0
198743,-111.111111111111,4,2,34,53,0,0
198820,-111.111111111111,4,2,34,54,0,0
198897,-111.111111111111,4,2,34,55,0,0
198974,-111.111111111111,4,2,34,56,0,0
199051,-111.111111111111,4,2,34,57,0,0
199128,-111.111111111111,4,2,34,58,0,0
199205,-111.111111111111,4,2,34,59,0,0
199282,-111.111111111111,4,2,34,60,0,0
199359,-111.111111111111,4,2,34,61,0,0
199436,-111.111111111111,4,2,34,62,0,0
199513,-111.111111111111,4,2,34,63,0,0
199590,-111.111111111111,4,2,34,64,0,0
199667,-111.111111111111,4,2,34,65,0,0
199743,-111.111111111111,4,2,34,66,0,0
199820,-111.111111111111,4,2,34,67,0,0
199897,-111.111111111111,4,2,34,68,0,0
199974,-111.111111111111,4,2,34,69,0,0
200359,-111.111111111111,4,2,34,70,0,0
200513,-111.111111111111,4,2,34,72,0,0
200743,-111.111111111111,4,2,34,40,0,0
200820,-111.111111111111,4,2,34,74,0,0
201128,-111.111111111111,4,2,34,50,0,0
201282,-90.9090909090909,4,2,34,78,0,1
211128,-84.7457627118644,4,2,34,80,0,1
215590,-90.9090909090909,4,2,34,78,0,1
215897,-90.9090909090909,4,2,34,78,0,1
220974,-100,4,2,34,70,0,1
225897,-100,4,2,34,74,0,0
235743,-100,4,2,34,76,0,0

[Colours]
Combo1 : 250,180,240
Combo2 : 120,200,230
Combo3 : 255,230,130
Combo4 : 160,230,150

[HitObjects]
38,227,667,6,0,B|20:282|37:353,2,120,2|2|0,0:0|0:0|0:0,0:0:0:0:
104,180,1897,2,0,L|229:170,1,120,2|2,0:0|0:0,0:0:0:0:
422,148,3128,6,0,B|436:88|415:26,2,120,2|2|0,0:0|0:0|0:0,0:0:0:0:
352,188,4359,2,0,B|302:161|237:162,1,120,2|2,0:0|0:0,0:0:0:0:
256,192,5282,12,2,7436,0:0:0:0:
27,287,8051,6,0,B|19:237|29:188,1,99.9999999999999,14|10,0:1|0:0,0:0:0:0:
80,104,8667,1,10,0:1:0:0:
80,104,8820,1,10,0:1:0:0:
167,153,9128,2,0,B|218:161|269:146,1,99.9999999999999,10|8,0:1|0:1,0:0:0:0:
350,95,9743,1,2,0:0:0:0:
449,109,10051,1,10,0:1:0:0:
449,109,10205,1,8,0:0:0:0:
498,204,10513,6,0,B|505:256|494:306,1,99.9999999999999,10|8,0:1|0:0,0:0:0:0:
433,381,11128,1,10,0:1:0:0:
433,381,11282,1,10,0:1:0:0:
345,332,11590,2,0,B|336:282|342:233,1,99.9999999999999,10|10,0:1|0:1,0:0:0:0:
395,148,12205,1,2,0:0:0:0:
353,57,12513,1,8,0:1:0:0:
353,57,12667,1,10,0:0:0:0:
253,100,12974,6,0,B|206:111|206:111|160:89,1,99.9999999999999,14|8,0:1|0:0,0:0:0:0:
77,30,13590,1,10,0:1:0:0:
77,30,13743,1,10,0:1:0:0:
16,108,14051,2,0,B|4:157|21:215,1,99.9999999999999,2|8,0:0|0:1,0:0:0:0:
74,291,14667,1,2,0:0:0:0:
173,291,14974,1,10,0:1:0:0:
173,291,15128,1,8,0:0:0:0:
240,207,15436,6,0,B|246:168|246:168|239:155|239:155|247:99,1,99.9999999999999,10|8,0:1|0:0,0:0:0:0:
298,23,16051,1,10,0:1:0:0:
298,23,16205,1,10,0:1:0:0:
389,64,16513,2,0,B|427:73|427:73|449:66|449:66|509:80,2,99.9999999999999,10|10|10,0:1|0:1|0:1,0:0:0:0:
311,126,17436,2,0,B|301:157|301:157|307:184|307:184|294:203|294:203|298:229|298:229|282:265,1,150,0|14,1:0|1:1,0:0:0:0:
246,348,18205,6,0,B|205:330|144:337,1,89.999997253418,10|10,0:0|0:1,0:0:0:0:
27,366,18974,1,10,0:1:0:0:
27,366,19128,2,0,B|11:335|14:306|31:273,1,89.999997253418,2|10,0:0|0:0,0:0:0:0:
61,248,19590,2,0,L|162:238,1,89.999997253418,2|10,0:0|0:1,0:0:0:0:
239,202,20205,5,2,0:0:0:0:
239,202,20359,2,0,B|252:180|257:154|241:116,1,89.999997253418,10|8,0:1|0:0,0:0:0:0:
217,78,20820,2,0,B|148:76|148:76|109:45|109:45|17:32|17:32|31:143,1,314.999990386963,2|8,0:0|0:0,0:0:0:0:
74,212,22205,2,0,B|113:230|113:230|168:208,1,89.999997253418,10|10,0:1|0:0,0:0:0:0:
236,156,22820,6,0,B|220:110|234:64,1,89.999997253418,14|8,0:1|0:0,0:0:0:0:
273,41,23282,2,0,L|376:31,1,89.999997253418,2|10,0:0|0:1,0:0:0:0:
447,76,23897,1,10,0:1:0:0:
446,75,24051,2,0,B|458:120|444:166,1,89.999997253418,10|8,0:1|0:0,0:0:0:0:
421,200,24513,2,0,L|311:193,1,89.999997253418,2|10,0:0|0:1,0:0:0:0:
243,246,25128,5,2,0:0:0:0:
243,246,25282,2,0,B|231:280|231:280|234:301|234:301|215:344,1,89.999997253418,10|8,0:1|0:0,0:0:0:0:
190,363,25743,1,2,0:0:0:0:
190,363,25897,2,0,B|105:385|105:385|63:357|77:281|119:290|132:225|96:174,1,314.999990386963,10|2,0:1|0:0,0:0:0:0:
297,22,27743,6,0,B|286:65|306:111,1,89.999997253418,14|10,0:1|0:0,0:0:0:0:
383,155,28359,2,0,B|435:151|471:165,1,89.999997253418,10|8,0:1|0:0,0:0:0:0:
505,201,28820,1,10,0:1:0:0:
505,201,28974,2,0,L|490:302,1,89.999997253418,2|10,0:0|0:0,0:0:0:0:
474,332,29436,2,0,B|431:346|385:341,1,89.999997253418,2|10,0:0|0:1,0:0:0:0:
306,279,30051,5,2,0:0:0:0:
306,279,30205,2,0,L|296:184,1,89.999997253418,10|8,0:1|0:0,0:0:0:0:
281,149,30667,2,0,B|276:129|286:108|286:108|232:43|173:107|157:184|226:177|218:213|191:281,1,314.999990386963,2|10,0:0|0:0,0:0:0:0:
142,351,32051,1,10,0:1:0:0:
52,344,32359,1,10,0:0:0:0:
1,263,32667,6,0,B|-5:222|13:175,1,89.999997253418,14|8,0:1|0:0,0:0:0:0:
50,150,33128,2,0,L|148:138,1,89.999997253418,2|10,0:0|0:1,0:0:0:0:
203,209,33743,1,10,0:1:0:0:
203,209,33897,2,0,L|301:221,1,89.999997253418,10|8,0:1|0:0,0:0:0:0:
314,259,34359,2,0,L|412:271,1,89.999997253418,2|10,0:0|0:1,0:0:0:0:
494,233,34974,5,2,0:0:0:0:
494,233,35128,2,0,B|510:191|496:144,1,89.999997253418,10|8,0:1|0:0,0:0:0:0:
436,78,35743,2,0,L|339:68,1,89.999997253418,10|8,0:1|0:0,0:0:0:0:
308,90,36205,1,10,0:1:0:0:
308,90,36359,2,0,B|280:129|285:175,1,89.999997253418,10|0,0:1|1:0,0:0:0:0:
324,252,36974,2,0,B|324:303|298:338,1,89.999997253418,2|0,1:2|1:0,0:0:0:0:
197,365,37590,6,0,L|79:348,1,99.9999999999999,14|8,2:1|0:0,0:0:0:0:
16,293,38205,2,0,L|-4:175,1,99.9999999999999,10|10,0:1|0:0,0:0:0:0:
17,96,38820,2,0,L|122:40,1,99.9999999999999,2|8,0:0|0:0,0:0:0:0:
151,28,39282,1,2,0:0:0:0:
295,65,39743,1,10,0:0:0:0:
219,131,40051,6,0,B|169:171|165:267|216:309,1,200,10|8,0:1|0:1,0:0:0:0:
301,361,40974,1,10,0:0:0:0:
398,339,41282,2,0,B|419:294|411:235,1,99.9999999999999,2|8,0:0|0:0,0:0:0:0:
402,197,41743,1,10,0:1:0:0:
402,197,41897,2,0,B|368:190|368:190|345:204|345:204|301:199,1,99.9999999999999,8|10,0:3|0:0,0:0:0:0:
212,154,42513,6,0,B|222:104|199:53,1,99.9999999999999,14|8,0:1|0:0,0:0:0:0:
109,25,43128,2,0,B|59:40|28:82,1,99.9999999999999,10|8,0:1|0:0,0:0:0:0:
50,180,43743,2,0,B|78:220|139:225,1,99.9999999999999,2|8,0:0|0:0,0:0:0:0:
184,206,44205,1,2,0:0:0:0:
244,342,44667,1,10,0:0:0:0:
344,343,44974,2,0,B|370:331|403:335|403:335|429:360|486:363|486:363|502:300,1,200,10|8,0:1|0:1,0:0:0:0:
500,214,45897,1,10,0:0:0:0:
442,128,46205,6,0,B|409:119|409:119|382:127|382:127|324:114,1,99.9999999999999,10|8,0:0|2:1,0:0:0:0:
294,116,46667,2,0,B|300:63|265:20,1,99.9999999999999,10|8,0:3|0:1,0:0:0:0:
219,12,47128,1,14,0:0:0:0:
132,73,47436,5,14,0:1:0:0:
256,192,47513,12,2,49282,0:0:0:0:
207,306,49897,5,14,0:1:0:0:
114,366,50205,1,10,0:0:0:0:
12,323,50513,1,10,0:1:0:0:
14,213,50820,1,8,0:0:0:0:
14,213,50974,2,0,L|37:104,1,110.000003356934,2|8,0:0|0:1,0:0:0:0:
71,62,51436,2,0,B|197:91|150:3|287:24,1,220.000006713867,10|10,0:0|0:0,0:0:0:0:
385,70,52359,5,10,0:1:0:0:
334,167,52667,1,10,0:0:0:0:
397,256,52974,1,10,0:1:0:0:
356,358,53282,1,10,0:0:0:0:
356,358,53436,2,0,L|239:347,1,110.000003356934,2|8,0:0|0:1,0:0:0:0:
194,365,53897,1,10,0:0:0:0:
194,365,54051,2,0,L|187:249,1,110.000003356934,10|10,0:1|0:1,0:0:0:0:
293,204,54667,6,0,L|300:88,1,110.000003356934,14|8,0:1|0:1,0:0:0:0:
269,48,55128,1,10,0:0:0:0:
166,86,55436,2,0,B|129:92|129:92|98:69|98:69|47:74,1,110.000003356934,10|8,0:1|0:0,0:0:0:0:
23,109,55897,2,0,B|11:157|30:230,1,110.000003356934,14|8,0:1|0:1,0:0:0:0:
44,270,56359,1,10,0:0:0:0:
122,345,56667,2,0,L|238:359,1,110.000003356934,10|8,0:1|0:0,0:0:0:0:
275,325,57128,6,0,B|296:267|265:277|290:217,1,110.000003356934,14|8,0:1|0:1,0:0:0:0:
326,175,57590,1,10,0:0:0:0:
428,214,57897,1,10,0:1:0:0:
512,145,58205,1,10,0:0:0:0:
472,43,58513,1,10,0:0:0:0:
362,49,58820,1,14,0:0:0:0:
362,49,58974,2,0,B|343:74|316:74|316:74|286:13|207:22,1,165.0000050354,10|0,0:1|1:0,0:0:0:0:
106,45,59743,5,14,2:1:0:0:
151,145,60051,1,10,0:0:0:0:
89,236,60359,1,10,0:1:0:0:
138,334,60667,1,8,0:0:0:0:
138,334,60820,2,0,B|171:358|209:358|251:324,1,110.000003356934,2|8,0:0|0:1,0:0:0:0:
276,292,61282,2,0,B|294:238|294:238|239:149|299:62,1,220.000006713867,10|10,0:0|0:0,0:0:0:0:
367,0,62205,5,10,0:1:0:0:
468,42,62513,1,10,0:0:0:0:
444,149,62820,1,10,0:1:0:0:
497,251,63128,1,10,0:0:0:0:
497,251,63282,2,0,B|516:290|509:328|470:352,1,110.000003356934,2|8,0:0|0:1,0:0:0:0:
431,371,63743,1,10,0:0:0:0:
431,371,63897,2,0,B|379:347|323:354,1,110.000003356934,10|10,0:1|0:1,0:0:0:0:
205,368,64513,6,0,B|150:378|150:378|99:363,1,110.000003356934,14|8,0:1|0:1,0:0:0:0:
47,340,64974,1,10,0:0:0:0:
1,239,65282,2,0,L|23:115,1,110.000003356934,10|8,0:1|0:0,0:0:0:0:
66,102,65743,2,0,B|119:115|119:115|172:97,1,110.000003356934,14|8,0:1|0:1,0:0:0:0:
214,62,66205,1,10,0:0:0:0:
286,144,66513,1,10,0:1:0:0:
263,251,66820,5,10,0:0:0:0:
263,251,66974,2,0,B|240:286|244:321|266:353,1,110.000003356934,14|8,0:1|0:1,0:0:0:0:
314,367,67436,2,0,L|436:355,1,110.000003356934,10|10,0:0|0:1,0:0:0:0:
489,268,68051,1,10,0:0:0:0:
492,157,68359,1,10,0:0:0:0:
420,81,68667,1,14,0:0:0:0:
420,81,68820,2,0,B|366:69|366:69|328:83|328:83|250:63,1,165.0000050354,10|0,0:1|1:0,0:0:0:0:
158,91,69590,6,0,B|127:132|137:192,1,99.9999999999999,14|10,0:1|0:0,0:0:0:0:
169,217,70051,2,0,L|328:206,1,150,2|10,1:0|0:0,0:0:0:0:
403,259,70820,1,10,0:1:0:0:
335,332,71128,1,10,0:0:0:0:
335,332,71282,2,0,L|176:343,1,150,2|8,1:0|0:0,0:0:0:0:
84,376,72051,6,0,B|74:340|74:340|79:318|79:318|68:275,1,99.9999999999999,10|8,0:1|0:0,0:0:0:0:
35,241,72513,1,2,1:0:0:0:
69,95,72974,1,10,0:0:0:0:
150,152,73282,2,0,B|192:175|252:156,1,99.9999999999999,14|0,0:1|1:0,0:0:0:0:
283,124,73743,2,0,B|299:78|357:55,1,99.9999999999999,2|0,1:2|1:0,0:0:0:0:
401,62,74205,1,2,1:2:0:0:
483,129,74513,6,0,B|503:175|503:175|493:233,1,99.9999999999999,14|10,1:1|0:0,0:0:0:0:
470,321,75128,1,10,0:1:0:0:
470,321,75282,1,10,0:1:0:0:
380,365,75590,2,0,L|273:356,1,99.9999999999999,10|8,0:1|0:1,0:0:0:0:
182,379,76205,1,2,0:0:0:0:
148,284,76513,1,10,0:1:0:0:
148,284,76667,1,8,0:0:0:0:
247,234,76974,6,0,B|260:181|243:134,1,99.9999999999999,10|8,0:1|0:0,0:0:0:0:
187,60,77590,1,10,0:1:0:0:
187,60,77743,1,10,0:1:0:0:
98,105,78051,2,0,B|70:144|66:200,1,99.9999999999999,8|10,0:1|2:1,0:0:0:0:
108,289,78667,1,2,0:0:0:0:
205,266,78974,1,8,0:1:0:0:
205,266,79128,1,10,0:0:0:0:
282,343,79436,6,0,B|327:361|327:361|381:348,1,99.9999999999999,14|8,0:1|0:0,0:0:0:0:
472,316,80051,1,10,0:1:0:0:
472,316,80205,1,10,0:1:0:0:
511,224,80513,2,0,L|500:104,1,99.9999999999999,10|8,0:1|0:1,0:0:0:0:
454,35,81128,1,2,0:0:0:0:
369,87,81436,1,10,0:1:0:0:
369,87,81590,1,8,0:0:0:0:
275,34,81897,6,0,B|224:11|169:33,1,99.9999999999999,10|8,0:1|0:0,0:0:0:0:
89,72,82513,1,10,0:1:0:0:
89,72,82667,1,2,0:0:0:0:
49,164,82974,2,0,B|36:278,1,99.9999999999999,10|10,0:1|0:1,0:0:0:0:
84,351,83590,1,2,0:0:0:0:
173,307,83897,2,0,B|220:287|271:294,1,99.9999999999999,2|0,1:2|1:0,0:0:0:0:
319,320,84359,5,14,1:1:0:0:
411,370,84667,1,10,0:0:0:0:
492,304,84974,1,10,0:1:0:0:
457,204,85282,1,10,0:0:0:0:
351,205,85590,2,0,B|308:217|277:212|252:186,1,104.999996795654,10|10,0:1|0:0,0:0:0:0:
213,151,86051,2,0,B|232:101|232:101|188:55,1,104.999996795654,2|10,0:0|0:1,0:0:0:0:
45,18,86820,5,10,0:1:0:0:
21,120,87128,1,10,0:0:0:0:
47,221,87436,1,10,0:1:0:0:
30,324,87743,1,8,0:0:0:0:
127,363,88051,2,0,B|175:346|240:352,1,104.999996795654,10|10,0:1|0:0,0:0:0:0:
280,364,88513,2,0,B|330:380|391:366,1,104.999996795654,2|10,0:0|0:1,0:0:0:0:
430,349,88974,1,10,0:0:0:0:
509,272,89282,6,0,L|486:147,1,104.999996795654,14|10,0:1|0:0,0:0:0:0:
429,81,89897,2,0,B|426:140|376:157|376:157|335:116|271:112,1,209.999993591309,10|8,0:1|0:1,0:0:0:0:
171,128,90820,1,10,0:0:0:0:
133,226,91128,1,10,0:1:0:0:
207,310,91436,5,10,0:0:0:0:
207,310,91590,2,0,L|386:300,1,157.499995193481,2|8,0:0|0:0,0:0:0:0:
457,348,92359,1,10,0:1:0:0:
509,256,92667,1,10,0:0:0:0:
509,256,92820,2,0,L|488:86,1,157.499995193481,10|14,0:1|0:0,0:0:0:0:
404,37,93590,2,0,B|385:60|385:60|317:50|317:50|312:39|312:39|237:27|237:27|209:59,1,209.999993591309,8|14,0:3|1:0,0:0:0:0:
228,134,94513,6,0,B|251:176|241:230,1,89.999997253418,10|10,0:0|0:1,0:0:0:0:
158,324,95282,1,10,0:1:0:0:
158,324,95436,2,0,L|54:316,1,89.999997253418,2|10,0:0|0:0,0:0:0:0:
30,292,95897,2,0,B|8:255|17:196,1,89.999997253418,2|10,0:0|0:1,0:0:0:0:
51,122,96513,5,2,0:0:0:0:
51,122,96667,2,0,L|152:112,1,89.999997253418,10|8,0:1|0:0,0:0:0:0:
181,131,97128,2,0,B|248:173|351:119|265:71|372:12|456:55,1,314.999990386963,2|8,0:0|0:0,0:0:0:0:
495,135,98513,2,0,B|477:232,1,89.999997253418,10|10,0:1|0:0,0:0:0:0:
442,318,99128,6,0,B|397:301|353:308,1,89.999997253418,14|8,0:1|0:0,0:0:0:0:
312,322,99590,2,0,B|271:348|225:334,1,89.999997253418,2|10,0:0|0:1,0:0:0:0:
165,266,100205,1,10,0:1:0:0:
165,266,100359,2,0,B|182:222|174:178,1,89.999997253418,2|10,0:0|0:0,0:0:0:0:
151,136,100820,2,0,B|115:108|48:121,1,89.999997253418,2|10,0:0|0:1,0:0:0:0:
0,184,101436,5,10,0:1:0:0:
0,184,101590,2,0,B|6:287,1,89.999997253418,10|8,0:1|0:0,0:0:0:0:
36,313,102051,1,2,0:0:0:0:
36,313,102205,2,0,B|80:297|114:340|114:340|159:344|219:311|162:253|253:227|309:260,1,314.999990386963,10|10,0:1|0:1,0:0:0:0:
503,159,104051,6,0,B|515:111|494:66,1,89.999997253418,14|10,0:1|0:0,0:0:0:0:
416,33,104667,2,0,L|326:26,1,89.999997253418,10|8,0:1|0:0,0:0:0:0:
285,46,105128,1,10,0:1:0:0:
285,46,105282,2,0,L|195:39,1,89.999997253418,2|10,0:0|0:0,0:0:0:0:
152,53,105743,2,0,L|62:46,1,89.999997253418,2|10,0:0|0:1,0:0:0:0:
4,127,106359,5,2,0:0:0:0:
4,127,106513,2,0,B|-15:167|8:221,1,89.999997253418,10|8,0:1|0:0,0:0:0:0:
36,247,106974,2,0,B|74:246|106:274|106:274|141:203|221:174|221:174|213:222|251:268,1,314.999990386963,2|10,0:0|0:0,0:0:0:0:
298,319,108359,1,10,0:1:0:0:
388,320,108667,1,10,0:0:0:0:
471,271,108974,6,0,B|484:224|473:179,1,89.999997253418,14|8,0:1|0:0,0:0:0:0:
446,147,109436,2,0,L|348:134,1,89.999997253418,2|10,0:0|0:1,0:0:0:0:
322,220,110051,1,10,0:1:0:0:
322,220,110205,2,0,L|232:231,1,89.999997253418,2|8,0:0|0:0,0:0:0:0:
206,267,110667,2,0,B|218:307|218:307|187:362,1,89.999997253418,2|10,0:0|0:1,0:0:0:0:
101,378,111282,5,10,0:1:0:0:
101,378,111436,2,0,L|90:284,1,89.999997253418,10|8,0:1|0:0,0:0:0:0:
24,227,112051,2,0,L|13:133,1,89.999997253418,10|8,0:1|0:0,0:0:0:0:
12,92,112513,1,10,0:1:0:0:
12,92,112667,2,0,B|54:101|54:101|107:78,1,89.999997253418,10|0,0:1|1:0,0:0:0:0:
169,29,113282,2,0,B|211:20|211:20|254:38,1,89.999997253418,2|0,1:2|1:0,0:0:0:0:
276,142,113897,6,0,B|254:193|269:249,1,99.9999999999999,14|8,2:1|0:0,0:0:0:0:
325,324,114513,2,0,L|437:336,1,99.9999999999999,10|10,0:1|0:0,0:0:0:0:
501,271,115128,2,0,B|516:222|505:166,1,99.9999999999999,2|8,0:0|0:0,0:0:0:0:
496,122,115590,1,2,0:0:0:0:
383,25,116051,1,10,0:0:0:0:
306,89,116359,6,0,B|270:124|218:110|218:110|186:43|135:34,1,200,10|8,0:1|0:1,0:0:0:0:
46,32,117282,1,10,0:0:0:0:
8,124,117590,2,0,B|0:179|20:227,1,99.9999999999999,2|10,0:0|0:0,0:0:0:0:
47,267,118051,1,10,0:1:0:0:
47,267,118205,2,0,B|83:263|83:263|104:275|104:275|147:271,1,99.9999999999999,10|10,0:3|0:0,0:0:0:0:
228,219,118820,6,0,B|211:183|213:155|234:123,1,99.9999999999999,14|8,0:1|0:0,0:0:0:0:
332,145,119436,2,0,B|360:119|386:110|432:123,1,99.9999999999999,10|8,0:1|0:0,0:0:0:0:
434,221,120051,2,0,B|470:240|480:263|485:309,1,99.9999999999999,2|8,0:1|0:0,0:0:0:0:
476,351,120513,1,2,0:0:0:0:
327,379,120974,1,10,0:0:0:0:
260,303,121282,2,0,B|248:252|294:215|294:215|303:149|255:109,1,200,10|8,0:1|0:1,0:0:0:0:
200,48,122205,1,10,0:0:0:0:
111,108,122513,6,0,B|89:149|100:211,1,99.9999999999999,14|8,0:0|0:1,0:0:0:0:
133,241,122974,2,0,B|174:220|243:230,1,99.9999999999999,10|8,0:3|0:1,0:0:0:0:
271,257,123436,1,14,0:0:0:0:
341,177,123743,5,14,0:1:0:0:
256,192,123820,12,2,125590,0:0:0:0:
63,279,126205,5,14,0:1:0:0:
156,337,126513,1,10,0:0:0:0:
252,284,126820,1,10,0:1:0:0:
344,343,127128,1,10,0:0:0:0:
344,343,127282,2,0,B|392:366|392:366|465:337,1,110.000003356934,2|8,0:0|0:1,0:0:0:0:
484,306,127743,2,0,B|432:206|518:193|472:82,1,220.000006713867,10|10,0:0|0:0,0:0:0:0:
395,11,128667,5,10,0:1:0:0:
300,66,128974,1,10,0:0:0:0:
199,22,129282,1,10,0:1:0:0:
102,74,129590,1,10,0:0:0:0:
102,74,129743,2,0,B|81:123|97:191,1,110.000003356934,2|8,0:0|0:1,0:0:0:0:
133,223,130205,1,10,0:0:0:0:
133,223,130359,2,0,L|252:206,1,110.000003356934,10|10,0:1|0:1,0:0:0:0:
345,154,130974,6,0,B|325:98|358:48,1,110.000003356934,14|8,0:1|0:1,0:0:0:0:
405,26,131436,1,10,0:0:0:0:
483,103,131743,2,0,B|502:158|469:211,1,110.000003356934,8|8,0:1|0:0,0:0:0:0:
437,250,132205,2,0,B|381:240|329:261,1,110.000003356934,14|8,0:1|0:1,0:0:0:0:
289,299,132667,1,10,0:0:0:0:
198,360,132974,2,0,B|140:370|90:346,1,110.000003356934,10|8,0:1|0:0,0:0:0:0:
46,314,133436,6,0,B|62:203,1,110.000003356934,14|8,0:1|0:1,0:0:0:0:
76,151,133897,1,10,0:0:0:0:
119,50,134205,1,10,0:1:0:0:
227,36,134513,1,10,0:0:0:0:
293,122,134820,1,10,0:0:0:0:
251,222,135128,1,14,0:0:0:0:
251,222,135282,2,0,B|218:264|239:339|307:343,1,165.0000050354,10|0,0:1|1:0,0:0:0:0:
423,324,136051,5,14,0:1:0:0:
381,223,136359,1,10,0:0:0:0:
447,135,136667,1,2,0:1:0:0:
397,36,136974,1,8,0:0:0:0:
397,36,137128,2,0,B|382:67|356:77|356:77|284:50,1,110.000003356934,2|0,0:0|0:0,0:0:0:0:
255,42,137590,2,0,B|206:2|136:31|110:101|163:156,1,220.000006713867,10|10,0:0|0:0,0:0:0:0:
253,224,138513,5,10,0:1:0:0:
243,333,138820,1,10,0:0:0:0:
144,382,139128,1,10,0:1:0:0:
41,340,139436,1,10,0:0:0:0:
41,340,139590,2,0,B|12:289|26:230,1,110.000003356934,2|8,0:0|0:1,0:0:0:0:
60,192,140051,1,10,0:0:0:0:
60,192,140205,2,0,L|187:179,1,110.000003356934,10|10,0:1|0:1,0:0:0:0:
285,147,140820,6,0,B|266:97|266:97|280:41,1,110.000003356934,14|8,0:1|0:1,0:0:0:0:
316,1,141282,1,10,0:0:0:0:
415,48,141590,2,0,B|434:98|434:98|420:154,1,110.000003356934,10|8,0:1|0:0,0:0:0:0:
393,201,142051,2,0,B|338:180|278:192,1,110.000003356934,14|8,0:1|0:1,0:0:0:0:
231,199,142513,1,10,0:0:0:0:
173,292,142820,1,10,0:1:0:0:
257,369,143128,5,10,0:0:0:0:
257,369,143282,2,0,L|384:356,1,110.000003356934,14|8,0:1|0:1,0:0:0:0:
419,374,143743,2,0,L|435:252,1,110.000003356934,10|10,0:0|0:1,0:0:0:0:
485,168,144359,1,10,0:0:0:0:
454,62,144667,1,10,0:0:0:0:
353,30,144974,1,14,0:0:0:0:
353,30,145128,2,0,B|296:20|296:20|261:37|261:37|185:22,1,165.0000050354,10|0,0:1|1:0,0:0:0:0:
91,53,145897,6,0,B|62:76|58:114|70:143,1,99.9999999999999,14|10,0:1|0:0,0:0:0:0:
99,184,146359,2,0,B|165:149|244:169,1,150,2|10,1:0|0:0,0:0:0:0:
306,245,147128,1,10,0:1:0:0:
268,339,147436,1,10,0:0:0:0:
268,339,147590,2,0,B|194:379|123:355,1,150,2|8,1:0|0:0,0:0:0:0:
35,288,148359,6,0,L|19:187,1,99.9999999999999,10|8,0:1|0:0,0:0:0:0:
6,140,148820,1,2,1:0:0:0:
98,21,149282,1,10,0:0:0:0:
181,76,149590,2,0,B|226:94|226:94|285:73,1,99.9999999999999,14|0,0:1|1:0,0:0:0:0:
322,60,150051,2,0,B|367:42|367:42|426:63,1,99.9999999999999,2|0,1:2|1:0,0:0:0:0:
459,83,150513,1,2,1:2:0:0:
491,185,150820,5,14,1:1:0:0:
256,192,150897,12,0,153282,0:0:0:0:
73,44,160667,6,0,B|33:84|34:161|64:203,1,170.000003242493,14|8,0:1|0:0,0:0:0:0:
119,268,161590,1,8,0:0:0:0:
240,229,162051,1,0,1:0:0:0:
240,229,162205,2,0,L|251:131,1,85.0000016212463,8|8,0:1|0:0,0:0:0:0:
376,32,163128,6,0,B|431:12|493:61|476:131,1,170.000003242493,10|10,0:1|0:0,0:0:0:0:
456,211,164051,1,2,0:0:0:0:
356,289,164513,1,0,1:0:0:0:
356,289,164667,2,0,L|267:277,1,85.0000016212463,8|8,0:1|0:0,0:0:0:0:
154,152,165590,6,0,B|195:98|139:31|75:67,1,170.000003242493,14|8,0:1|0:0,0:0:0:0:
8,120,166513,1,8,0:0:0:0:
29,246,166974,1,0,1:0:0:0:
29,246,167128,2,0,L|34:345,1,85.0000016212463,10|8,0:1|0:0,0:0:0:0:
196,378,168051,6,0,L|214:202,1,170.000003242493,10|10,0:1|0:0,0:0:0:0:
257,136,168974,1,2,0:0:0:0:
361,217,169436,1,0,1:0:0:0:
361,217,169590,2,0,B|403:229|453:209,1,85.0000016212463,8|8,0:1|3:2,0:0:0:0:
485,50,170513,6,0,B|423:42|423:42|384:77|384:77|311:66,1,170.000003242493,14|8,0:1|0:0,0:0:0:0:
257,110,171436,1,10,0:0:0:0:
257,109,171590,2,0,B|236:146|238:197|258:233,1,127.500002431869,2|8,0:0|0:1,0:0:0:0:
314,297,172359,2,0,B|245:252|150:278,1,170.000003242493,8|8,0:0|0:1,0:0:0:0:
68,308,173282,5,10,0:1:0:0:
8,247,173590,2,0,L|21:158,1,85.0000016212463,10|0,0:0|0:0,0:0:0:0:
44,127,174051,2,0,B|83:109|131:118,1,85.0000016212463,2|0,1:2|1:0,0:0:0:0:
162,141,174513,2,0,B|200:158|251:149,1,85.0000016212463,10|8,0:1|0:0,0:0:0:0:
388,60,175436,6,0,B|426:46|426:46|482:59,1,85.0000016212463,14|0,0:1|0:0,0:0:0:0:
499,135,176051,2,0,L|483:239,1,85.0000016212463,10|10,0:0|0:0,0:0:0:0:
455,248,176513,2,0,L|439:352,1,85.0000016212463,10|0,0:1|1:0,0:0:0:0:
406,355,176974,2,0,B|362:365|362:365|324:351,1,85.0000016212463,10|8,0:1|0:0,0:0:0:0:
231,208,177897,6,0,B|272:182|272:182|285:118|239:57,1,170.000003242493,8|8,0:1|0:0,0:0:0:0:
173,26,178820,1,8,0:1:0:0:
173,26,178974,2,0,B|128:26|128:26|112:56|112:56|74:86,1,127.500002431869,0|8,1:0|0:1,0:0:0:0:
3,133,179743,1,8,3:2:0:0:
30,300,180359,6,0,B|58:341|58:341|128:349|185:294,1,170.000003242493,14|8,0:1|0:0,0:0:0:0:
210,234,181282,1,10,0:0:0:0:
210,234,181436,2,0,B|186:173|209:104,1,127.500002431869,2|8,0:0|0:1,0:0:0:0:
260,40,182205,2,0,B|322:29|322:29|358:44|358:44|434:31,1,170.000003242493,8|8,0:0|0:1,0:0:0:0:
490,96,183128,5,2,0:0:0:0:
508,179,183436,2,0,L|495:268,1,85.0000016212463,10|0,0:0|0:0,0:0:0:0:
484,304,183897,2,0,B|442:285|402:286,1,85.0000016212463,2|0,1:2|1:0,0:0:0:0:
364,305,184359,2,0,B|323:324|282:323,1,85.0000016212463,10|8,0:1|0:0,0:0:0:0:
193,166,185282,6,0,B|208:131|208:131|193:72,1,89.999997253418,14|2,0:1|0:0,0:0:0:0:
122,27,185897,2,0,L|17:28,1,89.999997253418,10|8,0:0|0:0,0:0:0:0:
9,67,186359,2,0,B|-6:102|-6:102|9:122|9:161,1,89.999997253418,10|0,0:1|1:0,0:0:0:0:
40,182,186820,2,0,B|55:217|55:217|40:234|40:276,1,89.999997253418,10|8,0:1|0:0,0:0:0:0:
193,361,187743,6,0,L|390:341,1,179.999994506836,10|8,0:1|0:0,0:0:0:0:
488,205,188974,2,0,B|495:159|479:117,1,89.999997253418,2|8,0:0|0:1,0:0:0:0:
420,48,189590,1,10,0:0:0:0:
330,85,189897,1,8,0:0:0:0:
256,16,190205,1,4,1:2:0:0:
0,180,195128,5,10,0:1:0:0:
41,271,195436,1,10,0:1:0:0:
131,228,195743,2,0,L|144:125,1,99.9999999999999,10|8,0:1|0:1,0:0:0:0:
210,53,196359,5,10,0:1:0:0:
281,122,196667,1,10,0:1:0:0:
361,63,196974,2,0,B|388:37|420:35|453:55,1,99.9999999999999,10|8,0:1|0:1,0:0:0:0:
505,142,197590,5,10,0:1:0:0:
450,225,197897,1,10,0:1:0:0:
495,314,198205,1,10,2:1:0:0:
435,381,198513,1,2,1:2:0:0:
342,365,198820,6,0,B|239:344|190:222|217:136|279:84,1,337.499989700317,2|0,1:2|1:0,0:0:0:0:
367,32,200359,5,10,0:1:0:0:
367,32,200513,1,10,0:1:0:0:
405,112,200820,1,10,0:1:0:0:
352,264,201282,6,0,B|303:239|245:249,1,110.000003356934,14|10,0:1|0:0,0:0:0:0:
147,301,201897,1,10,0:1:0:0:
56,238,202205,1,10,0:0:0:0:
56,238,202359,2,0,B|32:188|54:123,1,110.000003356934,2|0,0:0|0:0,0:0:0:0:
96,92,202820,2,0,B|183:75|183:75|207:44|207:44|307:28,1,220.000006713867,10|10,0:0|0:0,0:0:0:0:
407,19,203743,5,10,0:1:0:0:
392,128,204051,1,10,0:0:0:0:
443,224,204359,1,10,0:1:0:0:
411,328,204667,1,10,0:0:0:0:
411,328,204820,2,0,B|360:303|304:316,1,110.000003356934,2|8,0:0|0:1,0:0:0:0:
255,341,205282,1,10,0:0:0:0:
254,341,205436,2,0,B|211:363|147:353,1,110.000003356934,10|10,0:1|0:1,0:0:0:0:
54,293,206051,6,0,L|46:176,1,110.000003356934,14|8,0:1|0:1,0:0:0:0:
44,128,206513,1,10,0:0:0:0:
99,34,206820,2,0,B|151:14|207:20,1,110.000003356934,10|8,0:1|0:0,0:0:0:0:
250,55,207282,2,0,L|258:172,1,110.000003356934,14|8,0:1|0:1,0:0:0:0:
262,219,207743,1,10,0:0:0:0:
327,306,208051,2,0,B|380:322|435:317,1,110.000003356934,10|8,0:1|0:0,0:0:0:0:
474,278,208513,6,0,B|485:238|485:238|477:217|477:217|488:172,1,110.000003356934,14|8,0:1|0:1,0:0:0:0:
507,120,208974,1,10,0:0:0:0:
431,39,209282,1,10,0:1:0:0:
337,96,209590,1,10,0:0:0:0:
256,20,209897,1,10,0:2:0:0:
153,60,210205,1,14,0:0:0:0:
153,60,210359,2,0,B|111:101|102:158|135:211,1,165.0000050354,10|0,0:1|1:0,0:0:0:0:
198,314,211128,5,14,2:1:0:0:
307,269,211436,1,10,0:0:0:0:
393,349,211743,1,10,0:0:0:0:
494,287,212051,1,8,0:0:0:0:
494,287,212205,2,0,B|511:227|489:162,1,117.999995858765,10|8,0:1|0:1,0:0:0:0:
456,124,212667,2,0,B|405:138|349:113|384:64|314:16|254:44,1,235.999991717529,10|10,0:0|0:0,0:0:0:0:
152,103,213590,5,14,0:0:0:0:
221,198,213897,1,10,0:0:0:0:
195,312,214205,1,10,0:0:0:0:
83,351,214513,1,10,0:0:0:0:
83,351,214667,2,0,B|72:308|72:308|77:277|77:277|64:225,1,117.999995858765,10|0,0:1|1:0,0:0:0:0:
36,185,215128,1,0,1:0:0:0:
36,185,215282,2,0,B|47:142|47:142|42:111|42:111|55:59,1,117.999995858765,10|10,0:1|0:1,0:0:0:0:
164,36,215897,6,0,B|216:63|271:50,1,110.000003356934,14|8,0:1|0:1,0:0:0:0:
323,32,216359,1,10,0:0:0:0:
426,70,216667,2,0,B|454:100|457:138|432:170,1,110.000003356934,10|8,0:1|0:0,0:0:0:0:
390,199,217128,2,0,B|358:191|358:191|331:204|331:204|284:194,1,110.000003356934,14|8,0:1|0:1,0:0:0:0:
231,181,217590,1,10,0:0:0:0:
148,254,217897,1,10,0:1:0:0:
229,344,218205,5,10,0:0:0:0:
229,344,218359,2,0,B|261:336|261:336|288:349|288:349|335:339,1,110.000003356934,14|8,0:1|0:1,0:0:0:0:
381,366,218820,2,0,B|404:313|388:256,1,110.000003356934,10|10,0:0|0:1,0:0:0:0:
303,188,219436,1,10,0:0:0:0:
206,241,219743,1,10,0:0:0:0:
114,189,220051,1,14,0:0:0:0:
114,189,220205,2,0,B|81:147|82:84|131:38,1,165.0000050354,10|0,0:1|1:0,0:0:0:0:
241,23,220974,6,0,L|348:34,1,99.9999999999999,14|10,0:1|0:0,0:0:0:0:
381,61,221436,2,0,B|399:104|399:104|383:156|383:156|406:212,1,150,2|10,1:0|0:0,0:0:0:0:
442,292,222205,1,10,0:1:0:0:
359,348,222513,1,10,0:0:0:0:
359,348,222667,2,0,B|311:338|311:338|272:352|272:352|207:337,1,150,2|8,1:0|0:0,0:0:0:0:
117,364,223436,6,0,B|108:257,1,99.9999999999999,10|8,0:1|0:0,0:0:0:0:
101,214,223897,1,2,1:0:0:0:
247,246,224359,1,10,0:0:0:0:
330,191,224667,2,0,L|333:84,1,99.9999999999999,14|0,0:1|1:0,0:0:0:0:
293,59,225128,2,0,B|264:80|223:79|200:53,1,99.9999999999999,2|0,1:2|1:0,0:0:0:0:
163,21,225590,1,2,1:2:0:0:
72,80,225897,6,0,B|50:127|50:127|62:184,1,99.9999999999999,14|10,1:1|0:0,0:0:0:0:
105,263,226513,1,10,0:1:0:0:
105,263,226667,1,10,0:1:0:0:
177,331,226974,2,0,B|222:313|281:320,1,99.9999999999999,10|8,0:1|0:1,0:0:0:0:
367,357,227590,1,2,0:0:0:0:
461,317,227897,1,10,0:1:0:0:
461,317,228051,1,8,0:0:0:0:
489,216,228359,6,0,L|476:110,1,99.9999999999999,10|8,0:1|0:0,0:0:0:0:
401,59,228974,1,10,0:1:0:0:
401,59,229128,1,10,0:1:0:0:
359,150,229436,2,0,L|346:249,1,99.9999999999999,10|10,0:1|0:1,0:0:0:0:
310,342,230051,1,2,0:0:0:0:
233,278,230359,1,8,0:1:0:0:
233,278,230513,1,10,0:0:0:0:
143,348,230820,6,0,B|100:367|100:367|51:340,1,99.9999999999999,14|8,0:1|0:0,0:0:0:0:
5,259,231436,1,10,0:1:0:0:
5,259,231590,1,2,0:0:0:0:
59,174,231897,2,0,B|73:142|73:142|69:115|69:115|85:62,1,99.9999999999999,2|8,0:0|0:1,0:0:0:0:
160,19,232513,1,2,0:0:0:0:
233,94,232820,1,10,0:1:0:0:
233,94,232974,1,8,0:0:0:0:
328,48,233282,6,0,B|374:29|433:40,1,99.9999999999999,10|8,0:1|0:0,0:0:0:0:
497,119,233897,1,10,0:1:0:0:
497,119,234051,1,10,0:1:0:0:
493,218,234359,2,0,B|480:332,1,99.9999999999999,10|2,0:1|0:0,0:0:0:0:
402,378,234974,1,10,0:1:0:0:
323,316,235282,2,0,B|311:216,1,99.9999999999999,2|0,1:2|1:0,0:0:0:0:
286,173,235743,6,0,B|305:131|305:131|283:81,1,99.9999999999999,14|10,1:1|0:0,0:0:0:0:
204,19,236359,1,10,0:3:0:0:
204,19,236513,1,2,1:0:0:0:
132,89,236820,2,0,B|110:138|110:138|129:180,1,99.9999999999999,10|10,0:1|0:1,0:0:0:0:
189,260,237436,1,10,0:0:0:0:
189,260,237590,1,12,0:0:0:0:
289,208,237897,6,0,B|332:182|385:190,1,99.9999999999999,6|8,0:3|1:2,0:0:0:0:
430,216,238359,2,0,B|453:262|440:313,1,99.9999999999999,8|4,2:3|0:3,0:0:0:0:
418,356,238820,1,14,0:1:0:0:
321,330,239128,1,10,0:0:0:0:
226,362,239436,2,0,B|173:373|129:345,1,99.9999999999999,10|8,0:3|2:2,0:0:0:0:
84,325,239897,1,10,0:1:0:0:
104,229,240205,5,10,0:1:0:0:
104,229,240359,2,0,L|115:126,1,99.9999999999999,10|14,0:1|0:2,0:0:0:0:
197,73,240974,2,0,B|238:95|238:95|294:83,1,99.9999999999999,6|0,0:3|1:0,0:0:0:0:
338,70,241436,6,0,B|354:67|354:67|366:67|366:67|380:58|380:58|393:60|393:60|407:48|407:48|423:45|423:45|430:33|430:33|446:24,1,125,2|0,1:2|1:0,0:0:0:0:
