osu file format v14

[General]
AudioFilename: audio.mp3
AudioLeadIn: 0
PreviewTime: 49820
Countdown: 0
SampleSet: Soft
StackLeniency: 0.7
Mode: 0
LetterboxInBreaks: 0
WidescreenStoryboard: 1

[Editor]
Bookmarks: 225897
DistanceSpacing: 1.1
BeatDivisor: 4
GridSize: 32
TimelineZoom: 2.4

[Metadata]
Title:affection
TitleUnicode:affection
Artist:solfa feat. KOTOKO
ArtistUnicode:solfa feat. KOTOKO
Creator:Lasse
Version:Insane
Source:リーシャル・マージ
Tags:ImpurePug AXL Racial Merge visual novel eroge opening full version japanese rock pop chronicle marine stage 橋咲透 Tooru Hashizaki
BeatmapID:2424904
BeatmapSetID:1160766

[Difficulty]
HPDrainRate:6
CircleSize:4
OverallDifficulty:8
ApproachRate:9
SliderMultiplier:1.6
SliderTickRate:1

[Events]
//Background and Video events
0,0,"e.jpg",0,0
//Break Periods
2,153482,160067
2,190405,194528
//Storyboard Layer 0 (Background)
//Storyboard Layer 1 (Fail)
//Storyboard Layer 2 (Pass)
//Storyboard Layer 3 (Foreground)
//Storyboard Layer 4 (Overlay)
//Storyboard Sound Samples

[TimingPoints]
667,307.692307692308,4,2,34,40,1,0
667,-200,4,2,34,40,0,0
5282,-200,4,2,34,42,0,0
5590,-200,4,2,34,44,0,0
5897,-200,4,2,34,46,0,0
6205,-200,4,2,34,48,0,0
6513,-200,4,2,34,50,0,0
6820,-200,4,2,34,52,0,0
7128,-200,4,2,34,54,0,0
7436,-200,4,2,34,56,0,0
7743,-200,4,2,34,58,0,0
7897,-200,4,2,34,5,0,0
8051,-100,4,2,34,70,0,0
17897,-133.333333333333,4,2,34,65,0,0
18205,-133.333333333333,4,2,34,60,0,0
27743,-121.951219512195,4,2,34,62,0,0
37590,-111.111111111111,4,2,34,64,0,0
42513,-99.9999999999999,4,2,34,66,0,0
45897,-99.9999999999999,4,2,34,68,0,0
46205,-90.9090909090909,4,2,34,70,0,0
46667,-90.9090909090909,4,2,34,72,0,0
47128,-90.9090909090909,4,2,34,74,0,0
47436,-133.333333333333,4,2,34,50,0,0
48051,-133.333333333333,4,2,34,52,0,0
48667,-133.333333333333,4,2,34,54,0,0
49282,-133.333333333333,4,2,34,56,0,0
49897,-83.3333333333333,4,2,34,78,0,1
69590,-90.9090909090909,4,2,34,70,0,1
73282,-90.9090909090909,4,2,34,72,0,1
74513,-100,4,2,34,72,0,0
84359,-86.9565217391304,4,2,34,75,0,0
94205,-133.333333333333,4,2,34,60,0,0
104051,-121.951219512195,4,2,34,62,0,0
113897,-111.111111111111,4,2,34,64,0,0
118820,-100,4,2,34,66,0,0
122205,-100,4,2,34,68,0,0
122513,-90.9090909090909,4,2,34,70,0,0
122974,-90.9090909090909,4,2,34,72,0,0
123436,-90.9090909090909,4,2,34,74,0,0
123743,-133.333333333333,4,2,34,50,0,0
124359,-133.333333333333,4,2,34,52,0,0
124974,-133.333333333333,4,2,34,54,0,0
125590,-133.333333333333,4,2,34,56,0,0
126205,-83.3333333333333,4,2,34,78,0,1
126436,-83.3333333333333,4,2,34,40,0,1
126513,-83.3333333333333,4,2,34,78,0,1
138743,-83.3333333333333,4,2,34,40,0,1
138820,-83.3333333333333,4,2,34,78,0,1
145897,-90.9090909090909,4,2,34,70,0,1
150820,-90.9090909090909,4,2,34,70,0,0
150897,-90.9090909090909,4,2,34,40,0,0
151436,-90.9090909090909,4,2,34,35,0,0
152051,-90.9090909090909,4,2,34,30,0,0
152667,-90.9090909090909,4,2,34,25,0,0
152974,-90.9090909090909,4,2,34,20,0,0
153282,-90.9090909090909,4,2,99,32,0,0
160667,-133.333333333333,4,2,34,48,0,0
169897,-133.333333333333,4,2,34,50,0,0
170513,-121.951219512195,4,2,34,52,0,0
180359,-111.111111111111,4,2,34,54,0,0
185282,-111.111111111111,4,2,34,56,0,0
189590,-111.111111111111,4,2,34,58,0,0
189743,-111.111111111111,4,2,34,60,0,0
189897,-111.111111111111,4,2,34,62,0,0
190051,-111.111111111111,4,2,34,64,0,0
190205,-100,4,2,99,50,0,0
195128,-100,4,2,34,50,0,0
196359,-100,4,2,34,55,0,0
197590,-100,4,2,34,60,0,0
198513,-200,4,2,34,50,0,0
198590,-200,4,2,34,51,0,0
198667,-200,4,2,34,52,0,0
198743,-200,4,2,34,53,0,0
198820,-200,4,2,34,54,0,0
198897,-200,4,2,34,55,0,0
198974,-200,4,2,34,56,0,0
199051,-200,4,2,34,57,0,0
199128,-200,4,2,34,58,0,0
199205,-200,4,2,34,59,0,0
199282,-200,4,2,34,60,0,0
199359,-200,4,2,34,61,0,0
199436,-200,4,2,34,62,0,0
199513,-200,4,2,34,63,0,0
199590,-200,4,2,34,64,0,0
199667,-200,4,2,34,65,0,0
199743,-200,4,2,34,66,0,0
199820,-200,4,2,34,67,0,0
199897,-200,4,2,34,68,0,0
199974,-200,4,2,34,69,0,0
200359,-83.3333333333333,4,2,34,70,0,0
200513,-83.3333333333333,4,2,34,72,0,0
200743,-83.3333333333333,4,2,34,40,0,0
200820,-83.3333333333333,4,2,34,74,0,0
201128,-83.3333333333333,4,2,34,50,0,0
201282,-83.3333333333333,4,2,34,78,0,1
211128,-71.4285714285714,4,2,34,80,0,1
215590,-83.3333333333333,4,2,34,78,0,1
215897,-76.9230769230769,4,2,34,78,0,1
220974,-86.9565217391304,4,2,34,70,0,1
225897,-90.9090909090909,4,2,34,74,0,0
235743,-90.9090909090909,4,2,34,76,0,0

[Colours]
Combo1 : 250,180,240
Combo2 : 120,200,230
Combo3 : 255,230,130
Combo4 : 160,230,150

[HitObjects]
132,306,667,6,0,B|74:327|4:327,2,120,2|2|0,0:0|0:0|0:0,0:0:0:0:
197,260,1897,2,0,B|220:225|245:197,1,80,2|0,0:0|0:0,0:0:0:0:
245,196,2359,2,0,B|270:168|293:133,1,80,2|0,0:0|0:0,0:0:0:0:
205,50,3128,6,0,B|144:51|84:19,2,120,2|2|0,0:0|0:0|0:0,0:0:0:0:
284,45,4359,2,0,B|325:24|368:24,1,80,2|0,0:0|0:0,0:0:0:0:
360,24,4820,2,0,B|392:56|405:97,1,80,2|0,0:0|0:0,0:0:0:0:
403,90,5282,1,2,0:0:0:0:
256,192,5359,12,14,8051,0:1:0:0:
106,366,8359,6,0,B|203:357,1,80,10|0,0:0|0:0,0:0:0:0:
340,294,8667,2,0,B|299:298|261:285,2,80,10|10|8,0:1|0:1|0:0,0:0:0:0:
308,184,9128,6,0,B|266:146|268:72|315:41,1,160,10|8,0:1|0:1,0:0:0:0:
409,4,9590,1,10,0:0:0:0:
512,123,9743,2,0,B|479:98|435:96,1,80,2|8,0:0|0:1,0:0:0:0:
382,214,10051,2,0,B|421:216|458:194,2,80,10|8|0,0:1|0:0|0:0,0:0:0:0:
257,123,10513,6,0,B|258:78|228:43|189:33|144:57,2,160,10|8|8,0:1|0:0|0:1,0:0:0:0:
168,178,11282,2,0,B|131:162|66:159,1,80,10|8,0:1|0:0,0:0:0:0:
122,260,11590,2,0,B|81:261|44:277,1,80,10|0,0:1|0:0,0:0:0:0:
164,361,11897,5,10,0:1:0:0:
164,361,12051,1,8,0:0:0:0:
227,273,12205,2,0,B|203:192|257:123,1,160,2|8,0:0|0:1,0:0:0:0:
340,52,12667,2,0,B|350:131,1,80,10|0,0:0|0:0,0:0:0:0:
479,254,12974,6,0,B|500:162|436:108,1,160,14|8,0:1|0:0,0:0:0:0:
340,52,13436,1,0,0:0:0:0:
237,102,13590,2,0,B|191:99|158:82,2,80,10|10|8,0:1|0:1|0:0,0:0:0:0:
329,181,14051,6,0,B|392:234|371:326,1,160,2|8,0:0|0:1,0:0:0:0:
285,384,14513,1,10,0:0:0:0:
190,302,14667,2,0,B|285:292,1,80,2|8,0:0|0:1,0:0:0:0:
175,208,14974,2,0,B|172:168|151:133,2,80,10|8|0,0:1|0:0|0:0,0:0:0:0:
49,275,15436,6,0,B|28:196|73:112,2,160,10|8|8,0:1|0:0|0:1,0:0:0:0:
110,359,16205,2,0,B|155:348|215:350,1,80,10|8,0:1|0:0,0:0:0:0:
372,370,16513,2,0,B|338:372|293:361,1,80,10|0,0:1|0:0,0:0:0:0:
194,327,16820,1,10,0:1:0:0:
323,238,16974,1,12,0:0:0:0:
238,168,17128,2,0,B|241:209|237:254,1,80,10|8,0:1|0:3,0:0:0:0:
202,334,17436,5,0,1:0:0:0:
202,334,17513,1,0,1:0:0:0:
202,334,17590,1,0,1:0:0:0:
123,279,17743,5,0,1:0:0:0:
123,279,17820,1,0,1:0:0:0:
123,279,17897,1,14,1:1:0:0:
0,382,18205,6,0,B|-4:348|12:304,1,60.0000022888184,10|0,0:0|0:0,0:0:0:0:
24,246,18513,2,0,B|49:199|-3:178|36:126,1,120.000004577637,10|8,0:1|0:0,0:0:0:0:
96,84,18974,1,10,0:1:0:0:
96,84,19128,2,0,B|156:86|219:48,1,120.000004577637,2|10,0:0|0:0,0:0:0:0:
284,26,19590,2,0,B|319:7|362:10,1,60.0000022888184,2|8,0:0|0:1,0:0:0:0:
415,33,19897,2,0,B|443:60|454:102,1,60.0000022888184,10|8,0:1|0:0,0:0:0:0:
431,176,20205,5,2,0:0:0:0:
431,176,20359,2,0,B|396:225|459:241|418:298,1,120.000004577637,10|8,0:1|0:0,0:0:0:0:
362,339,20820,2,0,B|313:305|239:303,1,120.000004577637,2|8,0:0|0:1,0:0:0:0:
175,321,21282,1,8,0:0:0:0:
175,321,21436,1,8,0:1:0:0:
283,218,21743,1,8,0:1:0:0:
283,218,21897,1,8,0:0:0:0:
221,74,22205,1,10,0:1:0:0:
221,74,22359,1,10,0:1:0:0:
161,124,22513,2,0,B|133:141|104:136,1,60.0000022888184,10|8,0:0|0:1,0:0:0:0:
35,57,22820,6,0,B|4:74|-12:122|4:164,1,120.000004577637,14|8,0:1|0:0,0:0:0:0:
50,227,23282,2,0,B|81:228|122:247,1,60.0000022888184,2|8,0:0|0:1,0:0:0:0:
163,297,23590,2,0,B|174:324|196:346,1,60.0000022888184,10|10,0:1|0:2,0:0:0:0:
267,378,23897,1,10,0:1:0:0:
267,378,24051,2,0,B|306:336|384:337,1,120.000004577637,10|8,0:1|0:0,0:0:0:0:
452,356,24513,2,0,B|474:370|509:371,1,60.0000022888184,2|8,0:0|0:1,0:0:0:0:
470,280,24820,2,0,B|490:263|502:230,1,60.0000022888184,10|8,0:1|0:0,0:0:0:0:
471,125,25128,5,2,0:0:0:0:
471,125,25282,2,0,B|405:142|349:101,1,120.000004577637,10|8,0:1|0:0,0:0:0:0:
304,48,25743,1,2,0:0:0:0:
304,48,25897,2,0,B|280:72|279:113,1,60.0000022888184,10|8,0:1|0:1,0:0:0:0:
314,172,26205,2,0,B|338:196|339:237,1,60.0000022888184,10|8,0:0|0:1,0:0:0:0:
337,304,26513,2,0,B|300:367|236:353,1,120.000004577637,2|8,0:0|0:0,0:0:0:0:
162,374,26974,2,0,B|156:347|169:315,1,60.0000022888184,2|8,0:0|0:1,0:0:0:0:
223,235,27282,5,8,0:0:0:0:
145,241,27436,1,8,0:0:0:0:
100,176,27590,1,8,0:3:0:0:
133,104,27743,1,14,0:1:0:0:
267,22,28051,5,10,0:0:0:0:
267,22,28205,1,0,0:0:0:0:
345,55,28359,2,0,B|376:72|414:58|400:30|443:24|484:37,1,131.200002001953,10|8,0:1|0:0,0:0:0:0:
429,131,28820,1,10,0:1:0:0:
493,189,28974,2,0,B|532:247|521:315,1,131.200002001953,2|10,0:0|0:0,0:0:0:0:
446,355,29436,2,0,B|416:344|366:341,1,65.6000010009766,2|8,0:0|0:1,0:0:0:0:
300,369,29743,2,0,B|270:380|220:383,1,65.6000010009766,10|8,0:1|0:0,0:0:0:0:
121,333,30051,5,2,0:0:0:0:
121,333,30205,2,0,B|167:351|212:293|171:246,1,131.200002001953,10|8,0:1|0:0,0:0:0:0:
122,185,30667,1,2,0:0:0:0:
122,185,30820,2,0,B|95:213|93:244,1,65.6000010009766,10|0,0:1|0:0,0:0:0:0:
254,223,31128,2,0,B|292:216|311:191,1,65.6000010009766,10|8,0:0|0:1,0:0:0:0:
171,115,31436,2,0,B|136:97|106:106,1,65.6000010009766,2|8,0:0|0:1,0:0:0:0:
176,252,31743,2,0,B|194:286|223:296,1,65.6000010009766,10|0,0:0|0:0,0:0:0:0:
319,289,32051,5,10,0:1:0:0:
397,304,32205,1,10,0:1:0:0:
354,368,32359,1,10,0:0:0:0:
354,368,32513,1,8,0:1:0:0:
469,334,32667,6,0,B|502:278|436:271|482:205,1,131.200002001953,14|8,0:1|0:0,0:0:0:0:
507,129,33128,2,0,B|514:92|503:57,1,65.6000010009766,2|8,0:0|0:1,0:0:0:0:
420,51,33436,2,0,B|403:16|374:-4,1,65.6000010009766,10|8,0:1|0:0,0:0:0:0:
290,43,33743,5,10,0:1:0:0:
290,43,33897,2,0,B|352:73|367:143,1,131.200002001953,10|8,0:1|0:0,0:0:0:0:
328,220,34359,2,0,B|302:238|281:275,1,65.6000010009766,2|8,0:0|0:1,0:0:0:0:
230,335,34667,2,0,B|205:360|175:370,1,65.6000010009766,10|8,0:1|0:0,0:0:0:0:
75,340,34974,5,2,0:0:0:0:
75,340,35128,2,0,B|105:282|26:281|54:220,1,131.200002001953,10|8,0:1|0:0,0:0:0:0:
190,255,35590,1,2,0:0:0:0:
190,255,35743,2,0,B|160:197|238:196|210:135,1,131.200002001953,10|8,0:1|0:0,0:0:0:0:
139,42,36205,5,10,0:1:0:0:
73,78,36359,2,0,B|38:75|9:50,1,65.6000010009766,10|0,0:1|1:0,0:0:0:0:
13,53,36590,1,0,1:0:0:0:
13,53,36667,1,0,1:0:0:0:
23,145,36820,5,0,1:0:0:0:
23,145,36897,1,0,1:0:0:0:
23,145,36974,1,0,1:3:0:0:
27,231,37128,5,0,1:0:0:0:
27,231,37205,1,0,1:0:0:0:
27,231,37282,1,0,1:0:0:0:
35,317,37436,5,0,1:0:0:0:
35,317,37513,1,0,1:0:0:0:
35,317,37590,2,0,B|99:287|179:302,1,143.999995605469,14|8,1:1|0:0,0:0:0:0:
352,364,38205,6,0,B|384:376|447:377,1,71.9999978027344,10|8,0:1|0:1,0:0:0:0:
500,323,38513,2,0,B|511:290|513:228,1,71.9999978027344,10|8,0:0|0:1,0:0:0:0:
385,144,38820,2,0,B|376:218|408:285,1,143.999995605469,2|8,0:0|0:0,0:0:0:0:
505,170,39282,2,0,B|506:207|495:241,2,71.9999978027344,2|10|8,0:0|0:1|0:1,0:0:0:0:
467,83,39743,1,10,0:0:0:0:
277,50,40051,6,0,B|239:68|198:40|212:26|183:-2|137:17,2,143.999995605469,10|8|8,0:1|0:0|0:1,0:0:0:0:
363,15,40820,1,8,0:1:0:0:
426,84,40974,2,0,B|444:118|441:160,1,71.9999978027344,10|8,0:0|0:1,0:0:0:0:
379,308,41282,6,0,B|393:256|352:210|297:225,1,143.999995605469,2|8,0:0|0:0,0:0:0:0:
218,261,41743,1,10,0:1:0:0:
211,348,41897,1,8,0:3:0:0:
133,384,42051,1,4,0:3:0:0:
63,336,42205,1,10,0:0:0:0:
69,250,42359,1,8,0:1:0:0:
147,210,42513,2,0,B|178:185|194:146|185:92|152:69,1,160,14|8,0:1|0:0,0:0:0:0:
152,69,43128,5,10,0:1:0:0:
210,13,43282,1,8,0:1:0:0:
289,8,43436,1,8,0:0:0:0:
346,64,43590,1,8,0:1:0:0:
344,143,43743,2,0,B|315:224|363:299,1,160,2|8,0:0|0:0,0:0:0:0:
469,367,44205,2,0,B|515:294|486:213,1,160,2|8,0:0|0:1,0:0:0:0:
388,130,44667,2,0,L|306:114,1,80,10|0,0:0|0:0,0:0:0:0:
175,162,44974,6,0,B|166:225|81:244|44:168,2,160,10|8|8,0:1|0:0|0:1,0:0:0:0:
215,83,45743,1,8,0:1:0:0:
300,56,45897,1,10,0:0:0:0:
379,97,46051,1,10,0:1:0:0:
411,190,46205,6,0,B|421:238|406:282,1,88.000002685547,10|8,0:0|2:1,0:0:0:0:
276,361,46513,5,8,2:1:0:0:
196,272,46667,2,0,B|182:233|192:185,1,88.000002685547,10|8,0:3|0:1,0:0:0:0:
304,46,46974,5,8,0:1:0:0:
379,97,47128,2,0,B|424:107|466:86,1,88.000002685547,14|8,0:0|0:1,0:0:0:0:
290,35,47436,6,0,L|218:26,1,60.0000022888184,14|0,0:1|0:0,0:0:0:0:
245,39,47743,2,0,L|304:46,1,60.0000022888184,0|0,0:0|0:0,0:0:0:0:
318,57,48051,2,0,L|259:50,1,60.0000022888184,0|0,0:0|0:0,0:0:0:0:
273,61,48359,2,0,L|332:68,1,60.0000022888184,0|0,0:0|0:0,0:0:0:0:
401,136,48667,6,0,B|395:171|403:195,1,60.0000022888184,0|0,0:0|0:0,0:0:0:0:
414,201,48974,2,0,B|405:176|411:141,1,60.0000022888184,0|0,0:0|0:0,0:0:0:0:
421,146,49282,2,0,B|415:181|424:206,1,60.0000022888184,0|0,0:0|0:0,0:0:0:0:
432,209,49590,1,0,0:0:0:0:
332,68,49897,5,14,0:1:0:0:
316,172,50051,1,2,0:0:0:0:
231,234,50205,1,10,0:0:0:0:
127,217,50359,1,2,0:0:0:0:
65,132,50513,2,0,B|58:43|182:91|161:-21,1,191.999994140625,10|8,0:1|0:0,0:0:0:0:
340,76,50974,5,2,0:0:0:0:
340,76,51051,1,2,0:0:0:0:
340,76,51128,2,0,B|377:103|436:95,1,95.9999970703126,10|8,0:1|0:1,0:0:0:0:
503,174,51436,2,0,B|466:201|407:193,1,95.9999970703126,10|8,0:0|0:1,0:0:0:0:
346,277,51743,2,0,B|383:304|437:296,2,95.9999970703126,2|8|10,0:0|0:1|0:0,0:0:0:0:
231,98,52359,5,10,0:1:0:0:
162,17,52513,1,2,0:0:0:0:
57,36,52667,1,10,0:0:0:0:
20,136,52820,1,2,0:0:0:0:
88,218,52974,2,0,B|171:186|277:202,1,191.999994140625,10|10,0:1|0:0,0:0:0:0:
155,296,53436,6,0,B|244:281|342:325,1,191.999994140625,2|8,0:0|0:1,0:0:0:0:
435,374,53897,1,10,0:0:0:0:
504,294,54051,1,10,0:1:0:0:
504,294,54359,2,0,L|488:188,1,95.9999970703126,10|8,0:1|0:0,0:0:0:0:
512,64,54667,6,0,B|483:44|443:44|410:66|392:99|392:99|350:71,1,191.999994140625,14|8,0:1|0:1,0:0:0:0:
265,10,55128,1,10,0:0:0:0:
179,72,55282,1,2,0:0:0:0:
211,172,55436,2,0,B|225:218|206:283,2,95.9999970703126,10|8|8,0:1|0:1|0:0,0:0:0:0:
88,91,55897,6,0,B|41:82|-7:116|-22:173|9:222,1,191.999994140625,14|8,0:1|0:1,0:0:0:0:
67,308,56359,1,10,0:0:0:0:
167,276,56513,1,2,0:0:0:0:
248,343,56667,2,0,B|290:366|349:357,2,95.9999970703126,10|8|8,0:1|0:1|0:0,0:0:0:0:
362,265,57128,6,0,B|390:223|390:223|356:207|340:177|335:132|356:100,1,191.999994140625,14|8,0:1|0:1,0:0:0:0:
454,137,57590,2,0,B|471:85|445:44,1,95.9999970703126,10|0,0:0|0:1,0:0:0:0:
317,0,57897,1,10,0:1:0:0:
317,0,58051,1,8,0:1:0:0:
252,83,58205,1,10,0:0:0:0:
252,83,58359,1,8,0:1:0:0:
164,33,58513,6,0,B|115:11|48:24,1,95.9999970703126,10|8,0:0|0:1,0:0:0:0:
281,173,58820,2,0,B|330:195|397:182,2,95.9999970703126,14|10|8,0:0|0:1|0:0,0:0:0:0:
162,126,59282,1,0,1:0:0:0:
140,116,59359,1,0,1:0:0:0:
116,114,59436,1,0,1:0:0:0:
93,120,59513,1,0,1:0:0:0:
73,133,59590,1,0,1:0:0:0:
59,152,59667,1,0,1:0:0:0:
51,175,59743,6,0,B|48:223|66:281,1,95.9999970703126,14|2,2:1|0:0,0:0:0:0:
180,336,60051,2,0,B|223:312|270:304,1,95.9999970703126,10|0,0:0|0:0,0:0:0:0:
401,354,60359,2,0,B|364:401|307:393|264:362|269:303,1,191.999994140625,10|8,0:1|0:0,0:0:0:0:
341,201,60820,5,2,0:0:0:0:
341,201,60897,1,2,0:0:0:0:
341,201,60974,2,0,B|358:156|357:94,1,95.9999970703126,10|8,0:1|0:1,0:0:0:0:
233,131,61282,2,0,B|225:83|193:30,1,95.9999970703126,10|8,0:0|0:1,0:0:0:0:
104,124,61590,2,0,B|73:86|19:56,2,95.9999970703126,2|8|10,0:0|0:1|0:0,0:0:0:0:
175,313,62205,5,10,0:1:0:0:
256,380,62359,1,2,0:0:0:0:
345,322,62513,1,10,0:0:0:0:
433,379,62667,1,2,0:0:0:0:
506,304,62820,2,0,B|533:208|502:105,1,191.999994140625,10|10,0:1|0:0,0:0:0:0:
423,254,63282,6,0,B|434:154|387:58,1,191.999994140625,2|8,0:0|0:1,0:0:0:0:
304,7,63743,1,10,0:0:0:0:
210,56,63897,1,10,0:1:0:0:
210,56,64205,2,0,B|169:35|114:44,1,95.9999970703126,10|8,0:1|0:0,0:0:0:0:
12,138,64513,6,0,B|-10:177|-3:220|19:250|60:263|60:263|40:274|33:288,1,191.999994140625,14|8,0:1|0:1,0:0:0:0:
97,372,64974,1,10,0:0:0:0:
195,333,65128,1,10,0:1:0:0:
292,373,65282,2,0,B|336:388|399:381,2,95.9999970703126,10|8|8,0:1|0:1|0:0,0:0:0:0:
234,254,65743,6,0,B|180:170|288:159|236:74,1,191.999994140625,14|8,0:1|0:1,0:0:0:0:
155,5,66205,1,10,0:0:0:0:
54,37,66359,1,8,0:1:0:0:
18,136,66513,2,0,B|12:183|36:243,1,95.9999970703126,10|8,0:1|0:1,0:0:0:0:
139,344,66820,5,10,0:0:0:0:
139,344,66974,2,0,B|184:305|254:327|219:358|279:378|328:347,1,191.999994140625,14|8,0:1|0:1,0:0:0:0:
393,265,67436,2,0,B|376:215|385:152,1,95.9999970703126,10|0,0:0|0:0,0:0:0:0:
502,238,67743,2,0,B|519:188|510:125,1,95.9999970703126,10|8,0:1|0:1,0:0:0:0:
434,34,68051,5,10,0:0:0:0:
434,34,68205,1,8,0:1:0:0:
338,96,68359,1,10,0:0:0:0:
338,96,68513,1,8,0:1:0:0:
245,36,68667,1,14,0:0:0:0:
245,36,68820,2,0,B|197:18|150:23,1,95.9999970703126,10|8,0:1|0:3,0:0:0:0:
52,73,69128,1,0,1:0:0:0:
50,87,69205,1,0,1:0:0:0:
48,101,69282,1,0,1:0:0:0:
46,115,69359,1,0,1:0:0:0:
44,129,69436,1,0,1:0:0:0:
42,143,69513,1,0,1:0:0:0:
41,157,69590,6,0,B|132:143|115:221|205:209,1,176.000005371094,14|10,0:1|0:0,0:0:0:0:
300,163,70051,1,2,1:0:0:0:
300,163,70128,1,0,1:0:0:0:
300,163,70205,2,0,B|287:117|304:74,1,88.000002685547,8|0,0:1|0:0,0:0:0:0:
399,120,70513,2,0,B|422:78|464:59,1,88.000002685547,10|0,0:0|0:0,0:0:0:0:
487,179,70820,6,0,B|547:253|507:344,1,176.000005371094,10|10,0:1|0:0,0:0:0:0:
403,379,71282,1,2,1:0:0:0:
403,379,71359,1,0,1:0:0:0:
403,379,71436,2,0,B|403:291,1,88.000002685547,8|8,0:1|0:1,0:0:0:0:
294,348,71743,2,0,B|294:260,1,88.000002685547,8|0,0:0|0:0,0:0:0:0:
231,141,72051,6,0,B|196:86|120:71|65:121,1,176.000005371094,10|8,0:1|0:0,0:0:0:0:
10,195,72513,1,2,1:0:0:0:
10,195,72590,1,0,1:0:0:0:
10,195,72667,2,0,B|-3:293,1,88.000002685547,8|8,0:1|0:1,0:0:0:0:
70,359,72974,2,0,B|105:335|163:334,1,88.000002685547,10|0,0:0|0:0,0:0:0:0:
269,358,73282,6,0,B|315:371|356:368,1,88.000002685547,14|0,0:1|1:0,0:0:0:0:
355,368,73513,1,0,1:0:0:0:
355,368,73590,1,0,1:0:0:0:
436,325,73743,1,0,1:0:0:0:
436,325,73820,1,0,1:0:0:0:
436,325,73897,1,0,1:0:0:0:
387,244,74051,1,0,1:0:0:0:
387,244,74128,1,0,1:0:0:0:
387,244,74205,1,0,1:0:0:0:
451,182,74359,1,0,1:0:0:0:
451,182,74436,1,0,1:0:0:0:
451,182,74513,1,14,1:1:0:0:
310,28,74820,6,0,B|213:24,1,80,10|0,0:0|0:0,0:0:0:0:
150,103,75128,2,0,B|148:57|130:24,2,80,10|10|8,0:1|0:1|0:0,0:0:0:0:
70,197,75590,6,0,B|5:262|58:342,1,160,10|8,0:1|0:1,0:0:0:0:
161,382,76051,1,10,0:0:0:0:
217,288,76205,2,0,B|137:276,1,80,2|8,0:0|0:1,0:0:0:0:
241,190,76513,2,0,B|230:155|246:106,2,80,10|8|0,0:1|0:0|0:0,0:0:0:0:
379,232,76974,6,0,B|406:167|385:64,2,160,10|8|8,0:1|0:0|0:1,0:0:0:0:
319,317,77743,2,0,B|281:297|223:296,1,80,10|8,0:1|0:0,0:0:0:0:
164,361,78051,2,0,B|126:381|68:382,1,80,8|2,0:1|2:0,0:0:0:0:
0,287,78359,5,10,2:1:0:0:
0,287,78513,1,8,0:0:0:0:
74,214,78667,2,0,B|103:137|21:147|49:59,1,160,2|8,0:0|0:1,0:0:0:0:
144,8,79128,2,0,B|136:92,1,80,10|0,0:0|0:0,0:0:0:0:
246,142,79436,6,0,B|299:78|399:100,1,160,14|8,0:1|0:0,0:0:0:0:
494,117,79897,1,0,0:0:0:0:
405,199,80051,2,0,B|307:186,2,80,10|10|10,0:1|0:1|0:0,0:0:0:0:
469,300,80513,6,0,B|480:362|413:403|361:361,1,160,10|8,0:1|0:1,0:0:0:0:
277,305,80974,1,10,0:0:0:0:
325,188,81128,2,0,B|339:150|332:108,1,80,2|8,0:0|0:1,0:0:0:0:
232,76,81436,2,0,B|225:36|198:3,2,80,10|8|0,0:1|0:0|0:0,0:0:0:0:
149,172,81897,6,0,B|101:238|120:337,2,160,10|8|8,0:1|0:0|0:1,0:0:0:0:
229,105,82667,2,0,B|274:101|328:73,1,80,2|8,0:0|0:0,0:0:0:0:
382,155,82974,2,0,B|427:159|481:187,1,80,10|2,0:1|0:0,0:0:0:0:
381,245,83282,1,10,0:1:0:0:
475,325,83436,1,14,0:0:0:0:
381,371,83590,2,0,B|344:373|301:357,1,80,2|8,0:0|0:3,0:0:0:0:
236,267,83897,5,0,1:0:0:0:
236,267,83974,1,0,1:0:0:0:
236,267,84051,1,0,1:0:0:0:
307,177,84205,5,0,1:0:0:0:
307,177,84282,1,0,1:0:0:0:
307,177,84359,2,0,B|323:133|323:133|308:90,1,92.0000017547608,14|2,1:1|0:0,0:0:0:0:
147,135,84667,2,0,B|131:179|131:179|145:221,1,92.0000017547608,10|2,0:0|0:0,0:0:0:0:
236,267,84974,5,10,0:1:0:0:
337,259,85128,1,8,0:1:0:0:
345,360,85282,1,10,0:0:0:0:
244,368,85436,1,8,0:1:0:0:
148,326,85590,6,0,B|105:313|50:323,2,92.0000017547608,10|2|10,0:1|0:0|0:0,0:0:0:0:
345,360,86051,2,0,B|388:373|443:363,1,92.0000017547608,2|8,0:0|0:1,0:0:0:0:
325,214,86359,1,10,0:1:0:0:
325,214,86436,1,8,0:1:0:0:
325,214,86513,2,0,B|336:160|319:107,1,92.0000017547608,8|0,0:0|0:0,0:0:0:0:
187,21,86820,6,0,L|85:20,1,92.0000017547608,10|8,0:1|0:1,0:0:0:0:
231,121,87128,2,0,L|333:122,1,92.0000017547608,10|0,0:0|0:0,0:0:0:0:
494,116,87436,5,10,0:1:0:0:
407,65,87590,1,10,0:1:0:0:
410,173,87743,1,8,0:0:0:0:
323,122,87897,1,10,0:1:0:0:
298,224,88051,6,0,B|306:269|294:315,2,92.0000017547608,10|8|10,0:1|0:1|0:0,0:0:0:0:
210,97,88513,2,0,B|202:52|213:5,1,92.0000017547608,2|8,0:0|0:1,0:0:0:0:
111,93,88820,1,10,0:1:0:0:
14,61,88974,1,10,0:0:0:0:
99,115,89128,1,2,0:0:0:0:
29,208,89282,6,0,B|6:255|19:317,1,92.0000017547608,14|0,0:1|0:0,0:0:0:0:
88,368,89590,2,0,B|161:318|264:344,2,184.000003509522,10|8|8,0:0|0:1|0:0,0:0:0:0:
121,260,90359,2,0,B|144:213|134:170,1,92.0000017547608,8|8,0:1|0:1,0:0:0:0:
134,170,90820,5,10,0:0:0:0:
230,223,90974,1,2,0:0:0:0:
326,169,91128,2,0,B|368:80|261:97|312:0,1,184.000003509522,10|10,0:1|0:0,0:0:0:0:
467,97,91590,6,0,B|518:194|411:177|453:266,1,184.000003509522,2|10,0:0|0:1,0:0:0:0:
507,369,92051,2,0,B|468:347|406:352,1,92.0000017547608,8|8,0:0|0:1,0:0:0:0:
307,367,92359,2,0,B|268:389|217:384,1,92.0000017547608,10|8,0:1|0:1,0:0:0:0:
77,339,92667,5,10,0:0:0:0:
167,274,92820,2,0,B|228:192|163:102,1,184.000003509522,10|8,0:1|0:1,0:0:0:0:
54,19,93282,5,14,0:0:0:0:
0,115,93436,1,8,0:1:0:0:
79,192,93590,1,8,0:3:0:0:
0,269,93743,1,0,1:0:0:0:
0,269,93820,1,0,1:0:0:0:
0,269,93897,1,0,1:0:0:0:
54,365,94051,1,0,1:0:0:0:
54,365,94128,1,0,1:0:0:0:
54,365,94205,1,14,1:1:0:0:
184,302,94513,6,0,B|189:223,1,60.0000022888184,10|0,0:0|0:0,0:0:0:0:
155,170,94820,2,0,B|86:193|44:134,1,120.000004577637,10|8,0:1|0:0,0:0:0:0:
47,64,95282,1,10,0:1:0:0:
47,64,95436,2,0,B|84:10|153:33,1,120.000004577637,2|10,0:0|0:0,0:0:0:0:
227,57,95897,2,0,B|258:64|301:51,1,60.0000022888184,2|8,0:0|0:1,0:0:0:0:
361,34,96205,2,0,B|389:24|420:31,1,60.0000022888184,10|8,0:1|0:0,0:0:0:0:
492,100,96513,5,2,0:0:0:0:
492,100,96667,2,0,B|482:141|482:141|495:175|495:175|483:225,1,120.000004577637,10|8,0:1|0:0,0:0:0:0:
444,281,97128,2,0,B|400:235|330:247,1,120.000004577637,2|10,0:0|0:1,0:0:0:0:
257,264,97590,1,8,0:0:0:0:
257,264,97743,1,10,0:1:0:0:
364,383,98051,1,8,0:1:0:0:
364,383,98205,1,8,0:0:0:0:
490,290,98513,1,10,0:1:0:0:
490,290,98667,1,10,0:1:0:0:
507,213,98820,2,0,B|496:148,1,60.0000022888184,10|8,0:0|0:1,0:0:0:0:
469,72,99128,6,0,B|406:104|342:67,1,120.000004577637,14|8,0:1|0:0,0:0:0:0:
277,93,99590,2,0,B|275:66|258:24,1,60.0000022888184,2|8,0:0|0:1,0:0:0:0:
186,53,99897,2,0,B|165:35|123:17,1,60.0000022888184,10|8,0:1|0:0,0:0:0:0:
74,72,100205,1,10,0:1:0:0:
74,72,100359,2,0,B|3:93|-13:166,1,120.000004577637,2|10,0:0|0:0,0:0:0:0:
37,214,100820,2,0,B|36:238|57:274,1,60.0000022888184,2|8,0:0|0:1,0:0:0:0:
132,265,101128,2,0,B|154:273|195:264,1,60.0000022888184,10|8,0:1|0:0,0:0:0:0:
290,212,101436,5,10,0:1:0:0:
290,212,101590,2,0,B|262:158|283:88,1,120.000004577637,10|8,0:1|0:0,0:0:0:0:
334,39,102051,1,2,0:0:0:0:
334,39,102205,2,0,B|360:59|391:61,1,60.0000022888184,10|8,0:1|0:1,0:0:0:0:
422,131,102513,2,0,B|448:111|479:109,1,60.0000022888184,10|8,0:0|0:1,0:0:0:0:
511,179,102820,2,0,B|533:240|502:295,1,120.000004577637,10|8,0:1|0:0,0:0:0:0:
455,357,103282,2,0,B|427:338|389:331,1,60.0000022888184,10|8,0:1|0:1,0:0:0:0:
302,338,103590,5,8,0:0:0:0:
238,383,103743,1,8,0:0:0:0:
160,369,103897,1,8,0:3:0:0:
114,303,104051,1,14,0:1:0:0:
263,220,104359,5,10,0:0:0:0:
263,220,104513,1,2,0:0:0:0:
201,160,104667,2,0,B|177:137|177:137|202:84|163:29,1,131.200002001953,10|8,0:1|0:0,0:0:0:0:
94,7,105128,1,10,0:1:0:0:
28,62,105282,2,0,B|0:102|24:155|24:155|0:177,1,131.200002001953,2|10,0:0|0:0,0:0:0:0:
35,256,105743,2,0,B|19:288|18:339,1,65.6000010009766,2|8,0:0|0:1,0:0:0:0:
89,367,106051,2,0,B|119:356|169:353,1,65.6000010009766,10|8,0:1|0:0,0:0:0:0:
267,372,106359,5,2,0:0:0:0:
267,372,106513,2,0,B|305:358|317:288|270:260,1,131.200002001953,10|8,0:1|0:0,0:0:0:0:
206,210,106974,1,2,0:0:0:0:
206,210,107128,2,0,B|172:229|134:218,1,65.6000010009766,10|8,0:1|0:1,0:0:0:0:
209,118,107436,2,0,B|175:99|145:107,1,65.6000010009766,10|8,0:0|0:1,0:0:0:0:
291,161,107743,2,0,B|325:180|363:169,1,65.6000010009766,2|8,0:0|0:1,0:0:0:0:
292,67,108051,2,0,B|326:48|355:56,1,65.6000010009766,10|0,0:0|0:1,0:0:0:0:
479,90,108359,5,10,0:1:0:0:
411,120,108513,1,10,0:1:0:0:
455,189,108667,1,10,0:0:0:0:
455,189,108820,1,8,0:1:0:0:
507,268,108974,6,0,B|540:310|510:367|459:354,1,131.200002001953,14|8,0:1|0:0,0:0:0:0:
379,379,109436,2,0,B|358:364|311:354,1,65.6000010009766,2|8,0:0|0:1,0:0:0:0:
232,360,109743,2,0,B|211:375|164:385,1,65.6000010009766,10|8,0:1|0:0,0:0:0:0:
79,338,110051,5,10,0:1:0:0:
79,338,110205,2,0,B|112:306|45:255|88:209,1,131.200002001953,2|8,0:0|0:0,0:0:0:0:
157,169,110667,2,0,B|168:239,1,65.6000010009766,2|8,0:0|0:1,0:0:0:0:
241,275,110974,2,0,B|251:210,1,65.6000010009766,10|8,0:1|0:0,0:0:0:0:
325,143,111282,5,10,0:1:0:0:
325,143,111436,2,0,B|365:178|419:166|439:129,1,131.200002001953,10|8,0:1|0:0,0:0:0:0:
423,34,111897,1,2,0:1:0:0:
423,34,112051,2,0,B|383:0|329:11|308:48,1,131.200002001953,10|8,0:1|0:0,0:0:0:0:
244,118,112513,5,10,0:1:0:0:
172,143,112667,2,0,B|138:140|114:115,1,65.6000010009766,10|0,0:1|1:0,0:0:0:0:
114,115,112897,1,0,1:0:0:0:
114,115,112974,1,0,1:0:0:0:
69,50,113128,5,0,1:0:0:0:
69,50,113205,1,0,1:0:0:0:
69,50,113282,1,0,1:0:0:0:
27,125,113436,5,0,1:0:0:0:
27,125,113513,1,0,1:0:0:0:
27,125,113590,1,0,1:0:0:0:
78,202,113743,5,0,1:0:0:0:
78,202,113820,1,0,1:0:0:0:
78,202,113897,2,0,B|112:262|41:281|79:344,1,143.999995605469,14|8,1:1|0:0,0:0:0:0:
259,384,114513,6,0,B|356:369,1,71.9999978027344,10|8,0:1|0:1,0:0:0:0:
443,300,114820,2,0,B|371:288,1,71.9999978027344,10|8,0:0|0:1,0:0:0:0:
290,221,115128,2,0,B|271:144|304:73,1,143.999995605469,2|8,0:0|0:0,0:0:0:0:
385,37,115590,2,0,B|462:50,2,71.9999978027344,2|8|8,0:0|0:1|0:1,0:0:0:0:
282,0,116051,1,10,0:0:0:0:
133,121,116359,6,0,B|58:149|0:93,2,143.999995605469,10|8|8,0:1|0:0|0:1,0:0:0:0:
222,92,117128,1,8,0:1:0:0:
302,139,117282,2,0,B|320:173|316:216,1,71.9999978027344,10|8,0:0|0:1,0:0:0:0:
232,277,117590,6,0,B|173:221|98:249,1,143.999995605469,2|10,0:0|0:0,0:0:0:0:
16,274,118051,1,10,0:1:0:0:
102,282,118205,1,10,0:3:0:0:
169,228,118359,1,6,0:3:0:0:
178,142,118513,1,10,0:0:0:0:
247,192,118667,1,8,0:1:0:0:
331,178,118820,2,0,B|362:153|376:122|372:72|336:37,1,160,14|8,0:1|0:0,0:0:0:0:
336,37,119436,5,10,0:1:0:0:
263,16,119590,1,8,0:1:0:0:
187,42,119743,1,8,0:0:0:0:
109,23,119897,1,8,0:1:0:0:
41,66,120051,2,0,B|10:91|-4:122|0:172|36:207,1,160,2|8,0:1|0:0,0:0:0:0:
208,155,120513,2,0,B|239:180|253:211|249:261|213:296,1,160,2|8,0:0|0:1,0:0:0:0:
96,371,120974,2,0,B|108:277,1,80,10|0,0:0|0:0,0:0:0:0:
208,155,121282,6,0,B|227:213|309:222|339:161,2,160,10|8|8,0:1|0:0|0:1,0:0:0:0:
177,72,122051,1,8,0:1:0:0:
99,30,122205,1,10,0:0:0:0:
19,67,122359,1,8,0:1:0:0:
0,166,122513,6,0,B|18:256,1,88.000002685547,14|8,0:0|0:1,0:0:0:0:
131,372,122820,5,8,0:1:0:0:
176,266,122974,2,0,B|200:182,1,88.000002685547,10|4,0:3|0:3,0:0:0:0:
315,56,123282,5,8,0:1:0:0:
366,158,123436,2,0,B|390:242,1,88.000002685547,14|8,0:0|0:1,0:0:0:0:
448,343,123743,6,0,L|520:334,1,60.0000022888184,14|0,0:1|0:0,0:0:0:0:
493,347,124051,2,0,L|434:354,1,60.0000022888184,0|0,0:0|0:0,0:0:0:0:
420,365,124359,2,0,L|479:358,1,60.0000022888184,0|0,0:0|0:0,0:0:0:0:
465,369,124667,2,0,L|406:376,1,60.0000022888184,0|0,0:0|0:0,0:0:0:0:
312,357,124974,6,0,B|318:322|310:298,1,60.0000022888184,0|0,0:0|0:0,0:0:0:0:
299,292,125282,2,0,B|308:317|302:352,1,60.0000022888184,0|0,0:0|0:0,0:0:0:0:
292,347,125590,2,0,B|298:312|289:287,1,60.0000022888184,0|0,0:0|0:0,0:0:0:0:
281,284,125897,1,0,0:0:0:0:
9,268,126205,6,0,B|-48:333|26:406|91:359,1,191.999994140625,14|10,0:1|0:0,0:0:0:0:
178,298,126667,1,2,0:0:0:0:
111,215,126820,2,0,B|36:130|112:35,1,191.999994140625,10|10,0:1|0:0,0:0:0:0:
246,4,127282,5,2,0:0:0:0:
246,4,127359,1,2,0:0:0:0:
246,4,127436,2,0,B|254:103,1,95.9999970703126,10|8,0:1|0:1,0:0:0:0:
354,173,127743,2,0,B|397:152|447:168,1,95.9999970703126,10|8,0:0|0:1,0:0:0:0:
492,286,128051,2,0,B|476:331|428:355,2,95.9999970703126,2|8|10,0:0|0:1|0:0,0:0:0:0:
456,67,128667,5,10,0:1:0:0:
384,145,128820,1,2,0:0:0:0:
306,72,128974,1,10,0:0:0:0:
244,156,129128,1,2,0:0:0:0:
157,92,129282,2,0,B|115:33|25:45|7:119,1,191.999994140625,10|10,0:1|0:0,0:0:0:0:
7,266,129743,6,0,B|25:339|115:351|157:291,1,191.999994140625,2|8,0:0|0:1,0:0:0:0:
232,217,130205,1,10,0:0:0:0:
181,124,130359,1,10,0:1:0:0:
181,124,130667,2,0,B|170:64|201:32,1,95.9999970703126,10|8,0:1|0:0,0:0:0:0:
332,32,130974,6,0,B|376:58|376:58|395:25|452:2|503:30,1,191.999994140625,14|8,0:1|0:1,0:0:0:0:
454,124,131436,1,10,0:0:0:0:
498,219,131590,1,2,0:1:0:0:
432,302,131743,2,0,B|387:274|339:280,2,95.9999970703126,8|8|8,0:1|0:1|0:0,0:0:0:0:
276,375,132205,6,0,B|209:354|191:265|246:219,1,191.999994140625,14|8,0:1|0:1,0:0:0:0:
307,134,132667,1,10,0:0:0:0:
401,180,132820,1,2,0:0:0:0:
485,116,132974,2,0,B|499:64|485:17,2,95.9999970703126,10|8|8,0:1|0:1|0:0,0:0:0:0:
399,267,133436,6,0,B|392:217|340:190|279:188|244:220,1,191.999994140625,14|8,0:1|0:1,0:0:0:0:
169,293,133897,2,0,B|131:330|71:316,1,95.9999970703126,10|0,0:0|0:0,0:0:0:0:
0,241,134205,1,10,0:1:0:0:
0,241,134359,1,8,0:1:0:0:
27,135,134513,1,10,0:0:0:0:
27,135,134667,1,8,0:1:0:0:
146,101,134820,6,0,B|172:58|158:-3,1,95.9999970703126,10|8,0:0|0:1,0:0:0:0:
244,219,135128,2,0,B|232:268|258:311,2,95.9999970703126,14|10|8,0:0|0:1|0:0,0:0:0:0:
384,169,135590,1,0,1:0:0:0:
406,179,135667,1,0,1:0:0:0:
430,181,135743,1,0,1:0:0:0:
453,175,135820,1,0,1:0:0:0:
473,162,135897,1,0,1:0:0:0:
487,143,135974,1,0,1:0:0:0:
495,120,136051,6,0,B|508:40|422:-4|359:49,1,191.999994140625,14|10,0:1|0:0,0:0:0:0:
301,123,136513,1,2,0:1:0:0:
228,30,136667,2,0,B|241:110|155:154|92:101,1,191.999994140625,2|8,0:1|0:0,0:0:0:0:
1,135,137128,5,2,0:0:0:0:
1,135,137205,1,2,0:0:0:0:
1,135,137282,2,0,B|-4:86|28:35,1,95.9999970703126,10|0,0:1|0:0,0:0:0:0:
174,181,137590,2,0,B|134:209|73:207,1,95.9999970703126,10|8,0:0|0:1,0:0:0:0:
128,8,137897,2,0,B|172:28|201:81,2,95.9999970703126,10|8|10,0:1|0:1|0:0,0:0:0:0:
64,238,138513,6,0,B|87:282|132:303,1,95.9999970703126,10|0,0:1|0:0,0:0:0:0:
229,380,138820,2,0,B|271:352|320:357,1,95.9999970703126,10|2,0:0|0:0,0:0:0:0:
445,384,139128,2,0,B|509:358|511:266|446:229,1,191.999994140625,10|10,0:1|0:0,0:0:0:0:
333,157,139590,6,0,B|257:238|137:195,1,191.999994140625,2|8,0:0|0:1,0:0:0:0:
58,163,140051,1,10,0:0:0:0:
88,61,140205,1,10,0:1:0:0:
88,61,140513,2,0,B|183:45,1,95.9999970703126,10|8,0:1|0:0,0:0:0:0:
313,0,140820,6,0,B|291:39|298:82|320:112|361:125|361:125|409:94,1,191.999994140625,14|8,0:1|0:1,0:0:0:0:
483,49,141282,1,10,0:0:0:0:
501,153,141436,1,8,0:1:0:0:
417,217,141590,2,0,B|399:263|388:312,2,95.9999970703126,10|8|8,0:1|0:1|0:0,0:0:0:0:
496,61,142051,6,0,B|398:107|412:6|317:37,1,191.999994140625,14|8,0:1|0:1,0:0:0:0:
225,89,142513,1,10,0:0:0:0:
263,187,142667,1,8,0:1:0:0:
218,286,142820,2,0,B|179:322|124:312,1,95.9999970703126,10|8,0:1|0:1,0:0:0:0:
33,242,143128,5,10,0:0:0:0:
33,242,143282,2,0,B|73:197|50:127|19:162|-1:102|34:57,1,191.999994140625,14|8,0:1|0:1,0:0:0:0:
156,8,143743,2,0,B|142:62|164:101,1,95.9999970703126,10|0,0:0|0:0,0:0:0:0:
289,157,144051,2,0,B|312:118|298:64,1,95.9999970703126,10|8,0:1|0:1,0:0:0:0:
177,204,144359,5,10,0:0:0:0:
177,204,144513,1,8,0:1:0:0:
267,283,144667,1,10,0:0:0:0:
267,283,144820,1,8,0:1:0:0:
174,352,144974,1,14,0:0:0:0:
174,352,145128,2,0,L|67:340,1,95.9999970703126,10|8,0:1|0:3,0:0:0:0:
21,243,145436,1,0,1:0:0:0:
20,229,145513,1,0,1:0:0:0:
18,215,145590,1,0,1:0:0:0:
16,201,145667,1,0,1:0:0:0:
14,187,145743,1,0,1:0:0:0:
12,173,145820,1,0,1:0:0:0:
11,159,145897,6,0,B|38:104|125:83|169:164,1,176.000005371094,14|10,0:1|0:0,0:0:0:0:
236,237,146359,1,2,1:0:0:0:
236,237,146436,1,0,1:0:0:0:
236,237,146513,2,0,B|222:285|243:324,1,88.000002685547,8|0,0:1|0:0,0:0:0:0:
349,384,146820,2,0,B|397:372|420:334,1,88.000002685547,10|0,0:0|0:0,0:0:0:0:
495,232,147128,6,0,B|452:170|530:133|474:58,1,176.000005371094,10|10,0:1|0:0,0:0:0:0:
370,24,147590,1,2,1:0:0:0:
370,24,147667,1,0,1:0:0:0:
370,24,147743,2,0,B|356:110,1,88.000002685547,8|8,0:1|0:1,0:0:0:0:
274,186,148051,2,0,B|253:100,1,88.000002685547,8|0,0:0|0:0,0:0:0:0:
161,26,148359,6,0,B|102:-7|25:23|27:94,1,176.000005371094,10|8,0:1|0:0,0:0:0:0:
52,207,148820,1,2,1:0:0:0:
52,207,148897,1,0,1:0:0:0:
52,207,148974,2,0,B|150:193,1,88.000002685547,8|8,0:1|0:1,0:0:0:0:
192,296,149282,2,0,B|290:309,1,88.000002685547,10|0,0:0|0:0,0:0:0:0:
383,235,149590,6,0,B|369:188|394:135,1,88.000002685547,14|0,0:1|1:0,0:0:0:0:
389,149,149820,1,0,1:0:0:0:
389,149,149897,1,0,1:0:0:0:
500,162,150051,1,0,1:0:0:0:
500,162,150128,1,0,1:0:0:0:
500,162,150205,1,0,1:0:0:0:
501,63,150359,1,0,1:0:0:0:
501,63,150436,1,0,1:0:0:0:
501,63,150513,1,0,1:0:0:0:
402,61,150667,1,0,1:0:0:0:
402,61,150743,1,0,1:0:0:0:
402,61,150820,1,14,1:1:0:0:
256,192,150897,12,0,153282,0:0:0:0:
145,315,160667,6,0,L|21:306,1,120.000004577637,14|0,0:1|0:0,0:0:0:0:
127,187,161282,2,0,B|118:151|122:107,1,60.0000022888184,8|0,0:0|0:0,0:0:0:0:
191,93,161590,2,0,B|201:57|226:21,1,60.0000022888184,8|0,0:0|0:0,0:0:0:0:
370,17,162051,1,0,1:0:0:0:
370,17,162128,1,0,1:0:0:0:
370,17,162205,2,0,B|373:48|394:82,1,60.0000022888184,8|0,0:1|0:0,0:0:0:0:
445,128,162513,2,0,B|484:182|468:244,1,120.000004577637,8|0,0:0|0:0,0:0:0:0:
378,371,163128,6,0,L|315:361,1,60.0000022888184,10|0,0:1|1:0,0:0:0:0:
318,361,163359,1,0,1:0:0:0:
318,361,163436,2,0,L|311:287,1,60.0000022888184,8|0,0:1|0:0,0:0:0:0:
268,236,163743,2,0,B|216:272|154:247,1,120.000004577637,10|0,0:0|0:0,0:0:0:0:
79,220,164205,1,0,1:0:0:0:
206,128,164513,1,0,1:0:0:0:
206,128,164667,2,0,B|246:106|249:49|205:21,2,120.000004577637,8|8|8,0:1|0:0|0:1,0:0:0:0:
60,249,165590,6,0,B|24:271|27:328|67:350,1,120.000004577637,14|0,0:1|0:0,0:0:0:0:
219,374,166205,2,0,B|229:302,1,60.0000022888184,8|0,0:0|0:0,0:0:0:0:
228,235,166513,2,0,B|218:163,1,60.0000022888184,8|0,0:0|0:0,0:0:0:0:
297,29,166974,1,0,1:0:0:0:
297,29,167051,1,0,1:0:0:0:
297,29,167128,2,0,B|315:18|365:19,1,60.0000022888184,10|0,0:1|0:0,0:0:0:0:
424,57,167436,2,0,B|403:115|450:180,1,120.000004577637,8|0,0:0|0:0,0:0:0:0:
498,287,168051,6,0,B|499:325|485:357,1,60.0000022888184,10|0,0:1|1:0,0:0:0:0:
489,346,168282,1,0,1:0:0:0:
489,346,168359,2,0,B|452:335|412:337,1,60.0000022888184,8|0,0:1|0:0,0:0:0:0:
355,361,168667,2,0,B|298:392|236:371,1,120.000004577637,10|0,0:0|0:0,0:0:0:0:
167,340,169128,1,0,1:0:0:0:
280,233,169436,1,0,1:0:0:0:
280,233,169590,1,8,0:1:0:0:
199,105,169897,1,8,3:2:0:0:
199,105,170051,2,0,L|182:236,1,120.000004577637,0|0,3:0|3:0,0:0:0:0:
106,312,170513,6,0,B|66:283|7:307|0:348,2,131.200002001953,14|0|8,0:1|0:0|0:0,0:0:0:0:
262,380,171436,1,10,0:0:0:0:
332,332,171590,2,0,B|361:277|341:203,1,131.200002001953,2|0,0:0|1:0,0:0:0:0:
296,132,172051,1,8,0:1:0:0:
192,268,172359,1,8,0:0:0:0:
192,268,172974,5,8,0:1:0:0:
124,215,173128,1,8,0:1:0:0:
124,215,173205,1,8,0:1:0:0:
124,215,173282,2,0,B|114:191|121:145,1,65.6000010009766,10|0,0:1|0:0,0:0:0:0:
179,87,173590,2,0,B|248:69|231:113|305:104,1,131.200002001953,10|0,0:0|0:0,0:0:0:0:
379,61,174051,1,2,1:2:0:0:
512,175,174359,1,0,1:0:0:0:
512,175,174513,2,0,L|503:244,1,65.6000010009766,10|8,0:1|0:1,0:0:0:0:
490,324,174820,2,0,B|433:287|363:306,1,131.200002001953,8|8,0:0|0:1,0:0:0:0:
188,358,175436,6,0,B|127:388|60:362,1,131.200002001953,14|0,0:1|0:0,0:0:0:0:
14,297,175897,1,0,0:0:0:0:
14,297,176051,2,0,B|17:229|74:184,1,131.200002001953,10|10,0:0|0:0,0:0:0:0:
154,156,176513,2,0,B|169:245,1,65.6000010009766,10|0,0:1|0:0,0:0:0:0:
256,305,176820,5,0,1:0:0:0:
256,305,176897,1,0,1:0:0:0:
256,305,176974,2,0,B|291:333|349:325|369:284,2,131.200002001953,10|8|0,0:1|0:0|2:0,0:0:0:0:
302,140,177897,6,0,B|303:104|317:64,1,65.6000010009766,8|0,0:1|1:0,0:0:0:0:
313,75,178128,1,0,1:0:0:0:
313,75,178205,2,0,B|378:57|452:56,1,131.200002001953,8|8,0:1|0:0,0:0:0:0:
505,215,178820,1,8,0:1:0:0:
505,215,178974,1,0,1:0:0:0:
402,352,179282,1,0,1:0:0:0:
402,352,179436,1,8,0:1:0:0:
232,335,179743,1,8,3:2:0:0:
232,335,179897,2,0,L|256:180,1,131.200002001953,0|0,3:2|3:2,0:0:0:0:
339,135,180359,6,0,B|416:162|495:119,2,143.999995605469,14|0|8,0:1|0:0|0:0,0:0:0:0:
173,46,181282,1,10,0:0:0:0:
83,74,181436,2,0,B|28:130|36:214,1,143.999995605469,2|0,0:0|1:0,0:0:0:0:
44,298,181897,1,8,0:1:0:0:
222,240,182205,1,8,0:0:0:0:
222,240,182820,5,8,0:1:0:0:
292,301,182974,1,8,0:1:0:0:
292,301,183051,1,8,0:1:0:0:
292,301,183128,2,0,B|274:343|302:381,1,71.9999978027344,2|0,0:0|0:0,0:0:0:0:
378,326,183436,2,0,B|420:250|370:170,1,143.999995605469,10|0,0:0|0:0,0:0:0:0:
343,101,183897,1,2,1:2:0:0:
164,157,184205,1,0,1:0:0:0:
164,157,184359,2,0,B|114:124|66:177|8:142,2,143.999995605469,10|8|8,0:1|0:0|0:1,0:0:0:0:
332,254,185282,6,0,B|299:298|323:360|371:369,1,143.999995605469,14|2,0:1|0:0,0:0:0:0:
463,361,185743,1,2,0:0:0:0:
480,268,185897,2,0,B|462:178,1,71.9999978027344,10|0,0:0|0:0,0:0:0:0:
512,88,186205,5,8,0:0:0:0:
512,88,186359,2,0,B|480:116|406:108|386:59,1,143.999995605469,8|0,0:1|1:0,0:0:0:0:
318,125,186820,2,0,B|286:96|212:104|192:153,2,143.999995605469,10|8|8,0:1|0:0|0:1,0:0:0:0:
384,300,187743,6,0,B|348:286|314:281,1,71.9999978027344,10|0,0:1|1:0,0:0:0:0:
314,281,187974,1,0,1:0:0:0:
313,282,188051,2,0,B|281:360|199:350,1,143.999995605469,8|8,0:1|0:0,0:0:0:0:
15,310,188667,1,10,0:1:0:0:
15,310,188820,1,0,1:0:0:0:
61,128,189128,1,0,1:0:0:0:
61,128,189282,2,0,L|79:45,1,71.9999978027344,8|0,0:1|1:0,0:0:0:0:
76,57,189513,5,0,1:0:0:0:
76,57,189590,1,10,0:0:0:0:
166,99,189743,1,8,0:0:0:0:
256,32,189897,1,8,0:0:0:0:
346,99,190051,1,8,0:0:0:0:
429,64,190205,1,4,1:2:0:0:
213,146,195128,6,0,B|168:139|130:140,1,80,8|0,0:1|0:0,0:0:0:0:
210,235,195436,2,0,B|203:280|204:318,1,80,8|0,0:1|0:0,0:0:0:0:
299,238,195743,2,0,B|344:245|382:244,1,80,8|0,0:1|0:0,0:0:0:0:
302,149,196051,2,0,B|309:104|308:66,1,80,8|0,0:1|0:0,0:0:0:0:
202,158,196359,6,0,B|157:163|120:174,1,80,8|0,0:1|0:0,0:0:0:0:
222,245,196667,2,0,B|227:290|238:327,1,80,8|0,0:1|0:0,0:0:0:0:
309,225,196974,2,0,B|354:220|391:209,1,80,8|0,0:1|0:0,0:0:0:0:
289,138,197282,2,0,B|284:93|273:56,1,80,8|0,0:1|0:0,0:0:0:0:
195,173,197590,6,0,B|153:190|120:209,1,80,8|0,0:1|0:0,0:0:0:0:
237,252,197897,2,0,B|254:294|273:327,1,80,8|0,0:1|0:0,0:0:0:0:
316,210,198205,2,0,B|358:193|391:174,1,80,8|0,2:1|2:0,0:0:0:0:
274,131,198513,1,0,1:0:0:0:
266,113,198590,1,0,1:0:0:0:
258,95,198667,1,0,1:0:0:0:
249,77,198743,1,0,1:0:0:0:
239,59,198820,2,0,L|225:23,3,20,0|0|0|0,1:0|1:0|1:0|1:0,0:0:0:0:
167,79,199128,2,0,L|153:43,3,20,0|0|0|0,1:0|1:0|1:0|1:0,0:0:0:0:
95,99,199436,2,0,L|81:63,3,20,0|0|0|0,1:0|1:0|1:0|1:0,0:0:0:0:
23,119,199743,2,0,L|9:83,3,20,0|0|0|0,1:0|1:0|1:0|1:0,0:0:0:0:
0,291,200359,5,10,0:1:0:0:
0,291,200513,2,0,B|37:326|106:307|116:245,1,143.999995605469,10|0,0:1|0:0,0:0:0:0:
170,200,200820,2,0,B|100:170|121:60|201:66,1,191.999994140625,10|0,0:1|0:0,0:0:0:0:
306,113,201282,5,14,0:1:0:0:
395,56,201436,1,2,0:0:0:0:
452,145,201590,1,10,0:0:0:0:
363,202,201743,1,2,0:0:0:0:
306,113,201897,2,0,B|311:40|219:6|163:49,1,191.999994140625,10|10,0:1|0:0,0:0:0:0:
47,135,202359,5,2,0:0:0:0:
47,135,202436,1,2,0:0:0:0:
47,135,202513,2,0,B|55:235,1,95.9999970703126,10|0,0:1|0:0,0:0:0:0:
146,315,202820,2,0,B|154:215,1,95.9999970703126,10|8,0:0|0:1,0:0:0:0:
262,156,203128,2,0,B|269:251,2,95.9999970703126,10|8|10,0:1|0:1|0:0,0:0:0:0:
436,14,203743,5,10,0:1:0:0:
371,97,203897,1,2,0:0:0:0:
399,198,204051,1,10,0:0:0:0:
436,296,204205,1,2,0:0:0:0:
367,376,204359,2,0,B|284:338|178:360,1,191.999994140625,10|10,0:1|0:0,0:0:0:0:
16,384,204820,6,0,B|-22:296|15:194,1,191.999994140625,2|8,0:0|0:1,0:0:0:0:
71,107,205282,1,10,0:0:0:0:
151,175,205436,1,10,0:1:0:0:
151,175,205743,2,0,B|195:204|249:195,1,95.9999970703126,10|8,0:1|0:0,0:0:0:0:
356,123,206051,6,0,B|336:94|332:60|353:18|396:6|396:6|442:46,1,191.999994140625,14|8,0:1|0:1,0:0:0:0:
499,117,206513,1,10,0:0:0:0:
442,206,206667,1,2,0:0:0:0:
508,287,206820,2,0,B|525:339|508:381,2,95.9999970703126,10|8|8,0:1|0:1|0:0,0:0:0:0:
410,131,207282,6,0,B|424:181|390:231|331:243|284:188,1,191.999994140625,14|8,0:1|0:1,0:0:0:0:
223,110,207743,1,10,0:0:0:0:
119,89,207897,1,2,0:0:0:0:
33,150,208051,2,0,B|7:189|20:259,2,95.9999970703126,10|8|8,0:1|0:1|0:0,0:0:0:0:
155,22,208513,6,0,B|133:49|127:83|146:126|188:140|188:140|235:100,1,191.999994140625,14|8,0:1|0:1,0:0:0:0:
348,29,208974,2,0,B|248:23,1,95.9999970703126,10|0,0:0|0:0,0:0:0:0:
370,128,209282,1,10,0:1:0:0:
370,128,209436,1,8,0:1:0:0:
452,61,209590,1,10,0:0:0:0:
452,61,209743,1,8,0:1:0:0:
512,174,209897,6,0,B|523:223|509:279,1,95.9999970703126,10|8,0:2|0:1,0:0:0:0:
312,384,210205,1,14,0:0:0:0:
312,384,210359,2,0,B|301:335|315:279,1,95.9999970703126,10|8,0:1|0:3,0:0:0:0:
401,223,210667,1,0,1:0:0:0:
423,233,210743,1,0,1:0:0:0:
447,235,210820,1,0,1:0:0:0:
470,229,210897,1,0,1:0:0:0:
490,216,210974,1,0,1:0:0:0:
504,197,211051,1,0,1:0:0:0:
512,172,211128,6,0,B|520:120|491:63,1,111.999996582031,14|2,2:1|0:0,0:0:0:0:
370,0,211436,2,0,B|343:54|349:108,1,111.999996582031,10|8,0:0|0:1,0:0:0:0:
378,239,211743,2,0,B|386:291|357:348,1,111.999996582031,10|8,0:0|0:1,0:0:0:0:
357,347,211974,1,8,0:1:0:0:
357,347,212051,1,8,0:0:0:0:
225,380,212205,6,0,B|177:355|112:364,1,111.999996582031,10|8,0:1|0:0,0:0:0:0:
269,255,212513,1,10,0:1:0:0:
269,255,212667,2,0,B|330:263|378:238,1,111.999996582031,10|8,0:0|0:1,0:0:0:0:
244,132,212974,2,0,B|205:83|149:82,1,111.999996582031,10|8,0:0|0:1,0:0:0:0:
148,82,213205,1,8,0:1:0:0:
148,82,213282,2,0,B|85:89|45:50,1,111.999996582031,10|8,0:0|0:1,0:0:0:0:
246,0,213590,5,14,0:0:0:0:
323,79,213743,1,10,0:1:0:0:
297,188,213897,1,10,0:0:0:0:
383,259,214051,1,10,0:1:0:0:
483,208,214205,2,0,B|516:161|489:90,1,111.999996582031,10|8,0:0|0:1,0:0:0:0:
492,100,214436,1,8,0:1:0:0:
492,100,214513,1,10,0:0:0:0:
389,33,214667,6,0,L|266:20,1,111.999996582031,10|8,0:1|0:3,0:0:0:0:
196,97,214974,1,0,1:0:0:0:
196,97,215051,1,0,1:0:0:0:
196,97,215128,1,0,1:0:0:0:
105,30,215282,1,10,0:1:0:0:
105,30,215590,2,0,L|51:137,1,95.9999970703126,10|8,0:1|0:0,0:0:0:0:
0,257,215897,6,0,B|89:186|209:253,1,207.999990478516,14|8,0:1|0:1,0:0:0:0:
281,321,216359,1,10,0:0:0:0:
394,339,216513,1,10,0:1:0:0:
484,268,216667,2,0,B|504:223|498:154,2,103.999995239258,10|8|8,0:1|0:1|0:0,0:0:0:0:
364,361,217128,6,0,B|298:306|235:415|167:363,1,207.999990478516,14|8,0:1|0:1,0:0:0:0:
70,302,217590,1,10,0:0:0:0:
145,216,217743,1,10,0:1:0:0:
57,144,217897,2,0,B|37:91|58:28,1,103.999995239258,10|8,0:1|0:1,0:0:0:0:
205,82,218205,5,10,0:0:0:0:
205,82,218359,2,0,B|252:107|323:71|270:44|342:6|403:25,1,207.999990478516,14|8,0:1|0:1,0:0:0:0:
497,74,218820,2,0,B|517:127|496:190,1,103.999995239258,10|0,0:0|0:0,0:0:0:0:
412,250,219128,2,0,B|367:222|301:219,1,103.999995239258,10|8,0:1|0:1,0:0:0:0:
192,238,219436,5,10,0:0:0:0:
192,238,219590,1,8,0:1:0:0:
144,355,219743,1,10,0:0:0:0:
144,355,219897,1,8,0:1:0:0:
31,301,220051,1,14,0:0:0:0:
31,301,220205,2,0,B|14:250|26:198,1,103.999995239258,10|8,0:1|0:3,0:0:0:0:
99,114,220513,1,0,1:0:0:0:
116,111,220590,1,0,1:0:0:0:
133,109,220667,1,0,1:0:0:0:
150,107,220743,1,0,1:0:0:0:
167,105,220820,1,0,1:0:0:0:
185,103,220897,1,0,1:0:0:0:
202,101,220974,6,0,B|208:175|287:197|342:146,1,184.000003509522,14|10,0:1|0:0,0:0:0:0:
426,97,221436,1,2,1:0:0:0:
426,97,221513,1,0,1:0:0:0:
426,97,221590,2,0,B|413:51|440:3,1,92.0000017547608,8|0,0:1|0:0,0:0:0:0:
512,141,221897,2,0,B|525:187|498:235,1,92.0000017547608,10|0,0:0|0:0,0:0:0:0:
421,323,222205,6,0,B|328:277|224:309,1,184.000003509522,10|10,0:1|0:0,0:0:0:0:
142,353,222667,1,2,1:0:0:0:
142,353,222743,1,0,1:0:0:0:
142,353,222820,2,0,B|99:368|44:368,1,92.0000017547608,8|8,0:1|0:1,0:0:0:0:
80,260,223128,2,0,B|38:240|0:201,1,92.0000017547608,8|0,0:0|0:0,0:0:0:0:
117,110,223436,6,0,B|170:23|280:45,1,184.000003509522,10|8,0:1|0:0,0:0:0:0:
352,130,223897,1,2,1:0:0:0:
352,130,223974,1,0,1:0:0:0:
352,130,224051,2,0,B|342:176|368:219,1,92.0000017547608,8|8,0:1|0:1,0:0:0:0:
482,272,224359,2,0,B|501:234|500:182,1,92.0000017547608,10|0,0:0|0:0,0:0:0:0:
433,66,224667,6,0,B|385:56|348:27,1,92.0000017547608,14|0,0:1|1:0,0:0:0:0:
349,28,224897,1,0,1:0:0:0:
349,28,224974,1,0,1:0:0:0:
278,83,225128,1,0,1:0:0:0:
278,83,225205,1,0,1:0:0:0:
278,83,225282,1,0,1:0:0:0:
206,27,225436,1,0,1:0:0:0:
206,27,225513,1,0,1:0:0:0:
206,27,225590,1,0,1:0:0:0:
132,79,225743,1,0,1:0:0:0:
132,79,225820,1,0,1:0:0:0:
132,79,225897,1,14,1:1:0:0:
254,205,226205,6,0,B|294:192|351:201,1,88.000002685547,10|0,0:0|0:0,0:0:0:0:
421,281,226513,2,0,B|468:288|508:275,2,88.000002685547,10|10|8,0:1|0:1|0:0,0:0:0:0:
331,183,226974,6,0,B|386:151|392:73|325:29,1,176.000005371094,10|8,0:1|0:1,0:0:0:0:
221,0,227436,1,10,0:0:0:0:
189,119,227590,2,0,B|279:107,1,88.000002685547,2|8,0:0|0:1,0:0:0:0:
132,47,227897,2,0,B|90:36|41:33,2,88.000002685547,10|8|0,0:1|0:0|0:0,0:0:0:0:
286,124,228359,6,0,B|388:132|470:79,2,176.000005371094,10|8|8,0:1|0:0|0:1,0:0:0:0:
179,166,229128,2,0,B|134:147|74:145,1,88.000002685547,10|8,0:1|0:0,0:0:0:0:
117,258,229436,2,0,B|98:303|96:363,1,88.000002685547,10|0,0:1|0:0,0:0:0:0:
224,331,229743,5,10,0:1:0:0:
224,331,229897,1,8,0:0:0:0:
325,384,230051,2,0,B|362:305|315:203,1,176.000005371094,2|8,0:0|0:1,0:0:0:0:
231,146,230513,2,0,B|220:240,1,88.000002685547,10|0,0:0|0:0,0:0:0:0:
94,271,230820,6,0,B|57:192|111:91,1,176.000005371094,14|8,0:1|0:0,0:0:0:0:
197,32,231282,1,0,0:0:0:0:
309,54,231436,2,0,B|346:66|403:58,2,88.000002685547,10|2|8,0:1|0:0|0:0,0:0:0:0:
206,143,231897,6,0,B|155:198|213:271|277:245,1,176.000005371094,2|8,0:0|0:1,0:0:0:0:
371,185,232359,1,10,0:0:0:0:
482,245,232513,2,0,B|494:286|478:333,1,88.000002685547,2|8,0:0|0:1,0:0:0:0:
376,379,232820,1,10,0:1:0:0:
376,379,232974,2,0,B|334:355|280:362,1,88.000002685547,8|0,0:0|0:0,0:0:0:0:
161,370,233282,6,0,B|53:397|20:300,2,176.000005371094,10|8|8,0:1|0:0|0:1,0:0:0:0:
235,282,234051,2,0,B|224:242|243:168,1,88.000002685547,10|8,0:1|0:0,0:0:0:0:
359,268,234359,2,0,B|370:228|351:154,1,88.000002685547,10|0,0:1|0:0,0:0:0:0:
320,77,234667,1,2,0:0:0:0:
242,176,234820,1,14,0:0:0:0:
170,105,234974,2,0,B|124:81|77:86,1,88.000002685547,10|8,0:1|0:3,0:0:0:0:
0,149,235282,5,0,1:0:0:0:
0,149,235359,1,0,1:0:0:0:
0,149,235436,1,0,1:0:0:0:
65,237,235590,5,0,1:0:0:0:
65,237,235667,1,0,1:0:0:0:
65,237,235743,2,0,B|104:242|158:220,1,88.000002685547,14|0,1:1|0:0,0:0:0:0:
242,153,236051,2,0,B|238:108|256:57,1,88.000002685547,10|8,0:0|0:1,0:0:0:0:
354,121,236359,1,10,0:3:0:0:
423,38,236513,1,2,1:0:0:0:
423,38,236590,1,0,1:0:0:0:
423,38,236667,1,8,0:0:0:0:
502,136,236820,6,0,B|516:177|512:222,1,88.000002685547,10|8,0:1|0:0,0:0:0:0:
440,312,237128,2,0,B|399:295|354:290,1,88.000002685547,10|8,0:1|0:1,0:0:0:0:
230,339,237436,1,10,0:0:0:0:
197,204,237590,1,12,0:0:0:0:
241,112,237743,1,8,0:3:0:0:
164,39,237897,6,0,B|123:22|76:28,1,88.000002685547,6|0,0:3|1:0,0:0:0:0:
77,27,238128,1,0,1:0:0:0:
77,27,238205,1,8,1:2:0:0:
0,97,238359,1,8,2:3:0:0:
0,97,238436,1,8,2:3:0:0:
0,97,238513,1,8,2:3:0:0:
56,183,238667,5,4,0:3:0:0:
56,183,238743,1,4,0:3:0:0:
56,183,238820,2,0,B|99:192|148:173,1,88.000002685547,14|0,0:1|0:0,0:0:0:0:
241,112,239128,2,0,B|278:84|322:81,1,88.000002685547,10|8,0:0|0:1,0:0:0:0:
425,107,239436,1,10,0:3:0:0:
383,208,239590,1,0,1:0:0:0:
383,208,239667,1,0,1:0:0:0:
383,208,239743,1,8,2:2:0:0:
461,278,239897,6,0,B|483:319|471:366,2,88.000002685547,10|8|8,0:1|0:0|0:1,0:0:0:0:
383,208,240359,1,10,0:1:0:0:
295,267,240513,1,10,0:0:0:0:
216,196,240667,2,0,B|194:155|206:108,1,88.000002685547,14|10,0:2|0:3,0:0:0:0:
293,14,240974,5,6,0:3:0:0:
371,87,241128,1,0,1:0:0:0:
371,87,241205,1,0,1:0:0:0:
371,87,241282,1,0,1:0:0:0:
458,37,241436,1,0,1:0:0:0:
458,37,241513,1,0,1:0:0:0:
458,37,241590,1,0,1:0:0:0:
458,37,241667,1,0,1:0:0:0:
458,37,241743,1,0,1:0:0:0:
458,37,241820,1,0,1:0:0:0:
