osu file format v14

[General]
AudioFilename: audio.mp3
AudioLeadIn: 0
PreviewTime: 49820
Countdown: 0
SampleSet: Soft
StackLeniency: 0.7
Mode: 0
LetterboxInBreaks: 0
WidescreenStoryboard: 1

[Editor]
DistanceSpacing: 0.2
BeatDivisor: 4
GridSize: 32
TimelineZoom: 2.4

[Metadata]
Title:affection
TitleUnicode:affection
Artist:solfa feat. KOTOKO
ArtistUnicode:solfa feat. KOTOKO
Creator:Lasse
Version:Expert
Source:リーシャル・マージ
Tags:ImpurePug AXL Racial Merge visual novel eroge opening full version japanese rock pop chronicle marine stage 橋咲透 Tooru Hashizaki
BeatmapID:2429113
BeatmapSetID:1160766

[Difficulty]
HPDrainRate:6
CircleSize:4
OverallDifficulty:8.6
ApproachRate:9
SliderMultiplier:1.7
SliderTickRate:1

[Events]
//Background and Video events
0,0,"e.jpg",0,0
//Break Periods
2,153482,160067
2,190405,194528
//Storyboard Layer 0 (Background)
//Storyboard Layer 1 (Fail)
//Storyboard Layer 2 (Pass)
//Storyboard Layer 3 (Foreground)
//Storyboard Layer 4 (Overlay)
//Storyboard Sound Samples

[TimingPoints]
667,307.692307692308,4,2,34,40,1,0
667,-200,4,2,34,40,0,0
5282,-200,4,2,34,42,0,0
5590,-200,4,2,34,44,0,0
5897,-200,4,2,34,46,0,0
6205,-200,4,2,34,48,0,0
6513,-200,4,2,34,50,0,0
6820,-200,4,2,34,52,0,0
7128,-200,4,2,34,54,0,0
7436,-200,4,2,34,56,0,0
7743,-200,4,2,34,58,0,0
7897,-200,4,2,34,5,0,0
8051,-100,4,2,34,70,0,0
17897,-133.333333333333,4,2,34,65,0,0
18205,-133.333333333333,4,2,34,60,0,0
27743,-121.951219512195,4,2,34,62,0,0
37590,-111.111111111111,4,2,34,64,0,0
42513,-99.9999999999999,4,2,34,66,0,0
45897,-99.9999999999999,4,2,34,68,0,0
46205,-99.9999999999999,4,2,34,70,0,0
46667,-99.9999999999999,4,2,34,72,0,0
47128,-99.9999999999999,4,2,34,74,0,0
47436,-133.333333333333,4,2,34,50,0,0
48051,-133.333333333333,4,2,34,52,0,0
48667,-133.333333333333,4,2,34,54,0,0
49282,-133.333333333333,4,2,34,56,0,0
49897,-83.3333333333333,4,2,34,78,0,1
69590,-90.9090909090909,4,2,34,70,0,1
73282,-90.9090909090909,4,2,34,72,0,1
74513,-100,4,2,34,72,0,0
84359,-86.9565217391304,4,2,34,75,0,0
94205,-133.333333333333,4,2,34,60,0,0
104051,-121.951219512195,4,2,34,62,0,0
113897,-111.111111111111,4,2,34,64,0,0
118820,-100,4,2,34,66,0,0
122205,-100,4,2,34,68,0,0
122513,-100,4,2,34,70,0,0
122974,-100,4,2,34,72,0,0
123436,-100,4,2,34,74,0,0
123743,-133.333333333333,4,2,34,50,0,0
124359,-133.333333333333,4,2,34,52,0,0
124974,-133.333333333333,4,2,34,54,0,0
125590,-133.333333333333,4,2,34,56,0,0
126205,-83.3333333333333,4,2,34,78,0,1
126436,-83.3333333333333,4,2,34,40,0,1
126513,-83.3333333333333,4,2,34,78,0,1
138743,-83.3333333333333,4,2,34,40,0,1
138820,-83.3333333333333,4,2,34,78,0,1
145897,-90.9090909090909,4,2,34,70,0,1
150820,-90.9090909090909,4,2,34,70,0,0
150897,-90.9090909090909,4,2,34,40,0,0
151436,-90.9090909090909,4,2,34,35,0,0
152051,-90.9090909090909,4,2,34,30,0,0
152667,-90.9090909090909,4,2,34,25,0,0
152974,-90.9090909090909,4,2,34,20,0,0
153282,-90.9090909090909,4,2,99,32,0,0
160667,-133.333333333333,4,2,34,48,0,0
169897,-133.333333333333,4,2,34,50,0,0
170513,-121.951219512195,4,2,34,52,0,0
180359,-111.111111111111,4,2,34,54,0,0
185282,-111.111111111111,4,2,34,56,0,0
189590,-111.111111111111,4,2,34,58,0,0
189743,-111.111111111111,4,2,34,60,0,0
189897,-111.111111111111,4,2,34,62,0,0
190051,-111.111111111111,4,2,34,64,0,0
190205,-100,4,2,99,50,0,0
195128,-100,4,2,34,50,0,0
196359,-100,4,2,34,55,0,0
197590,-100,4,2,34,60,0,0
198513,-200,4,2,34,50,0,0
198590,-200,4,2,34,51,0,0
198667,-200,4,2,34,52,0,0
198743,-200,4,2,34,53,0,0
198820,-200,4,2,34,54,0,0
198897,-200,4,2,34,55,0,0
198974,-200,4,2,34,56,0,0
199051,-200,4,2,34,57,0,0
199128,-200,4,2,34,58,0,0
199205,-200,4,2,34,59,0,0
199282,-200,4,2,34,60,0,0
199359,-200,4,2,34,61,0,0
199436,-200,4,2,34,62,0,0
199513,-200,4,2,34,63,0,0
199590,-200,4,2,34,64,0,0
199667,-200,4,2,34,65,0,0
199743,-200,4,2,34,66,0,0
199820,-200,4,2,34,67,0,0
199897,-200,4,2,34,68,0,0
199974,-200,4,2,34,69,0,0
200359,-83.3333333333333,4,2,34,70,0,0
200513,-83.3333333333333,4,2,34,72,0,0
200743,-83.3333333333333,4,2,34,40,0,0
200820,-83.3333333333333,4,2,34,74,0,0
201128,-83.3333333333333,4,2,34,50,0,0
201282,-83.3333333333333,4,2,34,78,0,1
211128,-71.4285714285714,4,2,34,80,0,1
215590,-83.3333333333333,4,2,34,78,0,1
215897,-76.9230769230769,4,2,34,78,0,1
220974,-86.9565217391304,4,2,34,70,0,1
225897,-90.9090909090909,4,2,34,74,0,0
235743,-83.3333333333333,4,2,34,76,0,0
241436,-200,4,2,34,76,0,0

[Colours]
Combo1 : 250,180,240
Combo2 : 120,200,230
Combo3 : 255,230,130
Combo4 : 160,230,150

[HitObjects]
130,314,667,6,0,B|75:339|1:333,2,127.5,2|2|0,0:0|0:0|0:0,0:0:0:0:
189,210,1897,2,0,B|176:172|173:114,1,85,2|0,0:0|0:0,0:0:0:0:
253,123,2359,2,0,B|266:85|268:39,1,85,2|0,0:0|0:0,0:0:0:0:
268,40,3128,6,0,B|230:16|182:62|144:37,2,127.5,2|2|0,0:0|0:0|0:0,0:0:0:0:
355,118,4359,2,0,B|359:161|388:203,1,85,2|0,0:0|0:0,0:0:0:0:
444,143,4820,2,0,B|469:106|471:64,1,85,2|0,0:0|0:0,0:0:0:0:
407,12,5282,5,2,0:0:0:0:
256,192,5359,12,14,8051,0:1:0:0:
187,70,8359,6,0,B|146:56|92:56,1,85,10|0,0:0|0:0,0:0:0:0:
203,174,8667,1,10,0:1:0:0:
95,171,8820,2,0,B|53:181|17:205,1,85,10|8,0:1|0:0,0:0:0:0:
196,297,9128,6,0,B|241:379|338:367,1,170,10|8,0:1|0:1,0:0:0:0:
373,296,9590,1,10,0:0:0:0:
494,216,9743,2,0,B|503:265|489:300,1,85,2|8,0:0|0:1,0:0:0:0:
386,190,10051,1,10,0:1:0:0:
386,190,10128,1,8,0:1:0:0:
386,190,10205,2,0,B|389:141|412:110,1,85,8|0,0:0|0:0,0:0:0:0:
277,3,10513,6,0,B|304:59|238:127|181:91,2,170,10|8|8,0:1|0:0|0:1,0:0:0:0:
119,40,11282,2,0,B|90:76|104:120,1,85,10|8,0:1|0:0,0:0:0:0:
209,211,11590,2,0,B|247:193|292:195,1,85,10|0,0:1|0:0,0:0:0:0:
389,295,11897,5,10,0:1:0:0:
314,325,12051,1,8,0:0:0:0:
444,360,12205,2,0,B|412:294|439:187,1,170,2|8,0:0|0:1,0:0:0:0:
498,42,12667,2,0,L|504:154,1,85,10|0,0:0|0:0,0:0:0:0:
386,18,12974,6,0,B|299:62|223:9,1,170,14|8,0:1|0:0,0:0:0:0:
155,48,13436,1,0,0:0:0:0:
230,157,13590,1,10,0:1:0:0:
147,216,13743,2,0,B|118:175|138:125,1,85,10|8,0:1|0:0,0:0:0:0:
318,208,14051,6,0,B|375:250|362:321|314:355,1,170,2|8,0:0|0:1,0:0:0:0:
244,384,14513,1,10,0:0:0:0:
120,314,14667,2,0,B|207:305,1,85,2|8,0:0|0:1,0:0:0:0:
325,215,14974,1,10,0:1:0:0:
325,215,15051,1,8,0:1:0:0:
325,215,15128,2,0,B|335:176|320:126,1,85,8|0,0:0|0:0,0:0:0:0:
177,55,15436,6,0,B|87:71|-2:42,2,170,10|8|8,0:1|0:0|0:1,0:0:0:0:
333,21,16205,2,0,B|380:8|434:3,1,85,10|8,0:1|0:0,0:0:0:0:
461,129,16513,2,0,B|485:167|497:205,1,85,10|0,0:1|0:0,0:0:0:0:
497,339,16820,5,10,0:1:0:0:
373,266,16974,1,12,0:0:0:0:
283,365,17128,2,0,B|295:272,1,85,10|8,0:1|0:3,0:0:0:0:
328,107,17436,5,0,1:0:0:0:
328,107,17513,1,0,1:0:0:0:
328,107,17590,1,0,1:0:0:0:
204,19,17743,5,0,1:0:0:0:
204,19,17820,1,0,1:0:0:0:
204,19,17897,1,14,1:1:0:0:
10,137,18205,6,0,B|37:125|90:121,1,63.7500024318696,10|0,0:0|0:0,0:0:0:0:
0,229,18513,2,0,B|51:206|138:195,1,127.500004863739,10|8,0:1|0:0,0:0:0:0:
247,270,18974,1,10,0:1:0:0:
303,209,19128,2,0,B|307:173|290:134,1,63.7500024318696,2|8,0:0|0:1,0:0:0:0:
247,270,19436,1,10,0:0:0:0:
325,295,19590,2,0,B|358:280|383:246,1,63.7500024318696,2|8,0:0|0:1,0:0:0:0:
260,354,19897,2,0,B|287:377|328:386,1,63.7500024318696,10|8,0:1|0:0,0:0:0:0:
247,270,20205,5,2,0:0:0:0:
303,209,20359,2,0,B|317:154|297:83,1,127.500004863739,10|8,0:1|0:0,0:0:0:0:
172,135,20820,2,0,B|158:80|178:9,1,127.500004863739,2|8,0:0|0:1,0:0:0:0:
312,2,21282,5,8,0:0:0:0:
297,83,21436,1,8,0:1:0:0:
462,84,21743,1,8,0:1:0:0:
401,141,21897,1,8,0:0:0:0:
509,266,22205,1,10,0:1:0:0:
428,246,22359,1,10,0:1:0:0:
367,302,22513,1,10,0:0:0:0:
367,302,22667,1,8,0:1:0:0:
264,238,22820,6,0,B|214:277|141:264,1,127.500004863739,14|8,0:1|0:0,0:0:0:0:
59,303,23282,2,0,B|48:269|56:240,1,63.7500024318696,2|8,0:0|0:1,0:0:0:0:
187,181,23590,2,0,B|198:147|189:118,1,63.7500024318696,10|10,0:1|0:2,0:0:0:0:
108,7,23897,1,10,0:1:0:0:
59,84,24051,2,0,B|40:107|-9:106|-28:53|0:29,1,127.500004863739,10|8,0:1|0:0,0:0:0:0:
153,90,24513,2,0,B|148:125|126:146,1,63.7500024318696,2|8,0:0|0:1,0:0:0:0:
16,190,24820,2,0,B|21:222|36:250,1,63.7500024318696,10|8,0:1|0:0,0:0:0:0:
137,337,25128,5,2,0:0:0:0:
137,337,25282,2,0,B|203:314|268:334,1,127.500004863739,10|8,0:1|0:0,0:0:0:0:
361,381,25743,1,2,0:0:0:0:
424,327,25897,2,0,L|417:262,1,63.7500024318696,10|8,0:1|0:1,0:0:0:0:
295,260,26205,2,0,L|302:195,1,63.7500024318696,10|8,0:0|0:1,0:0:0:0:
410,105,26513,6,0,B|404:155|467:179|499:146,1,127.500004863739,2|8,0:0|0:0,0:0:0:0:
452,27,26974,2,0,L|380:14,1,63.7500024318696,2|8,0:0|0:1,0:0:0:0:
256,96,27282,5,8,0:0:0:0:
190,26,27436,1,8,0:0:0:0:
154,114,27590,1,8,0:3:0:0:
256,96,27743,1,14,0:1:0:0:
45,28,28051,5,10,0:0:0:0:
45,28,28205,1,0,0:0:0:0:
1,107,28359,2,0,B|-13:183|15:258,1,139.400002127075,10|8,0:1|0:0,0:0:0:0:
104,340,28820,1,10,0:1:0:0:
175,287,28974,2,0,B|182:207,1,69.7000010635376,2|8,0:0|0:1,0:0:0:0:
348,259,29282,1,10,0:0:0:0:
277,206,29436,2,0,B|270:126,1,69.7000010635376,2|8,0:0|0:1,0:0:0:0:
153,125,29743,2,0,B|160:45,1,69.7000010635376,10|8,0:1|0:0,0:0:0:0:
289,6,30051,5,2,0:0:0:0:
364,69,30205,2,0,B|409:103|464:62|453:11,1,139.400002127075,10|8,0:1|0:0,0:0:0:0:
296,14,30667,1,2,0:0:0:0:
296,14,30743,1,2,0:0:0:0:
296,14,30820,2,0,B|274:45|281:90,1,69.7000010635376,10|0,0:1|0:0,0:0:0:0:
334,153,31128,2,0,B|369:147|400:169,1,69.7000010635376,10|8,0:0|0:1,0:0:0:0:
211,140,31436,2,0,B|175:145|144:123,1,69.7000010635376,2|8,0:0|0:1,0:0:0:0:
267,213,31743,2,0,B|272:248|250:279,1,69.7000010635376,10|0,0:0|0:0,0:0:0:0:
167,358,32051,5,10,0:1:0:0:
98,301,32205,1,10,0:1:0:0:
22,351,32359,1,10,0:0:0:0:
22,351,32513,1,8,0:1:0:0:
3,245,32667,6,0,B|0:176|28:102,1,139.400002127075,14|8,0:1|0:0,0:0:0:0:
87,233,33128,2,0,B|86:199|98:158,1,69.7000010635376,2|8,0:0|0:1,0:0:0:0:
239,282,33436,2,0,B|248:213,1,69.7000010635376,10|8,0:1|0:0,0:0:0:0:
379,145,33743,5,10,0:1:0:0:
451,195,33897,2,0,B|504:227|549:167|499:120,1,139.400002127075,10|8,0:1|0:0,0:0:0:0:
428,26,34359,2,0,B|332:13,1,69.7000010635376,2|8,0:0|0:1,0:0:0:0:
379,145,34667,2,0,B|283:158,1,69.7000010635376,10|8,0:1|0:0,0:0:0:0:
152,146,34974,5,2,0:0:0:0:
152,146,35128,2,0,B|182:80|155:10,1,139.400002127075,10|8,0:1|0:0,0:0:0:0:
19,141,35590,5,2,0:0:0:0:
19,141,35743,2,0,B|-11:207|15:276,1,139.400002127075,10|8,0:1|0:0,0:0:0:0:
108,365,36205,5,10,0:1:0:0:
177,326,36359,2,0,B|209:311|256:313,1,69.7000010635376,10|0,0:1|1:0,0:0:0:0:
244,312,36590,1,0,1:0:0:0:
244,312,36667,1,0,1:0:0:0:
361,384,36820,5,0,1:0:0:0:
361,384,36897,1,0,1:0:0:0:
361,384,36974,1,0,1:3:0:0:
418,304,37128,5,0,1:0:0:0:
418,304,37205,1,0,1:0:0:0:
418,304,37282,1,0,1:0:0:0:
504,345,37436,5,0,1:0:0:0:
504,345,37513,1,0,1:0:0:0:
504,345,37590,2,0,B|532:267|500:193,1,152.999995330811,14|8,1:1|0:0,0:0:0:0:
501,195,38205,6,0,L|414:187,1,76.4999976654053,10|8,0:1|0:1,0:0:0:0:
418,304,38513,2,0,L|331:296,1,76.4999976654053,10|8,0:0|0:1,0:0:0:0:
262,205,38820,5,2,0:0:0:0:
262,205,38974,2,0,B|275:166|262:122,1,76.4999976654053,8|8,0:1|0:0,0:0:0:0:
127,213,39282,1,2,0:0:0:0:
127,213,39436,2,0,B|154:243|198:254,1,76.4999976654053,10|8,0:1|0:1,0:0:0:0:
187,92,39743,2,0,B|146:100|115:133,1,76.4999976654053,10|0,0:0|0:0,0:0:0:0:
278,234,40051,6,0,B|317:219|326:170|319:130|277:106,2,152.999995330811,10|8|8,0:1|0:0|0:1,0:0:0:0:
193,269,40820,1,8,0:1:0:0:
110,228,40974,2,0,B|72:204|26:211,1,76.4999976654053,10|8,0:0|0:1,0:0:0:0:
190,353,41282,2,0,B|265:385|336:328,1,152.999995330811,2|8,0:0|0:0,0:0:0:0:
468,244,41743,5,10,0:1:0:0:
378,184,41897,1,8,0:3:0:0:
473,134,42051,1,4,0:3:0:0:
346,71,42205,5,10,0:0:0:0:
270,157,42359,1,8,0:1:0:0:
231,50,42513,2,0,B|189:17|119:9|69:35,1,170,14|8,0:1|0:0,0:0:0:0:
0,263,43128,5,10,0:1:0:0:
100,247,43282,1,8,0:1:0:0:
198,274,43436,1,8,0:0:0:0:
297,252,43590,1,8,0:1:0:0:
390,290,43743,2,0,B|424:197|376:120,1,170,2|8,0:0|0:0,0:0:0:0:
164,194,44205,2,0,B|130:101|174:30,1,170,2|8,0:0|0:1,0:0:0:0:
298,168,44667,2,0,B|313:210|297:251,1,85,10|0,0:0|0:0,0:0:0:0:
167,337,44974,6,0,B|75:312|-20:350,2,170,10|8|8,0:1|0:0|0:1,0:0:0:0:
261,375,45743,1,8,0:1:0:0:
355,336,45897,5,10,0:0:0:0:
355,336,46051,1,10,0:1:0:0:
274,192,46205,5,10,0:0:0:0:
154,258,46359,1,8,2:1:0:0:
97,134,46513,1,8,2:1:0:0:
291,66,46667,5,10,0:3:0:0:
401,158,46820,1,8,0:1:0:0:
475,33,46974,1,8,0:1:0:0:
277,197,47128,5,14,0:0:0:0:
277,197,47282,1,8,0:1:0:0:
191,66,47436,6,0,L|125:57,1,63.7500024318696,14|0,0:1|0:0,0:0:0:0:
182,141,47743,2,0,L|116:132,1,63.7500024318696,0|0,0:0|0:0,0:0:0:0:
130,257,48051,6,0,L|121:323,1,63.7500024318696,0|0,0:0|0:0,0:0:0:0:
205,266,48359,2,0,L|196:332,1,63.7500024318696,0|0,0:0|0:0,0:0:0:0:
321,318,48667,6,0,L|387:327,1,63.7500024318696,0|0,0:0|0:0,0:0:0:0:
330,243,48974,2,0,L|396:252,1,63.7500024318696,0|0,0:0|0:0,0:0:0:0:
382,127,49282,5,0,0:0:0:0:
315,54,49436,1,0,0:0:0:0:
286,149,49590,1,0,0:0:0:0:
16,235,49897,5,14,0:1:0:0:
63,133,50051,1,2,0:0:0:0:
195,255,50205,1,10,0:0:0:0:
174,146,50359,1,2,0:0:0:0:
98,310,50513,2,0,B|126:375|218:390|273:339,1,203.999993774414,10|8,0:1|0:0,0:0:0:0:
382,133,50974,5,2,0:0:0:0:
382,133,51051,1,2,0:0:0:0:
382,133,51128,2,0,B|272:123,1,101.999996887207,10|8,0:1|0:1,0:0:0:0:
479,102,51436,2,0,B|488:0,1,101.999996887207,10|8,0:0|0:1,0:0:0:0:
479,282,51743,2,0,B|488:383,1,101.999996887207,2|8,0:0|0:1,0:0:0:0:
382,251,52051,2,0,B|272:261,1,101.999996887207,10|0,0:0|0:0,0:0:0:0:
39,222,52359,5,10,0:1:0:0:
143,303,52513,1,2,0:0:0:0:
221,196,52667,1,10,0:0:0:0:
117,115,52820,1,2,0:0:0:0:
39,222,52974,2,0,B|20:276|50:339,1,101.999996887207,10|8,0:1|0:1,0:0:0:0:
291,147,53282,5,10,0:0:0:0:
291,147,53436,2,0,B|339:79|275:-5|192:31,1,203.999993774414,2|8,0:0|0:1,0:0:0:0:
119,252,53897,1,10,0:0:0:0:
272,359,54051,1,10,0:1:0:0:
272,359,54359,2,0,L|285:255,1,101.999996887207,10|8,0:1|0:0,0:0:0:0:
406,176,54667,6,0,B|464:243|561:168|510:96,1,203.999993774414,14|8,0:1|0:1,0:0:0:0:
404,4,55128,1,10,0:0:0:0:
285,83,55282,1,2,0:0:0:0:
168,8,55436,1,10,0:1:0:0:
168,8,55590,1,8,0:1:0:0:
44,77,55743,1,8,0:0:0:0:
174,156,55897,6,0,B|248:250|180:343,1,203.999993774414,14|8,0:1|0:1,0:0:0:0:
59,214,56359,1,10,0:0:0:0:
1,369,56513,1,2,0:0:0:0:
59,214,56667,1,10,0:1:0:0:
59,214,56820,1,8,0:1:0:0:
180,343,56974,1,8,0:0:0:0:
331,288,57128,6,0,B|382:270|432:289|454:334|454:334|513:347,1,203.999993774414,14|8,0:1|0:1,0:0:0:0:
420,175,57590,2,0,B|461:164|500:109,1,101.999996887207,10|0,0:0|0:1,0:0:0:0:
318,105,57897,1,10,0:1:0:0:
359,0,58051,1,8,0:1:0:0:
208,87,58205,1,10,0:0:0:0:
250,193,58359,1,8,0:1:0:0:
387,284,58513,6,0,L|494:268,1,101.999996887207,10|8,0:0|0:1,0:0:0:0:
144,163,58820,1,14,0:0:0:0:
144,163,58974,2,0,L|37:147,1,101.999996887207,10|8,0:1|0:0,0:0:0:0:
128,285,59282,5,0,1:0:0:0:
117,312,59359,1,0,1:0:0:0:
122,340,59436,1,0,1:0:0:0:
139,364,59513,1,0,1:0:0:0:
165,375,59590,1,0,1:0:0:0:
194,377,59667,1,0,1:0:0:0:
219,363,59743,1,14,2:1:0:0:
291,270,59897,1,2,0:0:0:0:
232,133,60051,6,0,B|213:77|234:27,1,101.999996887207,10|0,0:0|0:0,0:0:0:0:
374,0,60359,2,0,B|316:41|316:133|375:179,1,203.999993774414,10|8,0:1|0:0,0:0:0:0:
512,270,60820,5,2,0:0:0:0:
512,270,60897,1,2,0:0:0:0:
512,270,60974,2,0,B|517:152,1,101.999996887207,10|8,0:1|0:1,0:0:0:0:
291,368,61282,2,0,B|296:250,1,101.999996887207,10|8,0:0|0:1,0:0:0:0:
484,291,61590,2,0,B|489:173,1,101.999996887207,2|8,0:0|0:1,0:0:0:0:
176,294,61897,2,0,B|181:176,1,101.999996887207,10|0,0:0|0:0,0:0:0:0:
308,23,62205,5,10,0:1:0:0:
213,42,62359,1,2,0:0:0:0:
388,76,62513,1,10,0:0:0:0:
213,42,62667,1,2,0:0:0:0:
407,170,62820,2,0,B|476:160|514:66|456:13,1,203.999993774414,10|10,0:1|0:0,0:0:0:0:
173,171,63282,6,0,B|115:224|153:318|222:328,1,203.999993774414,2|8,0:0|0:1,0:0:0:0:
391,264,63743,1,10,0:0:0:0:
483,381,63897,1,10,0:1:0:0:
483,381,64205,2,0,B|500:338|488:280,1,101.999996887207,10|8,0:1|0:0,0:0:0:0:
422,118,64513,6,0,B|444:179|380:231|328:213|328:213|306:169,1,203.999993774414,14|8,0:1|0:1,0:0:0:0:
256,32,64974,1,10,0:0:0:0:
173,148,65128,1,10,0:1:0:0:
95,269,65282,1,10,0:1:0:0:
95,269,65436,1,8,0:1:0:0:
3,159,65590,1,8,0:0:0:0:
107,31,65743,6,0,B|38:90|99:184|173:147,1,203.999993774414,14|8,0:1|0:1,0:0:0:0:
256,0,66205,1,10,0:0:0:0:
404,83,66359,1,8,0:1:0:0:
321,231,66513,1,10,0:1:0:0:
321,231,66667,1,8,0:1:0:0:
432,349,66820,5,10,0:0:0:0:
492,268,66974,2,0,B|533:162|491:68,1,203.999993774414,14|8,0:1|0:1,0:0:0:0:
258,136,67436,2,0,B|145:127,1,101.999996887207,10|0,0:0|0:0,0:0:0:0:
330,340,67743,2,0,B|443:349,1,101.999996887207,10|8,0:1|0:1,0:0:0:0:
148,150,68051,5,10,0:0:0:0:
110,245,68205,1,8,0:1:0:0:
192,384,68359,1,10,0:0:0:0:
230,289,68513,1,8,0:1:0:0:
156,127,68667,5,14,0:0:0:0:
44,198,68820,1,10,0:1:0:0:
40,65,68974,1,8,0:3:0:0:
156,127,69128,1,0,1:0:0:0:
179,135,69205,1,0,1:0:0:0:
205,138,69282,1,0,1:2:0:0:
230,134,69359,1,0,1:0:0:0:
254,125,69436,1,0,1:0:0:0:
275,111,69513,1,0,1:0:0:0:
292,92,69590,6,0,B|289:21|384:-13|434:47,1,187.000005706787,14|10,0:1|0:0,0:0:0:0:
512,150,70051,1,2,1:0:0:0:
512,150,70128,1,0,1:0:0:0:
512,150,70205,2,0,B|529:105|509:45,1,93.5000028533936,8|0,0:1|0:0,0:0:0:0:
374,110,70513,2,0,B|358:157|375:202,1,93.5000028533936,10|0,0:0|0:0,0:0:0:0:
493,337,70820,5,10,0:1:0:0:
380,302,70974,1,8,0:1:0:0:
274,354,71128,1,10,0:0:0:0:
164,311,71282,1,2,1:0:0:0:
164,311,71359,1,0,1:0:0:0:
164,311,71436,2,0,B|148:263|163:212,1,93.5000028533936,8|8,0:1|0:1,0:0:0:0:
376,202,71743,2,0,B|389:157|373:109,1,93.5000028533936,8|0,0:0|0:0,0:0:0:0:
226,16,72051,6,0,B|264:88|199:157|125:109,1,187.000005706787,10|8,0:1|0:0,0:0:0:0:
21,167,72513,1,2,1:0:0:0:
21,167,72590,1,0,1:0:0:0:
21,167,72667,2,0,B|8:124|20:73,1,93.5000028533936,8|8,0:1|0:1,0:0:0:0:
162,219,72974,2,0,B|175:262|163:313,1,93.5000028533936,10|0,0:0|0:0,0:0:0:0:
292,150,73282,6,0,B|313:110|365:89,1,93.5000028533936,14|0,0:1|1:0,0:0:0:0:
361,90,73513,1,0,1:0:0:0:
361,90,73590,1,0,1:0:0:0:
496,173,73743,1,0,1:0:0:0:
496,173,73820,1,0,1:0:0:0:
496,173,73897,1,0,1:0:0:0:
480,318,74051,1,0,1:0:0:0:
480,318,74128,1,0,1:0:0:0:
480,318,74205,1,0,1:0:0:0:
358,380,74359,1,0,1:0:0:0:
358,380,74436,1,0,1:0:0:0:
358,380,74513,1,14,1:1:0:0:
190,204,74820,6,0,B|274:201,1,85,10|0,0:0|0:0,0:0:0:0:
421,239,75128,1,10,0:1:0:0:
512,180,75282,2,0,B|526:136|505:97,1,85,10|8,0:1|0:0,0:0:0:0:
335,11,75590,6,0,B|253:48|153:14,1,170,10|8,0:1|0:1,0:0:0:0:
138,91,76051,1,10,0:0:0:0:
52,140,76205,2,0,B|43:102|46:51,1,85,2|8,0:0|0:1,0:0:0:0:
231,130,76513,1,10,0:1:0:0:
231,130,76590,1,8,0:1:0:0:
231,130,76667,2,0,B|233:176|224:214,1,85,8|0,0:0|0:0,0:0:0:0:
137,337,76974,6,0,B|125:272|32:261|-2:313,2,170,10|8|8,0:1|0:0|0:1,0:0:0:0:
302,380,77743,2,0,B|347:383|417:358,1,85,10|8,0:1|0:0,0:0:0:0:
489,274,78051,2,0,B|492:229|467:159,1,85,8|2,0:1|2:0,0:0:0:0:
477,190,78282,5,2,2:0:0:0:
477,190,78359,2,0,B|432:203|379:179,1,85,10|8,2:1|0:0,0:0:0:0:
287,84,78667,2,0,B|467:62,1,170,2|8,0:0|0:1,0:0:0:0:
394,185,79128,2,0,B|406:226|400:269,1,85,10|0,0:0|0:0,0:0:0:0:
297,358,79436,6,0,B|214:321|132:344,1,170,14|8,0:1|0:0,0:0:0:0:
65,384,79897,1,0,0:0:0:0:
95,228,80051,1,10,0:1:0:0:
19,277,80205,2,0,B|4:239|15:185,1,85,10|10,0:1|0:0,0:0:0:0:
13,193,80436,5,2,0:0:0:0:
13,193,80513,2,0,B|63:217|130:169|103:92,1,170,10|8,0:1|0:1,0:0:0:0:
149,31,80974,1,10,0:0:0:0:
207,194,81128,2,0,B|113:185,1,85,2|8,0:0|0:1,0:0:0:0:
303,134,81436,1,10,0:1:0:0:
303,134,81513,1,8,0:1:0:0:
303,134,81590,2,0,B|300:89|313:50,1,85,8|0,0:0|0:0,0:0:0:0:
468,7,81897,6,0,B|506:81|484:172,2,170,10|8|8,0:1|0:0|0:1,0:0:0:0:
303,134,82667,2,0,B|389:132,1,85,2|8,0:0|0:0,0:0:0:0:
270,20,82974,2,0,B|184:18,1,85,10|2,0:1|0:0,0:0:0:0:
185,18,83205,5,2,0:0:0:0:
185,18,83282,1,10,0:1:0:0:
115,157,83436,1,14,0:0:0:0:
46,108,83590,2,0,B|32:61|51:18,1,85,2|8,0:0|0:3,0:0:0:0:
199,125,83897,5,0,1:0:0:0:
199,125,83974,1,0,1:0:0:0:
199,125,84051,1,0,1:0:0:0:
111,242,84205,5,0,1:0:0:0:
111,242,84282,1,0,1:0:0:0:
111,242,84359,2,0,B|68:236|68:236|48:243|48:243|15:237,1,97.7500018644333,14|2,1:1|0:0,0:0:0:0:
199,125,84667,2,0,B|231:119|231:119|251:126|251:126|294:120,1,97.7500018644333,10|2,0:0|0:0,0:0:0:0:
510,140,84974,5,10,0:1:0:0:
394,51,85128,1,8,0:1:0:0:
429,203,85282,1,10,0:0:0:0:
394,51,85436,1,8,0:1:0:0:
327,204,85590,6,0,B|310:257|318:300,1,97.7500018644333,10|2,0:1|0:0,0:0:0:0:
464,376,85897,1,10,0:0:0:0:
512,255,86051,2,0,B|521:208|510:157,1,97.7500018644333,2|8,0:0|0:1,0:0:0:0:
401,59,86359,1,10,0:1:0:0:
401,59,86436,1,8,0:1:0:0:
401,59,86513,2,0,B|344:79|300:70,1,97.7500018644333,8|0,0:0|0:0,0:0:0:0:
164,5,86820,5,10,0:1:0:0:
135,77,86974,1,8,0:1:0:0:
207,106,87128,1,10,0:0:0:0:
236,34,87282,1,0,0:0:0:0:
98,146,87436,5,10,0:1:0:0:
137,254,87590,1,10,0:1:0:0:
247,214,87743,1,8,0:0:0:0:
207,106,87897,1,10,0:1:0:0:
53,229,88051,6,0,B|45:285|73:322,1,97.7500018644333,10|8,0:1|0:1,0:0:0:0:
238,384,88359,1,10,0:0:0:0:
319,308,88513,2,0,B|347:270|339:214,1,97.7500018644333,2|8,0:0|0:1,0:0:0:0:
275,69,88820,5,10,0:1:0:0:
196,134,88974,1,10,0:0:0:0:
179,33,89128,1,2,0:0:0:0:
349,16,89282,6,0,B|368:70|352:122,1,97.7500018644333,14|0,0:1|0:0,0:0:0:0:
234,214,89590,2,0,B|215:147|135:124|75:176,1,195.500003728867,10|8,0:0|0:1,0:0:0:0:
192,344,90051,1,8,0:1:0:0:
268,326,90205,1,8,0:0:0:0:
345,367,90359,1,8,0:1:0:0:
345,367,90436,1,8,0:1:0:0:
345,367,90513,2,0,B|390:382|438:352,1,97.7500018644333,8|8,0:1|0:1,0:0:0:0:
512,196,90820,5,10,0:0:0:0:
412,258,90974,1,2,0:0:0:0:
350,157,91128,2,0,L|332:43,1,97.7500018644333,10|8,0:1|0:1,0:0:0:0:
157,117,91436,5,10,0:0:0:0:
253,172,91590,2,0,L|367:154,1,97.7500018644333,2|8,0:0|0:1,0:0:0:0:
165,124,91897,1,10,0:1:0:0:
165,124,91974,1,8,0:1:0:0:
165,124,92051,2,0,L|92:34,1,97.7500018644333,8|8,0:0|0:1,0:0:0:0:
168,225,92359,2,0,L|126:332,1,97.7500018644333,10|8,0:1|0:1,0:0:0:0:
353,317,92667,5,10,0:0:0:0:
443,362,92820,2,0,B|515:388|564:295|511:236,1,195.500003728867,10|8,0:1|0:1,0:0:0:0:
423,112,93282,5,14,0:0:0:0:
324,223,93436,1,8,0:1:0:0:
256,64,93590,1,8,0:3:0:0:
188,223,93743,1,0,1:0:0:0:
188,223,93820,1,0,1:0:0:0:
188,223,93897,1,0,1:0:0:0:
89,112,94051,1,0,1:0:0:0:
89,112,94128,1,0,1:0:0:0:
89,112,94205,1,14,1:1:0:0:
0,356,94513,6,0,B|69:351,1,63.7500024318696,10|0,0:0|0:0,0:0:0:0:
199,347,94820,2,0,B|168:292|187:222,1,127.500004863739,10|8,0:1|0:0,0:0:0:0:
317,123,95282,5,10,0:1:0:0:
399,132,95436,2,0,B|436:132|477:114,1,63.7500024318696,2|8,0:0|0:1,0:0:0:0:
317,123,95743,1,10,0:0:0:0:
349,198,95897,2,0,B|367:230|403:256,1,63.7500024318696,2|8,0:0|0:1,0:0:0:0:
317,123,96205,2,0,B|298:90|262:64,1,63.7500024318696,10|8,0:1|0:0,0:0:0:0:
155,23,96513,5,2,0:0:0:0:
98,109,96667,2,0,B|67:118|28:100|24:56|56:33,1,127.500004863739,10|8,0:1|0:0,0:0:0:0:
189,111,97128,2,0,B|190:143|166:183,1,63.7500024318696,2|8,0:0|0:1,0:0:0:0:
74,215,97436,2,0,B|73:247|90:275,1,63.7500024318696,10|8,0:1|0:0,0:0:0:0:
154,356,97743,5,10,0:1:0:0:
154,356,98051,1,8,0:1:0:0:
292,308,98205,1,8,0:0:0:0:
292,308,98513,1,10,0:1:0:0:
362,351,98667,1,10,0:1:0:0:
442,325,98820,1,10,0:0:0:0:
442,325,98974,1,8,0:1:0:0:
374,216,99128,6,0,B|346:158|367:88,1,127.500004863739,14|8,0:1|0:0,0:0:0:0:
446,112,99590,2,0,B|452:89|442:48,1,63.7500024318696,2|8,0:0|0:1,0:0:0:0:
282,92,99897,2,0,B|282:68|302:31,1,63.7500024318696,10|8,0:1|0:0,0:0:0:0:
355,173,100205,5,10,0:1:0:0:
279,210,100359,2,0,B|241:214|200:184,1,63.7500024318696,2|8,0:0|0:1,0:0:0:0:
355,173,100667,1,10,0:0:0:0:
369,254,100820,2,0,B|353:288|306:309,1,63.7500024318696,2|8,0:0|0:1,0:0:0:0:
247,375,101128,2,0,B|222:345|193:342,1,63.7500024318696,10|8,0:1|0:0,0:0:0:0:
52,378,101436,5,10,0:1:0:0:
52,378,101590,2,0,B|7:361|0:306|39:271,1,127.500004863739,10|8,0:1|0:0,0:0:0:0:
124,205,102051,1,2,0:0:0:0:
205,221,102205,2,0,B|239:227|274:213,1,63.7500024318696,10|8,0:1|0:1,0:0:0:0:
158,126,102513,2,0,B|129:114|95:120,1,63.7500024318696,10|8,0:0|0:1,0:0:0:0:
270,75,102820,6,0,B|317:92|358:39|336:-6,1,127.500004863739,10|8,0:1|0:0,0:0:0:0:
375,128,103282,2,0,B|374:167|390:192,1,63.7500024318696,10|8,0:1|0:1,0:0:0:0:
512,313,103590,5,8,0:0:0:0:
479,222,103743,1,8,0:0:0:0:
408,288,103897,1,8,0:3:0:0:
512,313,104051,1,14,0:1:0:0:
365,175,104359,5,10,0:0:0:0:
365,175,104513,1,2,0:0:0:0:
281,225,104667,2,0,B|242:226|215:204,1,69.7000010635376,10|8,0:1|0:1,0:0:0:0:
215,205,104897,1,8,0:1:0:0:
215,205,104974,1,8,0:0:0:0:
167,92,105128,5,10,0:1:0:0:
264,102,105282,2,0,B|299:101|330:82,1,69.7000010635376,2|8,0:0|0:1,0:0:0:0:
167,92,105590,1,10,0:0:0:0:
271,125,105743,2,0,B|306:124|337:105,1,69.7000010635376,2|8,0:0|0:1,0:0:0:0:
167,92,106051,2,0,B|135:73|100:72,1,69.7000010635376,10|8,0:1|0:0,0:0:0:0:
0,154,106359,5,2,0:0:0:0:
0,154,106513,2,0,L|20:307,1,139.400002127075,10|8,0:1|0:0,0:0:0:0:
124,369,106974,1,2,0:0:0:0:
124,369,107051,1,2,0:0:0:0:
124,369,107128,2,0,L|136:278,1,69.7000010635376,10|8,0:1|0:1,0:0:0:0:
276,339,107436,2,0,L|264:248,1,69.7000010635376,10|8,0:0|0:1,0:0:0:0:
223,140,107743,5,2,0:0:0:0:
171,196,107897,1,8,0:1:0:0:
115,144,108051,1,10,0:0:0:0:
167,88,108205,1,0,0:1:0:0:
324,162,108359,5,10,0:1:0:0:
291,77,108513,1,10,0:1:0:0:
349,7,108667,1,10,0:0:0:0:
473,55,108820,5,8,0:1:0:0:
473,55,108897,1,8,0:1:0:0:
473,55,108974,2,0,B|509:112|479:189,1,139.400002127075,14|8,0:1|0:0,0:0:0:0:
376,261,109436,2,0,B|340:248|308:244,1,69.7000010635376,2|8,0:0|0:1,0:0:0:0:
265,363,109743,2,0,B|229:376|197:379,1,69.7000010635376,10|8,0:1|0:0,0:0:0:0:
99,229,110051,5,10,0:1:0:0:
64,315,110205,2,0,B|18:337|-35:278|8:236,1,139.400002127075,2|8,0:0|0:0,0:0:0:0:
95,159,110667,2,0,B|92:191|98:228,1,69.7000010635376,2|8,0:0|0:1,0:0:0:0:
214,280,110974,2,0,B|220:242|217:210,1,69.7000010635376,10|8,0:1|0:0,0:0:0:0:
173,83,111282,5,10,0:1:0:0:
173,83,111436,2,0,B|145:123|80:117|53:75,1,139.400002127075,10|8,0:1|0:0,0:0:0:0:
315,69,111897,5,2,0:1:0:0:
315,69,112051,2,0,B|343:29|408:35|434:76,1,139.400002127075,10|8,0:1|0:0,0:0:0:0:
510,219,112513,5,10,0:1:0:0:
424,250,112667,2,0,B|354:237,1,69.7000010635376,10|0,0:1|1:0,0:0:0:0:
355,237,112897,1,0,1:0:0:0:
355,237,112974,1,0,1:0:0:0:
267,343,113128,5,0,1:0:0:0:
267,343,113205,1,0,1:0:0:0:
267,343,113282,1,0,1:0:0:0:
172,266,113436,5,0,1:0:0:0:
172,266,113513,1,0,1:0:0:0:
172,266,113590,1,0,1:0:0:0:
100,336,113743,5,0,1:0:0:0:
100,336,113820,1,0,1:0:0:0:
100,336,113897,2,0,B|57:298|57:236|96:199,1,152.999995330811,14|8,1:1|0:0,0:0:0:0:
94,200,114513,6,0,B|136:215|189:213,1,76.4999976654053,10|8,0:1|0:1,0:0:0:0:
222,107,114820,2,0,B|180:92|127:94,1,76.4999976654053,10|8,0:0|0:1,0:0:0:0:
290,210,115128,5,2,0:0:0:0:
290,210,115282,2,0,B|277:249|286:297,1,76.4999976654053,8|8,0:1|0:0,0:0:0:0:
434,366,115590,1,2,0:0:0:0:
434,366,115743,2,0,B|447:327|438:279,1,76.4999976654053,8|8,0:1|0:1,0:0:0:0:
269,207,116051,2,0,B|256:246|265:294,1,76.4999976654053,10|0,0:0|0:0,0:0:0:0:
405,150,116359,6,0,B|448:197|514:174|512:112,2,152.999995330811,10|8|8,0:1|0:0|0:1,0:0:0:0:
333,81,117128,1,8,0:1:0:0:
243,125,117282,2,0,B|222:155|222:204,1,76.4999976654053,10|8,0:0|0:1,0:0:0:0:
290,313,117590,2,0,B|342:306|342:306|375:321|375:321|454:310,1,152.999995330811,2|10,0:0|0:0,0:0:0:0:
222,197,118051,5,10,0:1:0:0:
155,308,118205,1,10,0:3:0:0:
44,241,118359,1,6,0:3:0:0:
111,130,118513,1,10,0:0:0:0:
111,130,118667,1,8,0:1:0:0:
242,210,118820,2,0,B|294:244|360:228|385:172,1,170,14|8,0:1|0:0,0:0:0:0:
171,0,119436,5,10,0:1:0:0:
197,98,119590,1,8,0:1:0:0:
160,192,119743,1,8,0:0:0:0:
190,289,119897,1,8,0:1:0:0:
114,358,120051,2,0,B|65:382|-5:329|30:260,1,170,2|8,0:1|0:0,0:0:0:0:
273,190,120513,2,0,B|308:259|238:312|189:288,1,170,2|8,0:0|0:1,0:0:0:0:
79,168,120974,2,0,L|96:65,1,85,10|0,0:0|0:0,0:0:0:0:
276,18,121282,6,0,B|318:66|381:65|427:24,2,170,10|8|8,0:1|0:0|0:1,0:0:0:0:
192,66,122051,1,8,0:1:0:0:
302,160,122205,5,10,0:0:0:0:
168,211,122359,1,8,0:1:0:0:
168,211,122436,1,8,0:1:0:0:
168,211,122513,1,14,0:0:0:0:
353,294,122667,1,8,0:1:0:0:
219,345,122820,1,8,0:1:0:0:
302,160,122974,5,10,0:3:0:0:
425,235,123128,1,4,0:3:0:0:
506,116,123282,1,8,0:1:0:0:
368,12,123436,5,14,0:0:0:0:
368,12,123590,1,8,0:1:0:0:
302,160,123743,6,0,L|320:228,1,63.7500024318696,14|0,0:1|0:0,0:0:0:0:
377,142,124051,2,0,L|393:203,1,63.7500024318696,0|0,0:0|0:0,0:0:0:0:
257,287,124359,6,0,L|189:305,1,63.7500024318696,0|0,0:0|0:0,0:0:0:0:
275,362,124667,2,0,L|213:378,1,63.7500024318696,0|0,0:0|0:0,0:0:0:0:
130,241,124974,6,0,L|112:173,1,63.7500024318696,0|0,0:0|0:0,0:0:0:0:
55,259,125282,2,0,L|38:197,1,63.7500024318696,0|0,0:0|0:0,0:0:0:0:
151,48,125590,5,0,0:0:0:0:
217,130,125743,1,0,0:0:0:0:
256,32,125897,1,0,0:0:0:0:
420,230,126205,6,0,B|469:264|528:219|507:158,1,152.999995330811,14|0,0:1|0:0,0:0:0:0:
507,158,126513,1,10,0:0:0:0:
440,42,126667,1,2,0:0:0:0:
324,168,126820,2,0,B|271:223|276:309|334:346,1,203.999993774414,10|10,0:1|0:0,0:0:0:0:
156,232,127282,5,2,0:0:0:0:
156,232,127359,1,2,0:0:0:0:
156,232,127436,2,0,B|113:212|56:212,1,101.999996887207,10|8,0:1|0:1,0:0:0:0:
235,326,127743,2,0,B|278:346|335:346,1,101.999996887207,10|8,0:0|0:1,0:0:0:0:
277,58,128051,2,0,B|234:38|177:38,1,101.999996887207,2|8,0:0|0:1,0:0:0:0:
356,152,128359,2,0,B|399:172|456:172,1,101.999996887207,10|0,0:0|0:1,0:0:0:0:
177,38,128667,5,10,0:1:0:0:
96,136,128820,1,2,0:0:0:0:
44,14,128974,1,10,0:0:0:0:
96,136,129128,1,2,0:0:0:0:
11,272,129282,2,0,B|-16:227|1:168,1,101.999996887207,10|8,0:1|0:1,0:0:0:0:
231,279,129590,5,10,0:0:0:0:
231,279,129743,2,0,B|257:366|144:403|113:321,1,203.999993774414,2|8,0:0|0:1,0:0:0:0:
290,146,130205,1,10,0:0:0:0:
368,334,130359,1,10,0:1:0:0:
368,334,130667,2,0,B|413:363|470:345,1,101.999996887207,10|8,0:1|0:0,0:0:0:0:
454,180,130974,6,0,B|475:151|513:144|513:144|530:105|520:44|459:30,1,203.999993774414,14|8,0:1|0:1,0:0:0:0:
362,136,131436,1,10,0:0:0:0:
256,31,131590,1,2,0:1:0:0:
150,136,131743,1,8,0:1:0:0:
42,33,131897,1,8,0:1:0:0:
42,33,131974,1,8,0:1:0:0:
42,33,132051,1,8,0:0:0:0:
6,140,132205,6,0,B|-34:243|10:339,1,203.999993774414,14|8,0:1|0:1,0:0:0:0:
152,382,132667,1,10,0:0:0:0:
255,277,132820,1,2,0:0:0:0:
360,382,132974,1,10,0:1:0:0:
503,338,133128,1,8,0:1:0:0:
503,338,133205,1,8,0:1:0:0:
503,338,133282,1,8,0:0:0:0:
459,224,133436,6,0,B|448:273|387:283|348:266|348:266|341:228|313:208,1,203.999993774414,14|8,0:1|0:1,0:0:0:0:
153,281,133897,2,0,L|278:275,1,101.999996887207,10|0,0:0|0:0,0:0:0:0:
105,85,134205,1,10,0:1:0:0:
64,189,134359,1,8,0:1:0:0:
294,104,134513,1,10,0:0:0:0:
253,0,134667,1,8,0:1:0:0:
191,173,134820,6,0,B|209:273,1,101.999996887207,10|8,0:0|0:1,0:0:0:0:
404,363,135128,1,14,0:0:0:0:
404,363,135282,2,0,B|422:263,1,101.999996887207,10|8,0:1|0:0,0:0:0:0:
512,101,135590,5,0,1:0:0:0:
506,136,135667,1,0,1:0:0:0:
486,164,135743,1,0,1:0:0:0:
455,180,135820,1,0,1:0:0:0:
421,177,135897,1,0,1:0:0:0:
389,163,135974,1,0,1:0:0:0:
371,127,136051,2,0,B|380:74|355:19,1,101.999996887207,14|0,0:1|0:0,0:0:0:0:
195,120,136359,5,10,0:0:0:0:
234,246,136513,1,2,0:1:0:0:
146,345,136667,2,0,B|63:382|0:288|55:231,1,203.999993774414,2|8,0:1|0:0,0:0:0:0:
202,127,137128,5,2,0:0:0:0:
202,127,137205,1,2,0:0:0:0:
202,127,137282,2,0,B|309:112,1,101.999996887207,10|0,0:1|0:0,0:0:0:0:
303,351,137590,2,0,B|410:336,1,101.999996887207,10|8,0:0|0:1,0:0:0:0:
434,168,137897,6,0,B|419:66,1,101.999996887207,10|8,0:1|0:1,0:0:0:0:
216,228,138205,2,0,B|201:126,1,101.999996887207,10|0,0:0|0:0,0:0:0:0:
175,28,138513,6,0,B|106:90|32:39,1,152.999995330811,10|0,0:1|0:0,0:0:0:0:
35,41,138820,1,10,0:0:0:0:
201,127,138974,1,2,0:0:0:0:
99,220,139128,2,0,B|28:175|-48:254|11:323,1,203.999993774414,10|10,0:1|0:0,0:0:0:0:
305,382,139590,6,0,B|363:314|286:235|216:279,1,203.999993774414,2|8,0:0|0:1,0:0:0:0:
10,322,140051,1,10,0:0:0:0:
80,96,140205,1,10,0:1:0:0:
80,96,140513,2,0,B|114:124|176:118,1,101.999996887207,10|8,0:1|0:0,0:0:0:0:
331,58,140820,6,0,B|418:6|418:6|527:53,1,203.999993774414,14|8,0:1|0:1,0:0:0:0:
448,192,141282,1,10,0:0:0:0:
499,325,141436,1,8,0:1:0:0:
366,376,141590,1,10,0:1:0:0:
315,243,141743,1,8,0:1:0:0:
315,243,141820,1,8,0:1:0:0:
315,243,141897,1,8,0:0:0:0:
181,326,142051,6,0,B|94:378|94:378|-15:331,1,203.999993774414,14|8,0:1|0:1,0:0:0:0:
64,192,142513,1,10,0:0:0:0:
13,59,142667,1,8,0:1:0:0:
146,8,142820,1,10,0:1:0:0:
146,8,142974,1,8,0:1:0:0:
230,164,143128,5,10,0:0:0:0:
345,205,143282,2,0,B|425:251|485:151|419:90,1,203.999993774414,14|8,0:1|0:1,0:0:0:0:
284,0,143743,2,0,B|300:49|289:100,1,101.999996887207,10|0,0:0|0:0,0:0:0:0:
226,350,144051,2,0,B|210:301|220:249,1,101.999996887207,10|8,0:1|0:1,0:0:0:0:
288,100,144359,5,10,0:0:0:0:
345,205,144513,1,8,0:1:0:0:
480,105,144667,1,10,0:0:0:0:
423,0,144820,1,8,0:1:0:0:
273,114,144974,5,14,0:0:0:0:
191,10,145128,1,10,0:1:0:0:
87,92,145282,1,8,0:3:0:0:
169,196,145436,1,0,1:0:0:0:
181,218,145513,1,0,1:0:0:0:
189,242,145590,1,0,1:0:0:0:
191,267,145667,1,0,1:0:0:0:
189,292,145743,1,0,1:0:0:0:
180,316,145820,1,0,1:0:0:0:
167,338,145897,6,0,B|113:387|28:330|68:254,1,187.000005706787,14|10,0:1|0:0,0:0:0:0:
243,143,146359,1,2,1:0:0:0:
243,143,146436,1,0,1:0:0:0:
243,143,146513,2,0,B|281:166|333:160,1,93.5000028533936,8|0,0:1|0:0,0:0:0:0:
242,38,146820,2,0,B|204:15|151:20,1,93.5000028533936,10|0,0:0|0:0,0:0:0:0:
0,85,147128,5,10,0:1:0:0:
76,173,147282,1,8,0:1:0:0:
10,270,147436,1,10,0:0:0:0:
88,356,147590,1,2,1:0:0:0:
88,356,147667,1,0,1:0:0:0:
88,356,147743,2,0,B|203:348,1,93.5000028533936,8|8,0:1|0:1,0:0:0:0:
355,384,148051,2,0,B|368:339|347:292,1,93.5000028533936,8|0,0:0|0:0,0:0:0:0:
238,184,148359,6,0,B|244:260|156:296|106:233,1,187.000005706787,10|8,0:1|0:0,0:0:0:0:
184,92,148820,1,2,1:0:0:0:
184,92,148897,1,0,1:0:0:0:
184,92,148974,2,0,B|175:42|192:1,1,93.5000028533936,8|8,0:1|0:1,0:0:0:0:
319,164,149282,2,0,B|328:214|311:255,1,93.5000028533936,10|0,0:0|0:0,0:0:0:0:
155,357,149590,6,0,B|109:336|52:335,1,93.5000028533936,14|0,0:1|1:0,0:0:0:0:
64,335,149820,1,0,1:0:0:0:
64,335,149897,1,0,1:0:0:0:
164,238,150051,1,0,1:0:0:0:
164,238,150128,1,0,1:0:0:0:
164,238,150205,1,0,1:0:0:0:
87,132,150359,1,0,1:0:0:0:
87,132,150436,1,0,1:0:0:0:
87,132,150513,1,0,1:0:0:0:
184,31,150667,1,0,1:0:0:0:
184,31,150743,1,0,1:0:0:0:
184,31,150820,1,14,1:1:0:0:
256,192,150897,12,0,153282,0:0:0:0:
0,324,160667,6,0,B|65:296|53:349|134:324,1,127.500004863739,14|0,0:1|0:0,0:0:0:0:
123,326,161128,1,0,0:0:0:0:
166,242,161282,2,0,B|145:218|138:174,1,63.7500024318696,8|0,0:0|0:0,0:0:0:0:
223,129,161590,2,0,B|216:97|232:56,1,63.7500024318696,8|0,0:0|0:0,0:0:0:0:
237,74,162051,5,0,1:0:0:0:
237,74,162128,1,0,1:0:0:0:
237,74,162205,2,0,B|267:96|309:88,1,63.7500024318696,8|0,0:1|0:0,0:0:0:0:
381,139,162513,2,0,B|434:149|464:94|425:47,1,127.500004863739,8|0,0:0|0:0,0:0:0:0:
306,180,163128,6,0,B|293:210|296:242,1,63.7500024318696,10|0,0:1|1:0,0:0:0:0:
296,242,163359,1,0,1:0:0:0:
296,242,163436,2,0,B|317:266|324:310,1,63.7500024318696,8|0,0:1|0:0,0:0:0:0:
268,374,163743,2,0,B|226:339|146:343,1,127.500004863739,10|0,0:0|0:0,0:0:0:0:
65,379,164205,1,0,1:0:0:0:
8,238,164513,5,0,1:0:0:0:
8,238,164667,2,0,B|42:207|-18:159|9:116,2,127.500004863739,8|8|8,0:1|0:0|0:1,0:0:0:0:
8,238,165590,6,0,B|54:203|131:216,1,127.500004863739,14|0,0:1|0:0,0:0:0:0:
129,215,166051,1,0,0:0:0:0:
209,261,166205,2,0,B|222:238|216:191,1,63.7500024318696,8|0,0:0|0:0,0:0:0:0:
160,127,166513,2,0,B|88:110,1,63.7500024318696,8|0,0:0|0:0,0:0:0:0:
106,120,166974,5,0,1:0:0:0:
106,120,167051,1,0,1:0:0:0:
106,120,167128,2,0,B|96:86|103:51,1,63.7500024318696,10|0,0:1|0:0,0:0:0:0:
184,20,167436,2,0,B|242:57|316:25,1,127.500004863739,8|0,0:0|0:0,0:0:0:0:
469,87,168051,6,0,B|441:77|406:76,1,63.7500024318696,10|0,0:1|1:0,0:0:0:0:
406,76,168282,1,0,1:0:0:0:
406,76,168359,2,0,L|387:163,1,63.7500024318696,8|0,0:1|0:0,0:0:0:0:
435,222,168667,2,0,B|481:224|508:277|486:317,1,127.500004863739,10|0,0:0|0:0,0:0:0:0:
416,374,169128,1,0,1:0:0:0:
416,374,169436,1,0,1:0:0:0:
348,305,169590,1,8,0:1:0:0:
348,305,169897,5,8,3:2:0:0:
284,340,170051,1,0,3:0:0:0:
210,343,170205,1,0,3:0:0:0:
139,322,170359,1,0,3:0:0:0:
90,253,170513,6,0,B|112:185|92:97,2,139.400002127075,14|0|8,0:1|0:0|0:0,0:0:0:0:
90,253,171436,1,10,0:0:0:0:
15,211,171590,2,0,B|-1:141|20:73,1,139.400002127075,2|0,0:0|1:0,0:0:0:0:
85,12,172051,5,8,0:1:0:0:
163,157,172359,1,8,0:0:0:0:
163,157,172974,5,8,0:1:0:0:
246,195,173128,1,8,0:1:0:0:
246,195,173205,1,8,0:1:0:0:
246,195,173282,2,0,B|282:198|312:176,1,69.7000010635376,10|0,0:1|0:0,0:0:0:0:
387,228,173590,2,0,B|346:204|349:137|399:115,1,139.400002127075,10|0,0:0|0:0,0:0:0:0:
474,61,174051,5,2,1:2:0:0:
498,224,174359,1,0,1:0:0:0:
498,224,174513,2,0,L|483:295,1,69.7000010635376,10|8,0:1|0:1,0:0:0:0:
485,377,174820,2,0,B|474:327|402:307|372:351,1,139.400002127075,8|8,0:0|0:1,0:0:0:0:
224,384,175436,6,0,B|251:315|222:247,1,139.400002127075,14|0,0:1|0:0,0:0:0:0:
222,248,175897,1,0,0:0:0:0:
138,202,176051,2,0,B|96:237|42:228|15:177,1,139.400002127075,10|10,0:0|0:0,0:0:0:0:
128,111,176513,2,0,B|108:83|113:33,1,69.7000010635376,10|0,0:1|0:0,0:0:0:0:
240,57,176820,5,0,1:0:0:0:
240,57,176897,1,0,1:0:0:0:
240,57,176974,2,0,B|295:10|390:32,1,139.400002127075,10|8,0:1|0:0,0:0:0:0:
497,112,177590,1,0,2:0:0:0:
497,112,177743,1,0,2:0:0:0:
436,175,177897,6,0,B|417:210|425:242,1,69.7000010635376,8|0,0:1|1:0,0:0:0:0:
425,242,178128,1,0,1:0:0:0:
425,242,178205,2,0,B|471:301|437:374,1,139.400002127075,8|8,0:1|0:0,0:0:0:0:
327,242,178820,1,8,0:1:0:0:
305,320,178974,1,0,1:0:0:0:
305,320,179282,1,0,1:0:0:0:
253,262,179436,1,8,0:1:0:0:
253,262,179743,5,8,3:2:0:0:
199,321,179897,1,0,3:2:0:0:
119,329,180051,1,0,3:2:0:0:
56,280,180205,1,0,3:2:0:0:
74,184,180359,6,0,B|86:131|86:131|81:95|81:95|92:32,2,152.999995330811,14|0|8,0:1|0:0|0:0,0:0:0:0:
74,184,181282,1,10,0:0:0:0:
171,136,181436,2,0,B|242:108|335:124,1,152.999995330811,2|0,0:0|1:0,0:0:0:0:
400,161,181897,5,8,0:1:0:0:
445,331,182205,1,8,0:0:0:0:
445,331,182820,5,8,0:1:0:0:
507,269,182974,1,8,0:1:0:0:
507,269,183051,1,8,0:1:0:0:
507,269,183128,2,0,B|519:225|499:186,1,76.4999976654053,2|0,0:0|0:0,0:0:0:0:
461,102,183436,2,0,B|445:151|388:170|334:129,1,152.999995330811,10|0,0:0|0:0,0:0:0:0:
264,77,183897,5,2,1:2:0:0:
264,77,184205,1,0,1:0:0:0:
244,151,184359,1,10,0:1:0:0:
226,225,184513,1,8,0:1:0:0:
203,298,184667,2,0,B|131:273|49:278,1,152.999995330811,8|8,0:0|0:1,0:0:0:0:
52,277,185282,6,0,L|68:124,1,152.999995330811,14|2,0:1|0:0,0:0:0:0:
67,124,185743,1,2,0:0:0:0:
155,238,185897,2,0,B|148:200|156:151,1,76.4999976654053,10|0,0:0|0:0,0:0:0:0:
266,74,186205,5,8,0:0:0:0:
355,136,186359,2,0,B|399:173|467:132|439:70,1,152.999995330811,8|0,0:1|1:0,0:0:0:0:
270,168,186820,2,0,B|232:204|222:275|277:320,2,152.999995330811,10|8|8,0:1|0:0|0:1,0:0:0:0:
270,168,187590,1,8,0:1:0:0:
367,123,187743,6,0,B|400:148|440:144,1,76.4999976654053,10|0,0:1|1:0,0:0:0:0:
438,144,187974,1,0,1:0:0:0:
438,144,188051,2,0,B|457:107|454:52,1,76.4999976654053,8|0,0:1|0:0,0:0:0:0:
408,7,188359,1,8,0:0:0:0:
256,93,188667,5,10,0:1:0:0:
247,17,188820,1,0,1:0:0:0:
144,137,189128,1,0,1:0:0:0:
100,73,189282,1,8,0:1:0:0:
66,147,189436,5,0,1:0:0:0:
66,147,189513,1,0,1:0:0:0:
66,147,189590,1,10,0:0:0:0:
179,68,189743,1,8,0:0:0:0:
277,185,189897,1,8,0:0:0:0:
207,338,190051,1,8,0:0:0:0:
122,302,190205,5,4,1:2:0:0:
256,192,195128,6,0,B|214:188|168:188,1,85,8|0,0:1|0:0,0:0:0:0:
166,265,195436,2,0,B|124:269|78:269,1,85,8|0,0:1|0:0,0:0:0:0:
256,192,195743,2,0,B|298:188|344:188,1,85,8|0,0:1|0:0,0:0:0:0:
346,265,196051,2,0,B|388:269|434:269,1,85,8|0,0:1|0:0,0:0:0:0:
500,171,196359,6,0,B|490:69,1,85,8|0,0:1|0:0,0:0:0:0:
356,17,196667,2,0,B|348:121,1,85,8|0,0:1|0:0,0:0:0:0:
162,101,196974,2,0,B|156:17,1,85,8|0,0:1|0:0,0:0:0:0:
20,86,197282,2,0,B|12:171,1,85,8|0,0:1|0:0,0:0:0:0:
95,270,197590,6,0,B|130:260|179:258,1,85,8|0,0:1|0:0,0:0:0:0:
319,376,197897,2,0,B|292:350|266:309,1,85,8|0,0:1|0:0,0:0:0:0:
299,130,198205,2,0,B|290:165|267:208,1,85,8|0,2:1|2:0,0:0:0:0:
179,258,198513,5,0,1:0:0:0:
174,258,198590,1,0,1:0:0:0:
169,258,198667,1,0,1:0:0:0:
164,259,198743,1,0,1:0:0:0:
159,259,198820,1,0,1:0:0:0:
154,260,198897,1,0,1:0:0:0:
150,261,198974,1,0,1:0:0:0:
145,262,199051,1,0,1:0:0:0:
141,264,199128,1,0,1:0:0:0:
137,265,199205,1,0,1:0:0:0:
132,266,199282,1,0,1:0:0:0:
127,267,199359,1,0,1:0:0:0:
122,267,199436,1,0,1:0:0:0:
117,267,199513,1,0,1:0:0:0:
112,266,199590,1,0,1:0:0:0:
108,264,199667,1,0,1:0:0:0:
104,261,199743,1,0,1:0:0:0:
101,257,199820,1,0,1:0:0:0:
99,252,199897,1,0,1:0:0:0:
98,247,199974,1,0,1:0:0:0:
0,63,200359,5,10,0:1:0:0:
76,119,200513,2,0,B|119:155|178:136|198:80,1,152.999995330811,10|0,0:1|0:0,0:0:0:0:
198,80,200820,2,0,B|118:64|75:167|135:218,1,203.999993774414,10|0,0:1|0:0,0:0:0:0:
288,258,201282,5,14,0:1:0:0:
79,288,201436,1,2,0:0:0:0:
272,382,201590,1,10,0:0:0:0:
79,288,201743,1,2,0:0:0:0:
354,332,201897,2,0,B|411:281|390:185|319:165,1,203.999993774414,10|10,0:1|0:0,0:0:0:0:
131,92,202359,5,2,0:0:0:0:
131,92,202436,1,2,0:0:0:0:
131,92,202513,2,0,B|116:199,1,101.999996887207,10|0,0:1|0:0,0:0:0:0:
336,64,202820,2,0,B|321:165,1,101.999996887207,10|8,0:0|0:1,0:0:0:0:
37,28,203128,2,0,B|22:129,1,101.999996887207,10|8,0:1|0:1,0:0:0:0:
242,0,203436,2,0,B|227:101,1,101.999996887207,10|0,0:0|0:0,0:0:0:0:
322,264,203743,5,10,0:1:0:0:
429,178,203897,1,2,0:0:0:0:
510,290,204051,1,10,0:0:0:0:
402,373,204205,1,2,0:0:0:0:
322,264,204359,2,0,B|300:208|328:148,1,101.999996887207,10|8,0:1|0:1,0:0:0:0:
131,1,204667,5,10,0:0:0:0:
131,1,204820,2,0,B|179:69|111:158|28:112,1,203.999993774414,2|8,0:0|0:1,0:0:0:0:
147,231,205282,1,10,0:0:0:0:
0,338,205436,1,10,0:1:0:0:
0,338,205743,2,0,B|-18:292|7:233,1,101.999996887207,10|8,0:1|0:0,0:0:0:0:
146,115,206051,6,0,B|191:95|258:113|233:145|279:162|341:153,1,203.999993774414,14|8,0:1|0:1,0:0:0:0:
512,107,206513,1,10,0:0:0:0:
377,58,206667,1,2,0:0:0:0:
480,192,206820,1,10,0:1:0:0:
377,326,206974,1,8,0:1:0:0:
377,326,207051,1,8,0:1:0:0:
377,326,207128,1,8,0:0:0:0:
256,240,207282,6,0,B|230:196|245:139|270:155|281:91|256:43,1,203.999993774414,14|8,0:1|0:1,0:0:0:0:
64,0,207743,1,10,0:0:0:0:
186,97,207897,1,2,0:0:0:0:
32,192,208051,1,10,0:1:0:0:
186,287,208205,1,8,0:1:0:0:
186,287,208282,1,8,0:1:0:0:
186,287,208359,1,8,0:0:0:0:
63,381,208513,6,0,B|12:334|4:265|33:192,1,203.999993774414,14|8,0:1|0:1,0:0:0:0:
141,17,208974,1,10,0:0:0:0:
141,17,209128,1,0,0:0:0:0:
326,143,209282,1,10,0:1:0:0:
371,17,209436,1,8,0:1:0:0:
186,143,209590,1,10,0:0:0:0:
141,17,209743,1,8,0:1:0:0:
338,157,209897,6,0,B|353:207|342:260,1,101.999996887207,10|8,0:2|0:1,0:0:0:0:
56,384,210205,1,14,0:0:0:0:
56,384,210359,2,0,B|41:334|52:281,1,101.999996887207,10|8,0:1|0:3,0:0:0:0:
122,107,210667,5,0,1:0:0:0:
110,142,210743,1,0,1:0:0:0:
119,177,210820,1,0,1:0:0:0:
144,206,210897,1,0,1:0:0:0:
178,217,210974,1,0,1:0:0:0:
215,216,211051,1,0,1:0:0:0:
247,196,211128,1,14,2:1:0:0:
291,60,211282,1,2,0:0:0:0:
431,150,211436,5,10,0:0:0:0:
387,286,211590,1,8,0:1:0:0:
237,181,211743,6,0,B|180:151|121:154,1,118.999996368408,10|8,0:0|0:1,0:0:0:0:
122,154,211974,1,8,0:1:0:0:
122,154,212051,1,8,0:0:0:0:
0,285,212205,5,10,0:1:0:0:
106,323,212359,2,0,B|164:326|221:296,1,118.999996368408,10|8,0:0|0:1,0:0:0:0:
324,140,212667,2,0,B|310:85|321:22,1,118.999996368408,10|8,0:0|0:1,0:0:0:0:
505,202,212974,2,0,B|519:257|508:320,1,118.999996368408,10|8,0:0|0:1,0:0:0:0:
507,320,213205,1,8,0:1:0:0:
507,320,213282,2,0,B|388:306,1,118.999996368408,10|8,0:0|0:1,0:0:0:0:
146,375,213590,5,14,0:0:0:0:
285,310,213743,1,10,0:1:0:0:
129,246,213897,1,10,0:0:0:0:
294,176,214051,1,10,0:1:0:0:
107,122,214205,2,0,B|74:70|103:6,1,118.999996368408,10|8,0:0|0:1,0:0:0:0:
102,8,214436,1,8,0:1:0:0:
102,8,214513,1,10,0:0:0:0:
337,62,214667,6,0,L|465:49,1,118.999996368408,10|8,0:1|0:3,0:0:0:0:
512,241,214974,1,0,1:0:0:0:
501,212,215051,1,0,1:0:0:0:
475,196,215128,1,0,1:0:0:0:
383,369,215282,1,10,0:1:0:0:
383,369,215590,2,0,B|373:267,1,101.999996887207,10|8,0:1|0:0,0:0:0:0:
268,131,215897,6,0,B|243:162|243:162|202:170|155:145|138:82|187:45,1,220.999989883423,14|8,0:1|0:1,0:0:0:0:
387,0,216359,1,10,0:0:0:0:
484,120,216513,1,10,0:1:0:0:
347,192,216667,1,10,0:1:0:0:
347,192,216820,1,8,0:1:0:0:
479,281,216974,1,8,0:0:0:0:
316,345,217128,6,0,B|208:371|208:371|96:321,1,220.999989883423,14|8,0:1|0:1,0:0:0:0:
0,192,217590,1,10,0:0:0:0:
18,367,217743,1,10,0:1:0:0:
99,202,217897,1,10,0:1:0:0:
99,202,218051,1,8,0:1:0:0:
216,290,218205,5,10,0:0:0:0:
307,215,218359,2,0,B|361:106|299:-3,1,220.999989883423,14|8,0:1|0:1,0:0:0:0:
188,107,218820,2,0,B|74:97,1,110.499994941712,10|0,0:0|0:0,0:0:0:0:
246,293,219128,2,0,B|292:324|352:304,1,110.499994941712,10|8,0:1|0:1,0:0:0:0:
512,153,219436,5,10,0:0:0:0:
403,129,219590,1,8,0:1:0:0:
350,327,219743,1,10,0:0:0:0:
459,351,219897,1,8,0:1:0:0:
286,169,220051,5,14,0:0:0:0:
209,289,220205,1,10,0:1:0:0:
89,212,220359,1,8,0:3:0:0:
166,92,220513,1,0,1:0:0:0:
178,116,220590,1,0,1:0:0:0:
197,136,220667,1,0,1:0:0:0:
222,148,220743,1,0,1:0:0:0:
249,151,220820,1,0,1:0:0:0:
276,145,220897,1,0,1:0:0:0:
299,130,220974,6,0,B|288:58|376:12|440:73,1,195.500003728867,14|10,0:1|0:0,0:0:0:0:
412,236,221436,1,2,1:0:0:0:
412,236,221513,1,0,1:0:0:0:
412,236,221590,2,0,B|456:256|513:234,1,97.7500018644333,8|0,0:1|0:0,0:0:0:0:
332,324,221897,2,0,B|282:302|234:318,1,97.7500018644333,10|0,0:0|0:0,0:0:0:0:
51,384,222205,5,10,0:1:0:0:
96,286,222359,1,8,0:1:0:0:
16,213,222513,1,10,0:0:0:0:
71,120,222667,1,2,1:0:0:0:
71,120,222743,1,0,1:0:0:0:
71,120,222820,2,0,B|86:21,1,97.7500018644333,8|8,0:1|0:1,0:0:0:0:
221,221,223128,2,0,B|235:317,1,97.7500018644333,8|0,0:0|0:0,0:0:0:0:
383,180,223436,6,0,B|446:239|527:171|472:101,1,195.500003728867,10|8,0:1|0:0,0:0:0:0:
339,0,223897,1,2,1:0:0:0:
339,0,223974,1,0,1:0:0:0:
339,0,224051,2,0,B|324:96,1,97.7500018644333,8|8,0:1|0:1,0:0:0:0:
235,317,224359,2,0,B|221:221,1,97.7500018644333,10|0,0:0|0:0,0:0:0:0:
156,73,224667,6,0,B|111:98|62:85,1,97.7500018644333,14|0,0:1|1:0,0:0:0:0:
61,84,224897,1,0,1:0:0:0:
61,84,224974,1,0,1:0:0:0:
133,233,225128,1,0,1:0:0:0:
133,233,225205,1,0,1:0:0:0:
133,233,225282,1,0,1:0:0:0:
74,371,225436,1,0,1:0:0:0:
74,371,225513,1,0,1:0:0:0:
74,371,225590,1,0,1:0:0:0:
10,249,225743,1,0,1:0:0:0:
10,249,225820,1,0,1:0:0:0:
10,249,225897,1,14,1:1:0:0:
161,67,226205,6,0,B|110:67|68:53,1,93.5000028533936,10|0,0:0|0:0,0:0:0:0:
256,0,226513,1,10,0:1:0:0:
351,67,226667,2,0,B|401:67|443:53,1,93.5000028533936,10|8,0:1|0:0,0:0:0:0:
267,167,226974,6,0,B|198:189|200:287|260:315,1,187.000005706787,10|8,0:1|0:1,0:0:0:0:
312,375,227436,1,10,0:0:0:0:
407,255,227590,2,0,B|304:243,1,93.5000028533936,2|8,0:0|0:1,0:0:0:0:
204,83,227897,1,10,0:1:0:0:
204,83,227974,1,8,0:1:0:0:
204,83,228051,2,0,B|307:71,1,93.5000028533936,8|0,0:0|0:0,0:0:0:0:
154,223,228359,6,0,B|184:287|127:359|57:321,2,187.000005706787,10|8|8,0:1|0:0|0:1,0:0:0:0:
53,113,229128,2,0,B|34:67|56:15,1,93.5000028533936,10|8,0:1|0:0,0:0:0:0:
233,76,229436,2,0,B|270:43|327:48,1,93.5000028533936,10|0,0:1|0:0,0:0:0:0:
466,130,229743,5,10,0:1:0:0:
387,170,229897,1,8,0:0:0:0:
504,237,230051,2,0,B|539:143|488:52,1,187.000005706787,2|8,0:0|0:1,0:0:0:0:
373,0,230513,2,0,B|368:53|336:86,1,93.5000028533936,10|0,0:0|0:0,0:0:0:0:
204,171,230820,6,0,B|128:115|17:145,1,187.000005706787,14|8,0:1|0:0,0:0:0:0:
0,216,231282,1,0,0:0:0:0:
169,302,231436,1,10,0:1:0:0:
98,370,231590,2,0,B|75:335|83:276,1,93.5000028533936,2|8,0:0|0:0,0:0:0:0:
204,171,231897,6,0,B|284:204|340:144|319:74,1,187.000005706787,2|8,0:0|0:1,0:0:0:0:
273,5,232359,1,10,0:0:0:0:
127,90,232513,2,0,B|222:84,1,93.5000028533936,2|8,0:0|0:1,0:0:0:0:
410,148,232820,1,10,0:1:0:0:
410,148,232897,1,8,0:1:0:0:
410,148,232974,2,0,B|420:109|407:53,1,93.5000028533936,8|0,0:0|0:0,0:0:0:0:
242,200,233282,6,0,B|186:285|234:385,2,187.000005706787,10|8|8,0:1|0:0|0:1,0:0:0:0:
410,148,234051,2,0,B|460:156|500:130,1,93.5000028533936,10|8,0:1|0:0,0:0:0:0:
322,41,234359,2,0,B|281:18|231:23,1,93.5000028533936,10|0,0:1|0:0,0:0:0:0:
44,64,234667,5,2,0:0:0:0:
117,209,234820,1,14,0:0:0:0:
0,253,234974,2,0,B|-10:204|12:161,1,93.5000028533936,10|8,0:1|0:3,0:0:0:0:
133,56,235282,5,0,1:0:0:0:
133,56,235359,1,0,1:0:0:0:
133,56,235436,1,0,1:0:0:0:
256,192,235590,5,0,1:0:0:0:
256,192,235667,1,0,1:0:0:0:
256,192,235743,1,14,1:1:0:0:
512,79,236051,5,10,0:0:0:0:
432,199,236205,1,8,0:1:0:0:
313,119,236359,1,10,0:3:0:0:
393,0,236513,1,2,1:0:0:0:
393,0,236590,1,0,1:0:0:0:
393,0,236667,1,8,0:0:0:0:
512,79,236820,6,0,B|534:127|515:185,1,101.999996887207,10|8,0:1|0:0,0:0:0:0:
389,286,237128,1,10,0:1:0:0:
389,286,237282,1,8,0:1:0:0:
300,148,237436,5,10,0:0:0:0:
269,374,237590,1,12,0:0:0:0:
216,231,237743,1,8,0:3:0:0:
71,336,237897,6,0,B|116:346|171:325,1,101.999996887207,6|0,0:3|1:0,0:0:0:0:
170,325,238128,1,0,1:0:0:0:
192,320,238205,1,8,1:2:0:0:
34,226,238359,5,8,2:3:0:0:
34,226,238436,1,8,2:3:0:0:
56,221,238513,1,8,2:3:0:0:
153,148,238667,5,4,0:3:0:0:
153,148,238743,1,4,0:3:0:0:
153,148,238820,2,0,B|165:97|153:44,1,101.999996887207,14|0,0:1|0:0,0:0:0:0:
34,226,239128,2,0,B|22:277|34:330,1,101.999996887207,10|8,0:0|0:1,0:0:0:0:
184,384,239436,5,10,0:3:0:0:
247,283,239590,1,0,1:0:0:0:
247,283,239667,1,0,1:0:0:0:
247,283,239743,1,8,2:2:0:0:
309,174,239897,5,10,0:1:0:0:
392,322,240051,1,8,0:0:0:0:
478,176,240205,1,8,0:1:0:0:
385,122,240359,5,10,0:1:0:0:
332,258,240513,1,10,0:0:0:0:
193,206,240667,1,14,0:2:0:0:
246,69,240820,1,10,0:3:0:0:
309,174,240974,5,6,0:3:0:0:
185,250,241128,5,0,1:0:0:0:
185,250,241205,1,0,1:0:0:0:
185,250,241282,1,0,1:0:0:0:
295,318,241436,5,0,1:0:0:0:
321,308,241513,5,0,1:0:0:0:
344,311,241590,5,0,1:0:0:0:
358,322,241667,5,0,1:0:0:0:
363,335,241743,5,0,1:0:0:0:
362,345,241820,5,0,1:0:0:0:
