osu file format v14

[General]
AudioFilename: audio.mp3
AudioLeadIn: 0
PreviewTime: 49820
Countdown: 0
SampleSet: Soft
StackLeniency: 0.7
Mode: 0
LetterboxInBreaks: 0
WidescreenStoryboard: 1

[Editor]
DistanceSpacing: 1
BeatDivisor: 4
GridSize: 32
TimelineZoom: 1.7

[Metadata]
Title:affection
TitleUnicode:affection
Artist:solfa feat. KOTOKO
ArtistUnicode:solfa feat. KOTOKO
Creator:Lasse
Version:Easy
Source:リーシャル・マージ
Tags:ImpurePug AXL Racial Merge visual novel eroge opening full version japanese rock pop chronicle marine stage 橋咲透 Tooru Hashizaki
BeatmapID:2429389
BeatmapSetID:1160766

[Difficulty]
HPDrainRate:2
CircleSize:3.2
OverallDifficulty:3.6
ApproachRate:5
SliderMultiplier:0.799999999999999
SliderTickRate:1

[Events]
//Background and Video events
0,0,"e.jpg",0,0
//Break Periods
2,47635,48697
2,123943,125005
2,153482,159467
2,190405,193928
//Storyboard Layer 0 (Background)
//Storyboard Layer 1 (Fail)
//Storyboard Layer 2 (Pass)
//Storyboard Layer 3 (Foreground)
//Storyboard Layer 4 (Overlay)
//Storyboard Sound Samples

[TimingPoints]
667,307.692307692308,4,2,34,40,1,0
667,-125,4,2,34,40,0,0
5282,-125,4,2,34,42,0,0
5590,-125,4,2,34,44,0,0
5897,-125,4,2,34,46,0,0
6205,-125,4,2,34,48,0,0
6513,-125,4,2,34,50,0,0
6820,-125,4,2,34,52,0,0
7128,-125,4,2,34,54,0,0
7436,-125,4,2,34,40,0,0
7743,-125,4,2,34,58,0,0
7897,-125,4,2,34,5,0,0
8051,-100,4,2,34,70,0,0
17897,-111.111111111111,4,2,34,65,0,0
18205,-111.111111111111,4,2,34,60,0,0
27743,-111.111111111111,4,2,34,62,0,0
37590,-100,4,2,34,64,0,0
42513,-99.9999999999999,4,2,34,66,0,0
45897,-99.9999999999999,4,2,34,68,0,0
46205,-99.9999999999999,4,2,34,70,0,0
46667,-99.9999999999999,4,2,34,72,0,0
47128,-99.9999999999999,4,2,34,74,0,0
47436,-100,4,2,34,50,0,0
48051,-133.333333333333,4,2,34,52,0,0
48667,-133.333333333333,4,2,34,54,0,0
49282,-133.333333333333,4,2,34,50,0,0
49897,-90.9090909090909,4,2,34,78,0,1
69590,-100,4,2,34,70,0,1
73282,-100,4,2,34,72,0,1
74513,-100,4,2,34,72,0,0
84359,-95.2380952380952,4,2,34,75,0,0
94205,-111.111111111111,4,2,34,60,0,0
104051,-111.111111111111,4,2,34,62,0,0
113897,-100,4,2,34,64,0,0
118820,-100,4,2,34,66,0,0
122205,-100,4,2,34,68,0,0
122513,-100,4,2,34,70,0,0
122974,-100,4,2,34,72,0,0
123436,-100,4,2,34,74,0,0
123743,-100,4,2,34,50,0,0
124359,-133.333333333333,4,2,34,52,0,0
124974,-133.333333333333,4,2,34,54,0,0
125590,-133.333333333333,4,2,34,50,0,0
126205,-83.3333333333333,4,2,34,78,0,1
126436,-90.9090909090909,4,2,34,40,0,1
126513,-90.9090909090909,4,2,34,78,0,1
138743,-90.9090909090909,4,2,34,40,0,1
138820,-90.9090909090909,4,2,34,78,0,1
145897,-100,4,2,34,70,0,1
150820,-90.9090909090909,4,2,34,70,0,0
150897,-90.9090909090909,4,2,34,40,0,0
151436,-90.9090909090909,4,2,34,35,0,0
152051,-90.9090909090909,4,2,34,30,0,0
152667,-90.9090909090909,4,2,34,25,0,0
152974,-90.9090909090909,4,2,34,20,0,0
153282,-90.9090909090909,4,2,99,32,0,0
160667,-111.111111111111,4,2,34,48,0,0
169897,-111.111111111111,4,2,34,50,0,0
170513,-111.111111111111,4,2,34,52,0,0
180359,-111.111111111111,4,2,34,54,0,0
185282,-111.111111111111,4,2,34,56,0,0
189590,-111.111111111111,4,2,34,58,0,0
189743,-111.111111111111,4,2,34,60,0,0
189897,-111.111111111111,4,2,34,62,0,0
190051,-111.111111111111,4,2,34,64,0,0
190205,-100,4,2,99,50,0,0
195128,-100,4,2,34,50,0,0
196359,-100,4,2,34,55,0,0
197590,-100,4,2,34,60,0,0
198513,-111.111111111111,4,2,34,50,0,0
198590,-111.111111111111,4,2,34,51,0,0
198667,-111.111111111111,4,2,34,52,0,0
198743,-111.111111111111,4,2,34,53,0,0
198820,-111.111111111111,4,2,34,54,0,0
198897,-111.111111111111,4,2,34,55,0,0
198974,-111.111111111111,4,2,34,56,0,0
199051,-111.111111111111,4,2,34,57,0,0
199128,-111.111111111111,4,2,34,58,0,0
199205,-111.111111111111,4,2,34,59,0,0
199282,-111.111111111111,4,2,34,60,0,0
199359,-111.111111111111,4,2,34,61,0,0
199436,-111.111111111111,4,2,34,62,0,0
199513,-111.111111111111,4,2,34,63,0,0
199590,-111.111111111111,4,2,34,64,0,0
199667,-111.111111111111,4,2,34,65,0,0
199743,-111.111111111111,4,2,34,66,0,0
199820,-111.111111111111,4,2,34,67,0,0
199897,-111.111111111111,4,2,34,68,0,0
199974,-111.111111111111,4,2,34,69,0,0
200359,-111.111111111111,4,2,34,70,0,0
200513,-111.111111111111,4,2,34,72,0,0
200743,-111.111111111111,4,2,34,40,0,0
200820,-111.111111111111,4,2,34,74,0,0
201128,-111.111111111111,4,2,34,50,0,0
201282,-90.9090909090909,4,2,34,78,0,1
211128,-84.7457627118644,4,2,34,80,0,1
215590,-90.9090909090909,4,2,34,78,0,1
215897,-90.9090909090909,4,2,34,78,0,1
220974,-100,4,2,34,70,0,1
225897,-100,4,2,34,74,0,0
235743,-100,4,2,34,76,0,0

[Colours]
Combo1 : 250,180,240
Combo2 : 120,200,230
Combo3 : 255,230,130
Combo4 : 160,230,150

[HitObjects]
91,230,667,6,0,P|78:183|96:131,1,95.9999999999999,2|2,0:0|0:0,0:0:0:0:
222,47,1897,2,0,L|317:55,1,95.9999999999999,2|2,0:0|0:0,0:0:0:0:
441,156,3128,2,0,P|454:203|436:255,1,95.9999999999999,2|2,0:0|0:0,0:0:0:0:
310,339,4359,2,0,L|215:331,1,95.9999999999999,2|2,0:0|0:0,0:0:0:0:
256,192,5282,12,2,6820,0:0:0:0:
40,136,8051,6,0,L|28:49,2,79.9999999999999,14|10|10,0:1|0:0|0:1,0:0:0:0:
103,237,9128,2,0,B|140:252|188:233,1,79.9999999999999,10|8,0:1|0:1,0:0:0:0:
253,200,9743,1,2,0:0:0:0:
278,124,10051,1,10,0:1:0:0:
361,37,10513,6,0,B|397:22|452:38,1,79.9999999999999,10|8,0:1|0:0,0:0:0:0:
495,91,11128,1,10,0:1:0:0:
500,211,11590,2,0,L|487:292,1,79.9999999999999,10|10,0:1|0:1,0:0:0:0:
457,364,12205,1,2,0:0:0:0:
377,359,12513,1,10,0:1:0:0:
286,280,12974,6,0,B|280:261|280:261|283:239|283:239|273:196,2,79.9999999999999,14|8|10,0:1|0:0|0:1,0:0:0:0:
188,350,14051,2,0,B|150:356|97:337,1,79.9999999999999,2|8,0:0|0:1,0:0:0:0:
35,308,14667,1,2,0:0:0:0:
37,228,14974,1,10,0:1:0:0:
123,148,15436,6,0,L|211:136,1,79.9999999999999,10|8,0:1|0:0,0:0:0:0:
279,156,16051,1,10,0:1:0:0:
391,198,16513,2,0,B|405:171|405:171|405:153|405:153|424:110,2,79.9999999999999,10|10|10,0:1|0:1|0:1,0:0:0:0:
387,277,17436,2,0,B|392:323|374:355|374:355|332:361,1,120,0|14,1:0|1:1,0:0:0:0:
252,346,18205,6,0,B|220:330|172:334,1,71.9999978027344,10|10,0:0|0:1,0:0:0:0:
83,377,18974,2,0,B|56:324|102:258|102:258|75:225|83:166,1,215.999993408203,10|10,0:1|0:1,0:0:0:0:
144,121,20205,2,0,B|163:172|234:179|268:143,2,143.999995605469,2|2|8,0:0|0:0|0:1,0:0:0:0:
277,7,22205,1,10,0:1:0:0:
424,75,22820,6,0,B|469:141|451:252,1,179.999994506836,14|10,0:1|0:1,0:0:0:0:
424,327,23897,2,0,B|351:365|294:297|294:297|304:263|298:216,1,215.999993408203,10|10,0:1|0:1,0:0:0:0:
240,170,25128,2,0,B|226:124|254:81|254:81|234:26|178:20,1,179.999994506836,2|10,0:0|0:1,0:0:0:0:
44,49,26513,2,0,B|18:79|13:116|32:163,1,107.999996704102,2|2,0:0|0:0,0:0:0:0:
127,299,27743,6,0,B|159:284|208:287,1,71.9999978027344,14|10,0:1|0:0,0:0:0:0:
276,305,28359,1,10,0:1:0:0:
348,224,28820,2,0,B|321:192|314:131|349:79,1,143.999995605469,10|2,0:1|0:0,0:0:0:0:
405,35,29743,1,10,0:1:0:0:
478,72,30051,2,0,B|515:123|507:171|507:171|513:179|513:179|531:240|486:307,1,251.99999230957,2|10,0:0|0:0,0:0:0:0:
279,368,32051,5,10,0:1:0:0:
251,226,32667,2,0,B|241:195|241:195|247:169|247:169|233:118,1,107.999996704102,14|2,0:1|0:0,0:0:0:0:
181,64,33436,1,10,0:1:0:0:
81,107,33897,2,0,B|31:139|16:219|44:270,1,179.999994506836,10|10,0:1|0:1,0:0:0:0:
90,333,34974,2,0,B|170:299|273:321,1,179.999994506836,2|10,0:0|0:1,0:0:0:0:
365,358,36205,2,0,B|395:388|434:373|434:373|465:341,1,107.999996704102,10|0,0:1|1:0,0:0:0:0:
500,283,36974,2,0,L|477:132,1,143.999995605469,0|14,1:3|2:1,0:0:0:0:
361,21,38205,5,10,0:1:0:0:
213,71,38820,2,0,B|146:76|91:57,2,120,2|2|10,0:0|0:0|0:0,0:0:0:0:
286,103,40051,2,0,B|324:147|317:213|275:250,1,160,10|8,0:1|0:1,0:0:0:0:
207,285,40974,1,10,0:0:0:0:
139,241,41282,2,0,B|99:226|51:232,2,79.9999999999999,2|8|8,0:0|0:0|0:3,0:0:0:0:
252,354,42513,1,14,0:1:0:0:
411,338,43128,6,0,B|449:261|412:180,1,160,10|2,0:1|0:0,0:0:0:0:
357,77,44205,1,2,0:0:0:0:
250,133,44667,1,10,0:0:0:0:
194,75,44974,2,0,B|153:37|87:35|40:78,1,160,10|8,0:1|0:1,0:0:0:0:
0,137,45897,1,10,0:0:0:0:
33,209,46205,6,0,B|82:241|154:213,1,120,10|10,0:0|0:3,0:0:0:0:
253,157,47128,2,0,L|261:69,1,79.9999999999999,14|14,0:0|0:1,0:0:0:0:
226,332,49897,5,14,0:1:0:0:
312,315,50205,1,10,0:0:0:0:
389,357,50513,2,0,L|485:340,1,88.0000026855468,10|8,0:1|0:0,0:0:0:0:
497,303,50974,2,0,B|511:277|506:259|506:259|475:232|471:179|471:179|434:215|392:216|392:216|398:171|356:131,1,308.000009399414,2|10,0:0|0:0,0:0:0:0:
281,96,52359,5,10,0:1:0:0:
229,167,52667,1,10,0:0:0:0:
162,110,52974,2,0,B|103:72|34:83,2,132.00000402832,10|2|10,0:1|0:0|0:0,0:0:0:0:
259,307,54667,6,0,B|311:344|387:334,1,132.00000402832,14|10,0:1|0:0,0:0:0:0:
470,313,55436,1,10,0:1:0:0:
508,186,55897,2,0,B|504:118|466:57,1,132.00000402832,14|10,0:1|0:0,0:0:0:0:
397,9,56667,1,10,0:1:0:0:
341,128,57128,6,0,L|327:280,1,132.00000402832,14|10,0:1|0:0,0:0:0:0:
312,346,57897,1,10,0:1:0:0:
231,381,58205,1,10,0:0:0:0:
144,364,58513,1,10,0:0:0:0:
90,294,58820,2,0,L|81:196,1,88.0000026855468,14|8,0:0|0:0,0:0:0:0:
69,30,59743,5,14,2:1:0:0:
147,70,60051,1,10,0:0:0:0:
230,41,60359,2,0,B|273:27|326:24,1,88.0000026855468,10|8,0:1|0:0,0:0:0:0:
359,33,60820,2,0,B|378:51|377:76|377:76|422:93|455:62|455:62|454:108|489:138|489:138|459:183|478:231,1,308.000009399414,2|10,0:0|0:0,0:0:0:0:
512,312,62205,5,10,0:1:0:0:
442,366,62513,1,10,0:0:0:0:
362,328,62820,2,0,B|322:298|274:292|233:304,2,132.00000402832,10|2|10,0:1|0:0|0:0,0:0:0:0:
485,145,64513,6,0,B|510:104|479:49|430:54,1,132.00000402832,14|10,0:1|0:0,0:0:0:0:
344,76,65282,1,10,0:1:0:0:
312,203,65743,2,0,B|285:245|230:249|199:208,1,132.00000402832,14|10,0:1|0:0,0:0:0:0:
143,142,66513,2,0,B|154:108|143:77|111:54,1,88.0000026855468,10|10,0:1|0:0,0:0:0:0:
78,52,66974,2,0,B|13:86|-3:179|34:250,1,220.000006713867,14|10,0:1|0:1,0:0:0:0:
93,317,68051,5,10,0:0:0:0:
180,302,68359,1,10,0:0:0:0:
254,347,68667,2,0,B|294:364|294:364|348:354,1,88.0000026855468,14|8,0:0|0:3,0:0:0:0:
477,277,69590,6,0,B|462:154,1,120,14|2,0:1|1:0,0:0:0:0:
393,59,70513,1,10,0:0:0:0:
347,124,70820,2,0,B|332:243,1,120,10|2,0:1|1:0,0:0:0:0:
172,363,72051,6,0,B|102:387|61:340,1,120,10|2,0:1|1:0,0:0:0:0:
3,236,72974,1,10,0:0:0:0:
50,171,73282,2,0,L|33:47,2,120,14|0|0,0:1|1:0|1:0,0:0:0:0:
121,217,74513,6,0,B|162:225|205:200,1,79.9999999999999,14|10,1:1|0:0,0:0:0:0:
265,159,75128,1,10,0:1:0:0:
339,65,75590,2,0,B|367:38|417:34,1,79.9999999999999,10|8,0:1|0:1,0:0:0:0:
490,48,76205,1,2,0:0:0:0:
510,125,76513,1,10,0:1:0:0:
460,234,76974,6,0,B|372:217,1,79.9999999999999,10|8,0:1|0:0,0:0:0:0:
305,245,77590,1,10,0:1:0:0:
235,146,78051,2,0,L|222:65,1,79.9999999999999,8|10,0:1|2:1,0:0:0:0:
150,30,78667,1,2,0:0:0:0:
69,32,78974,1,10,0:1:0:0:
26,143,79436,6,0,B|20:162|20:162|25:191|25:191|13:227,2,79.9999999999999,14|8|10,0:1|0:0|0:1,0:0:0:0:
111,58,80513,2,0,B|145:46|202:45,1,79.9999999999999,10|8,0:1|0:1,0:0:0:0:
262,79,81128,1,2,0:0:0:0:
333,44,81436,1,10,0:1:0:0:
430,113,81897,6,0,B|435:153|423:198,1,79.9999999999999,10|8,0:1|0:0,0:0:0:0:
381,260,82513,1,10,0:1:0:0:
279,323,82974,2,0,B|249:319|249:319|236:324|236:324|191:317,1,79.9999999999999,10|10,0:1|0:1,0:0:0:0:
140,371,83590,2,0,B|110:375|110:375|97:370|97:370|52:377,1,79.9999999999999,2|0,0:0|1:0,0:0:0:0:
7,261,84359,6,0,B|0:216|21:179,1,83.9999974365234,14|10,1:1|0:0,0:0:0:0:
73,113,84974,1,10,0:1:0:0:
150,145,85282,1,10,0:0:0:0:
215,92,85590,2,0,B|248:71|302:64|344:88,1,125.999996154785,10|2,0:1|0:0,0:0:0:0:
477,239,86820,6,0,L|492:324,2,83.9999974365234,10|10|10,0:1|0:0|0:1,0:0:0:0:
455,157,87743,1,8,0:0:0:0:
408,87,88051,2,0,B|350:51|285:68,1,125.999996154785,10|2,0:1|0:0,0:0:0:0:
187,146,88974,1,10,0:0:0:0:
109,112,89282,2,0,B|82:79|91:23,2,83.9999974365234,14|10|8,0:1|0:0|0:1,0:0:0:0:
295,281,90820,5,10,0:0:0:0:
375,257,91128,2,0,B|437:242|514:253,2,125.999996154785,10|2|8,0:1|0:0|0:0,0:0:0:0:
230,342,92667,2,0,B|144:371|47:348,1,167.999994873047,10|14,0:0|0:0,0:0:0:0:
13,284,93590,2,0,L|35:111,1,167.999994873047,8|14,0:3|1:1,0:0:0:0:
97,67,94513,6,0,B|129:83|180:79,1,71.9999978027344,10|10,0:0|0:1,0:0:0:0:
272,53,95282,2,0,B|331:35|391:72|391:72|401:117|362:169,1,215.999993408203,10|10,0:1|0:1,0:0:0:0:
304,204,96513,2,0,B|240:177|160:186,2,143.999995605469,2|2|10,0:0|0:0|0:1,0:0:0:0:
420,341,98513,1,10,0:1:0:0:
477,208,99128,6,0,B|497:103|497:103|482:64|438:53,1,179.999994506836,14|10,0:1|0:1,0:0:0:0:
367,74,100205,2,0,B|334:149|249:133|249:133|233:99|203:67,1,215.999993408203,10|10,0:1|0:1,0:0:0:0:
139,36,101436,2,0,B|79:32|53:95|53:95|77:166,1,179.999994506836,10|10,0:1|0:1,0:0:0:0:
192,241,102820,2,0,B|222:215|259:210|306:229,1,107.999996704102,10|10,0:1|0:1,0:0:0:0:
170,355,104051,6,0,B|131:357|99:342,1,71.9999978027344,14|10,0:1|0:0,0:0:0:0:
31,302,104667,1,10,0:1:0:0:
7,196,105128,2,0,B|32:52,1,143.999995605469,10|2,0:1|0:0,0:0:0:0:
108,28,106051,1,10,0:1:0:0:
177,70,106359,2,0,B|186:80|192:103|192:103|222:125|257:114|257:114|269:117|269:117|311:62|401:72,1,251.99999230957,2|10,0:0|0:0,0:0:0:0:
499,256,108359,5,10,0:1:0:0:
388,348,108974,2,0,B|351:372|315:361|295:316,1,107.999996704102,14|2,0:1|0:0,0:0:0:0:
267,248,109743,1,10,0:1:0:0:
232,144,110205,2,0,B|200:88|137:64|76:94,1,179.999994506836,2|10,0:0|0:1,0:0:0:0:
15,144,111282,2,0,B|31:204|31:204|14:248|14:248|34:323,1,179.999994506836,10|10,0:1|0:1,0:0:0:0:
132,357,112513,2,0,B|172:324|233:329,1,107.999996704102,10|0,0:1|1:0,0:0:0:0:
315,348,113282,2,0,B|390:376|443:310,1,143.999995605469,0|14,1:0|2:1,0:0:0:0:
508,164,114513,5,10,0:1:0:0:
396,49,115128,2,0,B|339:22|276:27,2,120,2|2|10,0:0|0:0|0:0,0:0:0:0:
445,111,116359,2,0,L|463:279,1,160,10|8,0:1|0:1,0:0:0:0:
416,335,117282,1,10,0:0:0:0:
344,298,117590,2,0,B|346:216,2,79.9999999999999,2|10|10,0:0|0:0|0:3,0:0:0:0:
205,377,118820,1,14,0:1:0:0:
61,306,119436,6,0,B|23:232|60:148,1,160,10|2,0:1|0:1,0:0:0:0:
145,69,120513,1,2,0:0:0:0:
250,126,120974,1,10,0:0:0:0:
309,72,121282,2,0,B|377:33|377:33|445:76,1,160,10|8,0:1|0:1,0:0:0:0:
498,136,122205,1,10,0:0:0:0:
461,207,122513,6,0,B|409:237|409:237|340:211,1,120,14|10,0:0|0:3,0:0:0:0:
258,141,123436,2,0,B|262:104|262:104|251:60,1,79.9999999999999,14|14,0:0|0:1,0:0:0:0:
308,331,126205,5,14,0:1:0:0:
224,301,126513,1,10,0:0:0:0:
152,352,126820,2,0,B|106:354|56:335,1,88.0000026855468,10|10,0:1|0:0,0:0:0:0:
35,306,127282,2,0,B|17:268|17:268|53:244|59:192|59:192|103:183|131:148|131:148|93:118|97:63,1,308.000009399414,2|10,0:0|0:0,0:0:0:0:
171,20,128667,5,10,0:1:0:0:
247,63,128974,1,10,0:0:0:0:
332,43,129282,2,0,B|393:22|468:35,2,132.00000402832,10|2|10,0:1|0:0|0:0,0:0:0:0:
256,250,130974,6,0,B|266:303|243:341|243:341|188:360,1,132.00000402832,14|10,0:1|0:0,0:0:0:0:
119,358,131743,1,8,0:1:0:0:
21,269,132205,2,0,B|4:211|27:126,1,132.00000402832,14|10,0:1|0:0,0:0:0:0:
73,65,132974,1,10,0:1:0:0:
186,131,133436,6,0,B|249:153|313:121,1,132.00000402832,14|10,0:1|0:0,0:0:0:0:
383,66,134205,1,10,0:1:0:0:
470,78,134513,1,10,0:0:0:0:
502,160,134820,1,10,0:0:0:0:
474,243,135128,2,0,L|465:341,1,88.0000026855468,14|8,0:0|0:0,0:0:0:0:
295,374,136051,5,14,0:1:0:0:
248,299,136359,1,10,0:0:0:0:
302,229,136667,2,0,B|311:190|303:139,1,88.0000026855468,2|8,0:1|0:0,0:0:0:0:
283,102,137128,2,0,B|269:86|244:85|244:85|236:130|200:157|200:157|183:107|126:98|126:98|130:141|88:177,1,308.000009399414,2|10,0:0|0:0,0:0:0:0:
20,210,138513,5,10,0:1:0:0:
6,297,138820,1,10,0:0:0:0:
77,348,139128,2,0,B|218:362,2,132.00000402832,10|2|10,0:1|0:0|0:0,0:0:0:0:
13,137,140820,6,0,B|0:108|0:108|0:63|63:33,1,132.00000402832,14|10,0:1|0:0,0:0:0:0:
147,28,141590,1,10,0:1:0:0:
235,125,142051,2,0,B|249:271,1,132.00000402832,14|10,0:1|0:0,0:0:0:0:
291,333,142820,2,0,B|327:360|386:341,1,88.0000026855468,10|10,0:1|0:0,0:0:0:0:
416,329,143282,2,0,B|422:306|437:284|437:284|422:258|424:235|424:235|458:203|464:115,1,220.000006713867,14|10,0:1|0:1,0:0:0:0:
428,44,144359,5,10,0:0:0:0:
347,80,144667,1,10,0:0:0:0:
268,40,144974,2,0,B|225:25|225:25|174:33,1,88.0000026855468,14|8,0:0|0:3,0:0:0:0:
46,114,145897,6,0,B|38:155|38:155|46:184|46:184|35:231,1,120,14|2,0:1|1:0,0:0:0:0:
8,348,146820,1,10,0:0:0:0:
85,366,147128,2,0,B|213:352,1,120,10|2,0:1|1:0,0:0:0:0:
286,170,148359,6,0,B|258:116|286:44,1,120,10|2,0:1|1:0,0:0:0:0:
395,12,149282,1,10,0:0:0:0:
453,66,149590,2,0,B|477:128|449:182,1,120,14|0,0:1|1:0,0:0:0:0:
391,237,150359,2,0,B|328:212|274:240,1,120,0|14,1:0|1:1,0:0:0:0:
256,192,150897,12,0,153282,0:0:0:0:
95,354,160667,6,0,B|53:323|40:272|69:223,1,143.999995605469,14|8,0:1|0:0,0:0:0:0:
107,156,161590,1,8,0:0:0:0:
256,288,162513,1,8,0:0:0:0:
379,214,163128,6,0,B|419:144|386:66,1,143.999995605469,10|10,0:1|0:0,0:0:0:0:
298,16,164205,2,0,L|219:9,1,71.9999978027344,0|0,1:0|1:0,0:0:0:0:
123,43,164974,1,8,0:0:0:0:
231,137,165590,6,0,B|381:125,1,143.999995605469,14|8,0:1|0:0,0:0:0:0:
450,151,166513,1,8,0:0:0:0:
505,359,167436,1,8,0:0:0:0:
364,326,168051,6,0,B|294:306|213:328,1,143.999995605469,10|10,0:1|0:0,0:0:0:0:
119,362,169128,2,0,B|64:367|44:331,1,71.9999978027344,0|0,1:0|1:0,0:0:0:0:
9,243,169897,1,8,3:2:0:0:
89,118,170513,6,0,B|155:95|155:95|241:114,1,143.999995605469,14|8,0:1|0:0,0:0:0:0:
279,176,171436,2,0,B|232:254|300:329|382:299,1,215.999993408203,10|8,0:0|0:0,0:0:0:0:
488,206,172974,6,0,L|470:135,1,71.9999978027344,8|10,0:1|0:1,0:0:0:0:
437,61,173590,1,10,0:0:0:0:
370,107,173897,2,0,B|228:137|309:49|161:79,1,215.999993408203,2|8,0:0|0:0,0:0:0:0:
58,165,175436,6,0,L|69:251,1,71.9999978027344,14|0,0:1|0:0,0:0:0:0:
75,316,176051,1,10,0:0:0:0:
145,353,176359,2,0,L|259:362,2,107.999996704102,10|0|8,0:0|1:0|0:0,0:0:0:0:
38,256,177897,6,0,B|11:215|9:162|43:112,1,143.999995605469,8|8,0:1|0:0,0:0:0:0:
128,61,178974,2,0,B|170:101|251:4|305:51,1,179.999994506836,0|8,1:0|3:2,0:0:0:0:
389,158,180359,6,0,B|412:235|386:315,1,143.999995605469,14|8,0:1|0:0,0:0:0:0:
330,356,181282,2,0,B|288:374|288:374|206:324|243:226,1,215.999993408203,10|8,0:0|0:0,0:0:0:0:
369,155,182820,6,0,B|402:164|402:164|440:148,1,71.9999978027344,8|2,0:1|0:0,0:0:0:0:
459,73,183436,1,10,0:0:0:0:
393,25,183743,2,0,B|260:-5|326:91|186:64,1,215.999993408203,2|8,0:0|0:0,0:0:0:0:
52,28,185282,6,0,B|36:59|36:59|42:107,1,71.9999978027344,14|2,0:1|0:0,0:0:0:0:
78,168,185897,2,0,B|188:162,1,107.999996704102,10|8,0:0|0:1,0:0:0:0:
281,212,186820,2,0,L|290:292,1,71.9999978027344,10|8,0:1|0:0,0:0:0:0:
414,368,187743,6,0,B|466:381|507:324|475:275,1,143.999995605469,10|8,0:1|0:0,0:0:0:0:
394,156,188974,2,0,B|320:144,1,71.9999978027344,2|8,0:0|0:1,0:0:0:0:
258,96,189590,2,0,L|247:23,2,71.9999978027344,10|8|4,0:0|0:0|1:2,0:0:0:0:
112,59,195128,6,0,L|21:55,2,79.9999999999999,10|8|8,0:1|0:1|0:1,0:0:0:0:
256,127,196359,2,0,L|347:123,2,79.9999999999999,10|8|8,0:1|0:1|0:1,0:0:0:0:
139,237,197590,2,0,L|48:233,2,79.9999999999999,10|8|8,0:1|0:1|2:1,0:0:0:0:
196,299,198513,6,0,B|253:382|375:385|449:298|447:221,1,341.999989562988,2|0,1:2|1:0,0:0:0:0:
398,148,200359,6,0,B|373:140|373:140|347:155|347:155|287:134,1,107.999996704102,10|10,0:1|0:1,0:0:0:0:
173,93,201282,5,14,0:1:0:0:
116,25,201590,1,10,0:0:0:0:
46,79,201897,2,0,B|21:120|25:163,1,88.0000026855468,10|10,0:1|0:0,0:0:0:0:
42,203,202359,2,0,B|62:242|62:242|102:245|137:284|137:284|188:258|195:222|195:222|238:206|286:231,1,308.000009399414,2|10,0:0|0:0,0:0:0:0:
352,278,203743,5,10,0:1:0:0:
421,332,204051,1,10,0:0:0:0:
495,285,204359,2,0,B|522:226|499:152,2,132.00000402832,10|2|10,0:1|0:0|0:0,0:0:0:0:
289,363,206051,6,0,B|233:331|161:336,1,132.00000402832,14|10,0:1|0:0,0:0:0:0:
76,358,206820,1,10,0:1:0:0:
3,247,207282,2,0,B|-3:176|26:114,1,132.00000402832,14|10,0:1|0:0,0:0:0:0:
82,51,208051,1,10,0:1:0:0:
191,124,208513,6,0,B|203:265,1,132.00000402832,14|10,0:1|0:0,0:0:0:0:
240,334,209282,1,10,0:1:0:0:
321,368,209590,1,10,0:0:0:0:
408,354,209897,1,10,0:2:0:0:
470,292,210205,2,0,B|481:250|481:250|470:206,1,88.0000026855468,14|8,0:0|0:3,0:0:0:0:
398,31,211128,5,14,2:1:0:0:
325,91,211436,1,10,0:0:0:0:
239,51,211743,2,0,B|196:32|143:34,1,94.3999966870117,10|8,0:0|0:0,0:0:0:0:
107,59,212205,2,0,B|107:85|96:105|96:105|109:151|169:147|169:147|140:197|163:240|163:240|135:290|156:328,1,330.399988404541,10|10,0:1|0:0,0:0:0:0:
237,375,213590,5,14,0:0:0:0:
322,334,213897,1,10,0:0:0:0:
407,374,214205,2,0,B|462:380|486:336,1,94.3999966870117,10|10,0:0|0:0,0:0:0:0:
494,289,214667,2,0,L|465:135,1,141.599995030518,10|0,0:1|1:0,0:0:0:0:
286,25,215897,6,0,B|296:71|256:109|204:93,1,132.00000402832,14|10,0:1|0:0,0:0:0:0:
121,62,216667,1,10,0:1:0:0:
27,154,217128,2,0,B|-3:196|0:243|30:280,1,132.00000402832,14|10,0:1|0:0,0:0:0:0:
97,330,217897,2,0,B|111:308|142:297|176:308,1,88.0000026855468,10|10,0:1|0:0,0:0:0:0:
212,332,218359,2,0,B|275:373|372:351|406:286,1,220.000006713867,14|10,0:1|0:1,0:0:0:0:
407,200,219436,5,10,0:0:0:0:
461,130,219743,1,10,0:0:0:0:
418,52,220051,2,0,B|379:32|324:37,1,88.0000026855468,14|8,0:0|0:3,0:0:0:0:
211,141,220974,6,0,B|202:265,1,120,14|2,0:1|1:0,0:0:0:0:
136,361,221897,1,10,0:0:0:0:
70,314,222205,2,0,B|52:269|61:194,1,120,10|2,0:1|1:0,0:0:0:0:
194,44,223436,6,0,B|245:75|317:50,1,120,10|2,0:1|1:0,0:0:0:0:
422,10,224359,1,10,0:0:0:0:
473,71,224667,2,0,B|493:129|491:191,2,120,14|0|0,0:1|1:0|1:0,0:0:0:0:
404,24,225897,6,0,B|322:17,1,79.9999999999999,14|10,1:1|0:0,0:0:0:0:
258,60,226513,1,10,0:1:0:0:
292,175,226974,2,0,B|306:217|291:253,1,79.9999999999999,10|8,0:1|0:1,0:0:0:0:
255,325,227590,1,2,0:0:0:0:
183,360,227897,1,10,0:1:0:0:
77,303,228359,6,0,B|66:216,1,79.9999999999999,10|8,0:1|0:0,0:0:0:0:
52,144,228974,1,10,0:1:0:0:
128,51,229436,2,0,B|162:36|206:39,1,79.9999999999999,10|10,0:1|0:1,0:0:0:0:
282,65,230051,1,2,0:0:0:0:
357,40,230359,1,10,0:1:0:0:
461,100,230820,6,0,B|466:125|466:125|465:150|465:150|474:184,2,79.9999999999999,14|8|10,0:1|0:0|0:1,0:0:0:0:
363,29,231897,2,0,B|329:17|274:21,1,79.9999999999999,2|8,0:0|0:1,0:0:0:0:
207,45,232513,1,2,0:0:0:0:
231,121,232820,1,10,0:1:0:0:
164,220,233282,6,0,B|142:261|163:303,1,79.9999999999999,10|8,0:1|0:0,0:0:0:0:
214,356,233897,1,10,0:1:0:0:
333,356,234359,2,0,B|363:352|363:352|376:357|376:357|419:351,1,79.9999999999999,10|2,0:1|0:0,0:0:0:0:
486,324,234974,2,0,B|490:292|490:292|487:282|487:282|491:238,1,79.9999999999999,10|0,0:1|1:0,0:0:0:0:
417,149,235743,6,0,B|380:157|380:157|338:134,1,79.9999999999999,14|10,1:1|0:0,0:0:0:0:
278,88,236359,1,10,0:3:0:0:
241,202,236820,2,0,B|234:236|234:236|241:250|241:250|231:297,2,79.9999999999999,10|10|10,0:1|0:1|0:0,0:0:0:0:
226,164,237590,1,12,0:0:0:0:
283,103,237897,2,0,B|334:74|401:92,1,120,6|8,0:3|2:3,0:0:0:0:
478,182,238820,6,0,L|469:275,1,79.9999999999999,14|10,0:1|0:0,0:0:0:0:
455,340,239436,1,10,0:3:0:0:
338,368,239897,1,10,0:1:0:0:
277,315,240205,2,0,L|258:191,1,120,10|14,0:1|0:2,0:0:0:0:
231,121,240974,1,6,0:3:0:0:
133,50,241436,6,0,B|121:41|121:41|95:46|95:46|79:36|79:36|63:42|63:42|32:38,1,99.9999999999999,0|0,1:0|1:0,0:0:0:0:
