osu file format v14

[General]
AudioFilename: audio.mp3
AudioLeadIn: 0
PreviewTime: 56912
Countdown: 0
SampleSet: Normal
StackLeniency: 0.7
Mode: 0
LetterboxInBreaks: 0
WidescreenStoryboard: 1

[Editor]
DistanceSpacing: 1.9
BeatDivisor: 4
GridSize: 4
TimelineZoom: 1.4

[Metadata]
Title:Fancy Game !?
TitleUnicode:Fancy Game !?
Artist:solfa feat. KOTOKO
ArtistUnicode:solfa feat. KOTOKO
Creator:_Meep_
Version:Lvl 75
Source:My Fair Gentleman!
Tags:Kotoko solfa _meep_ Fancy Game !? chuable chuablesoft eroge visual novel galgame
BeatmapID:991265
BeatmapSetID:462551

[Difficulty]
HPDrainRate:8
CircleSize:3.7
OverallDifficulty:7.4
ApproachRate:8.7
SliderMultiplier:1.5
SliderTickRate:2

[Events]
//Background and Video events
Video,0,"meep.mp4"
0,0,"eb15_0000.jpg",0,0
//Break Periods
//Storyboard Layer 0 (Background)
//Storyboard Layer 1 (Fail)
//Storyboard Layer 2 (Pass)
//Storyboard Layer 3 (Foreground)
//Storyboard Sound Samples

[TimingPoints]
183,342.857142857143,4,1,1,53,1,0
183,-66.6666666666667,4,1,1,53,0,0
2240,-133.333333333333,4,1,1,53,0,0
2925,-100,4,1,1,53,0,0
3954,-133.333333333333,4,1,1,53,0,0
4640,-66.6666666666667,4,1,1,53,0,0
5154,-133.333333333333,4,1,1,53,0,0
5668,-200,4,1,1,53,0,0
6354,-66.6666666666667,4,1,1,53,0,0
7040,-100,4,1,1,53,0,0
8411,-200,4,1,1,53,0,0
9783,-66.6666666666667,4,1,1,53,0,0
11154,-50,4,1,1,53,0,0
12868,-133.333333333333,4,1,1,53,0,0
13297,-83.3333333333333,4,1,1,53,0,0
15868,-50,4,1,1,53,0,0
18354,-133.333333333333,4,1,1,53,0,0
22125,-100,4,1,1,53,0,0
27611,-50,4,1,1,53,0,0
30697,-66.6666666666667,4,1,1,53,0,0
35668,-200,4,1,1,53,0,0
37897,-66.6666666666667,4,1,1,53,0,0
41325,-166.666666666667,4,1,1,53,0,0
43211,-55.5555555555556,4,1,1,53,0,0
46811,-100,4,1,1,53,0,0
49554,-200,4,1,1,53,0,0
50925,-80,4,1,1,53,0,0
52297,-133.333333333333,4,1,1,53,0,0
57440,-100,4,1,1,53,0,1
60183,-200,4,1,1,53,0,1
64297,-66.6666666666667,4,1,1,53,0,1
64983,-100,4,1,1,53,0,1
68068,-100,4,1,1,53,0,1
75440,-66.6666666666667,4,1,1,53,0,1
76125,-133.333333333333,4,1,1,53,0,1
79725,-100,4,1,1,53,0,0
81097,-200,4,1,1,53,0,0
83497,-50,4,1,1,53,0,0
84868,-133.333333333333,4,1,1,53,0,0
87954,-66.6666666666667,4,1,1,53,0,0
88468,-133.333333333333,4,1,1,53,0,0
88983,-50,4,1,1,53,0,0
89325,-200,4,1,1,53,0,0

[Colours]
Combo1 : 128,128,255
Combo2 : 192,192,192
Combo3 : 255,128,64
Combo4 : 255,128,255

[HitObjects]
144,144,183,6,0,P|172:272|244:260,1,225.000008583069
296,316,868,2,0,P|268:188|196:200,1,225.000008583069
236,264,1554,2,0,P|125:193|161:130,1,225.000008583069
304,184,2240,2,0,P|246:168|195:207,1,112.500004291535
388,244,2925,5,0,0:0:0:0:
384,272,3097,1,0,0:0:0:0:
304,224,3268,2,0,L|264:288,1,75
232,176,3611,1,0,0:0:0:0:
252,156,3783,1,0,0:0:0:0:
180,112,3954,2,0,P|148:128|128:144,1,56.2500021457673
104,212,4297,5,0,0:0:0:0:
380,236,4468,2,0,L|404:208,2,28.1250010728836
388,116,4811,1,0,0:0:0:0:
308,164,4983,2,0,L|256:232,2,56.2500021457673
288,80,5325,1,0,0:0:0:0:
88,88,5668,6,0,L|176:64,1,75
384,136,6354,2,0,P|312:164|388:272,1,225.000008583069
140,96,7040,5,0,0:0:0:0:
216,216,7211,2,0,P|172:252|168:288,2,75
164,84,7725,1,0,0:0:0:0:
284,164,7897,1,0,0:0:0:0:
424,132,8068,1,0,0:0:0:0:
284,164,8240,1,0,0:0:0:0:
268,312,8411,6,0,P|272:248|268:240,1,75
136,96,9097,2,0,P|180:96|216:80,1,75
368,88,9783,5,0,0:0:0:0:
192,184,9954,2,0,L|131:237,2,56.2500021457673
344,212,10297,1,0,0:0:0:0:
248,296,10468,1,0,0:0:0:0:
248,296,10554,1,0,0:0:0:0:
248,296,10640,2,0,L|172:352,1,56.2500021457673
156,108,11154,6,0,L|508:40,1,300
450,51,11840,2,0,B|248:172|420:136|196:280,1,300
272,112,12525,2,0,P|144:112|191:56,1,225
147,102,12868,6,0,L|219:98,2,56.2500021457673
203,98,13383,2,0,L|299:74,1,89.9999972534181
336,76,13897,5,0,0:0:0:0:
440,144,14068,1,0,0:0:0:0:
280,156,14240,1,0,0:0:0:0:
300,284,14411,1,0,0:0:0:0:
180,180,14583,1,0,0:0:0:0:
168,320,14754,1,0,0:0:0:0:
84,160,14925,1,0,0:0:0:0:
48,344,15097,1,0,0:0:0:0:
68,248,15268,6,0,L|168:288,1,89.9999972534181
244,236,15611,1,0,0:0:0:0:
188,112,15783,1,0,0:0:0:0:
320,92,16125,2,0,L|396:224,1,150
240,332,16640,5,0,0:0:0:0:
99,301,16811,1,0,0:0:0:0:
292,260,16983,1,0,0:0:0:0:
84,212,17154,1,0,0:0:0:0:
336,188,17325,1,0,0:0:0:0:
101,130,17497,1,0,0:0:0:0:
376,112,17668,1,0,0:0:0:0:
100,40,17840,1,0,0:0:0:0:
180,76,18011,6,0,P|92:137|58:116,2,150
108,64,18525,2,0,P|136:139|152:180,1,112.500004291535
248,124,19040,5,0,0:0:0:0:
328,192,19211,1,0,0:0:0:0:
228,152,19383,6,0,P|188:240|192:248,1,112.500004291535
296,232,19897,2,0,P|308:296|276:340,1,112.500004291535
188,292,20411,1,0,0:0:0:0:
196,184,20583,2,0,P|188:244|192:296,1,112.500004291535
300,52,21097,5,0,0:0:0:0:
288,248,21268,1,0,0:0:0:0:
440,232,21440,1,0,0:0:0:0:
452,40,21611,1,0,0:0:0:0:
112,152,22125,6,0,L|108:228,1,75
392,160,22640,2,0,L|400:256,1,75
136,200,23154,2,0,L|140:280,1,75
364,196,23668,2,0,L|360:300,1,75
136,88,24183,5,0,0:0:0:0:
320,132,24354,1,0,0:0:0:0:
128,176,24525,1,0,0:0:0:0:
388,108,24697,1,0,0:0:0:0:
360,336,24868,6,0,L|324:248,1,75
128,80,25383,2,0,L|104:164,1,75
372,136,25897,2,0,L|460:112,1,75
152,336,26411,2,0,L|68:304,1,75
140,104,26925,5,0,0:0:0:0:
328,288,27096,1,0,0:0:0:0:
140,104,27268,1,0,0:0:0:0:
328,288,27439,1,0,0:0:0:0:
396,88,27611,5,0,0:0:0:0:
136,208,27783,2,0,P|144:240|104:288,2,75
384,240,28125,1,0,0:0:0:0:
172,48,28297,2,0,P|156:88|164:128,2,75
300,88,28640,1,0,0:0:0:0:
132,316,28811,2,0,P|204:352|216:352,2,75
72,36,29154,1,0,0:0:0:0:
344,124,29325,2,0,P|372:204|368:220,2,75
92,72,29840,5,0,0:0:0:0:
340,212,30011,1,0,0:0:0:0:
236,80,30183,1,0,0:0:0:0:
436,280,30354,1,0,0:0:0:0:
336,88,30525,1,0,0:0:0:0:
324,172,30697,2,0,B|384:236|404:312|400:372|336:384|288:356|264:324|256:272|264:224|276:184|200:140,2,450
324,172,32240,1,0,0:0:0:0:
72,96,32754,5,0,0:0:0:0:
196,96,33097,5,0,0:0:0:0:
196,96,33268,2,0,L|244:208,1,112.500004291535
144,172,33611,2,0,L|32:224,1,112.500004291535
176,248,33954,2,0,L|232:356,1,112.500004291535
300,320,34297,1,0,0:0:0:0:
388,280,34468,1,0,0:0:0:0:
204,156,34640,1,0,0:0:0:0:
300,104,34811,2,0,L|276:232,3,112.500004291535
268,304,35497,1,0,0:0:0:0:
424,128,35668,1,0,0:0:0:0:
160,156,35840,5,0,0:0:0:0:
244,224,36011,6,0,P|220:196|212:184,1,37.5
344,312,36354,1,0,0:0:0:0:
376,208,36525,1,0,0:0:0:0:
316,116,36697,1,0,0:0:0:0:
216,68,36868,1,0,0:0:0:0:
316,116,37040,1,0,0:0:0:0:
112,96,37211,5,0,0:0:0:0:
184,284,37383,1,0,0:0:0:0:
224,124,37554,1,0,0:0:0:0:
184,284,37725,1,0,0:0:0:0:
364,176,37897,2,0,P|376:264|364:272,1,112.500004291535
148,120,38240,2,0,P|136:208|148:216,1,112.500004291535
308,80,38583,5,0,0:0:0:0:
216,252,38754,1,0,0:0:0:0:
216,264,38840,1,0,0:0:0:0:
216,276,38925,1,0,0:0:0:0:
376,220,39097,5,0,0:0:0:0:
84,112,39268,2,0,L|72:176,2,56.2500021457673
320,120,39611,5,0,0:0:0:0:
332,308,39783,1,0,0:0:0:0:
328,296,39868,1,0,0:0:0:0:
324,284,39954,1,0,0:0:0:0:
136,316,40125,1,0,0:0:0:0:
192,152,40297,1,0,0:0:0:0:
216,148,40383,2,0,L|288:144,1,56.2500021457673
132,80,40983,5,0,0:0:0:0:
84,232,41154,1,0,0:0:0:0:
320,80,41325,2,0,P|408:156|456:208,1,179.999994506836
428,244,42068,2,0,P|388:280|280:296,1,164.9999949646
264,288,42754,2,0,P|280:236|264:184,1,104.999996795654
252,179,43211,2,0,P|72:120|152:353,1,539.999983520508
308,96,44411,5,0,0:0:0:0:
120,156,44583,1,0,0:0:0:0:
328,192,44754,1,0,0:0:0:0:
184,76,44925,1,0,0:0:0:0:
432,136,45097,5,0,0:0:0:0:
256,112,45440,5,0,0:0:0:0:
396,304,45954,5,0,0:0:0:0:
140,216,46468,5,0,0:0:0:0:
172,128,46811,2,0,B|204:188|172:188|244:164,1,75
352,72,47154,2,0,P|400:68|416:88,1,75
360,240,47497,2,0,B|328:300|360:300|288:276,1,75
172,292,47840,2,0,P|124:288|108:308,1,75
104,140,48183,5,0,0:0:0:0:
340,84,48697,1,0,0:0:0:0:
352,268,49212,1,0,0:0:0:0:
92,224,49554,6,0,L|140:224,1,37.5
140,136,49897,2,0,L|192:136,1,37.5
220,292,50240,2,0,L|268:292,1,37.5
320,188,50583,2,0,L|272:188,1,37.5
112,80,50925,5,0,0:0:0:0:
116,96,51011,1,0,0:0:0:0:
120,112,51096,1,0,0:0:0:0:
124,128,51182,1,0,0:0:0:0:
132,144,51268,5,0,0:0:0:0:
148,152,51353,1,0,0:0:0:0:
164,160,51439,1,0,0:0:0:0:
180,172,51525,1,0,0:0:0:0:
184,192,51611,5,0,0:0:0:0:
176,212,51696,1,0,0:0:0:0:
152,220,51782,1,0,0:0:0:0:
136,232,51868,1,0,0:0:0:0:
120,240,51953,5,0,0:0:0:0:
104,256,52039,1,0,0:0:0:0:
96,272,52125,1,0,0:0:0:0:
96,288,52211,1,0,0:0:0:0:
100,304,52297,1,0,0:0:0:0:
296,156,52640,6,0,L|288:224,1,56.2500021457673
180,188,52983,2,0,L|194:248,1,56.2500021457673
64,256,53325,2,0,L|81:187,1,56.2500021457673
152,120,53668,5,0,0:0:0:0:
291,52,53840,1,0,0:0:0:0:
358,191,54011,1,0,0:0:0:0:
219,259,54183,1,0,0:0:0:0:
106,209,54354,5,0,0:0:0:0:
245,141,54525,1,0,0:0:0:0:
312,280,54697,1,0,0:0:0:0:
173,348,54868,1,0,0:0:0:0:
173,348,55040,6,0,P|236:300|248:264,1,112.500004291535
248,260,55468,2,0,P|304:216|308:200,1,84.3750032186509
308,88,55811,1,0,0:0:0:0:
128,224,55983,1,0,0:0:0:0:
128,224,56240,6,0,L|100:248,1,28.1250010728836
256,192,56411,12,0,57440,0:0:0:0:
96,64,57783,5,0,0:0:0:0:
124,220,57954,1,0,0:0:0:0:
252,164,58125,1,0,0:0:0:0:
384,136,58297,1,0,0:0:0:0:
425,174,58382,1,0,0:0:0:0:
429,228,58468,1,0,0:0:0:0:
393,271,58554,1,0,0:0:0:0:
339,277,58639,1,0,0:0:0:0:
216,288,58811,5,0,0:0:0:0:
152,148,58983,1,0,0:0:0:0:
136,240,59154,5,0,0:0:0:0:
148,68,59326,1,0,0:0:0:0:
264,172,59497,1,0,0:0:0:0:
388,140,59668,1,0,0:0:0:0:
432,168,59754,1,0,0:0:0:0:
436,222,59840,1,0,0:0:0:0:
400,265,59926,1,0,0:0:0:0:
346,271,60011,1,0,0:0:0:0:
116,96,60183,5,0,0:0:0:0:
88,240,60354,1,0,0:0:0:0:
300,88,60525,6,0,L|296:132,1,37.5
208,280,60868,2,0,L|216:240,1,37.5
344,60,61211,2,0,L|344:112,1,37.5
160,300,61554,6,0,L|152:260,1,37.5
80,320,61897,2,0,L|64:272,1,37.5
176,80,62240,2,0,L|152:124,1,37.5
136,160,62583,5,0,0:0:0:0:
136,296,62754,1,0,0:0:0:0:
296,188,62925,1,0,0:0:0:0:
304,332,63097,1,0,0:0:0:0:
156,72,63268,5,0,0:0:0:0:
376,144,63440,1,0,0:0:0:0:
216,204,63611,1,0,0:0:0:0:
380,296,63783,2,0,L|340:216,1,75
348,120,64297,5,0,0:0:0:0:
252,108,64468,2,0,P|136:128|80:224,1,225.000008583069
180,192,64983,5,0,0:0:0:0:
288,224,65154,2,0,P|272:140|192:96,1,150
352,96,65668,1,0,0:0:0:0:
223,102,65840,1,0,0:0:0:0:
320,176,66183,5,0,0:0:0:0:
268,276,66354,1,0,0:0:0:0:
160,288,66525,2,0,B|95:91|249:159|112:134|142:34|38:115|81:288,1,375
80,296,68068,5,0,0:0:0:0:
108,172,68239,1,0,0:0:0:0:
208,104,68411,1,0,0:0:0:0:
328,76,68583,1,0,0:0:0:0:
420,160,68754,2,0,P|374:288|360:292,1,150
280,288,69268,5,0,0:0:0:0:
260,276,69353,1,0,0:0:0:0:
248,260,69439,1,0,0:0:0:0:
244,244,69525,1,0,0:0:0:0:
248,228,69611,1,0,0:0:0:0:
264,120,69783,5,0,0:0:0:0:
104,272,69954,1,0,0:0:0:0:
112,160,70125,2,0,P|196:120|216:168,1,150
344,120,70640,2,0,L|368:172,2,37.5
364,176,70897,2,0,L|340:216,1,37.5
296,288,71154,5,0,0:0:0:0:
112,136,71325,1,0,0:0:0:0:
224,60,71497,2,0,L|304:88,1,75
294,84,71840,1,0,0:0:0:0:
272,160,72011,2,0,L|200:132,1,75
202,132,72354,1,0,0:0:0:0:
244,236,72525,2,0,L|168:200,1,75
176,203,72868,1,0,0:0:0:0:
84,96,73040,5,0,0:0:0:0:
96,208,73211,1,0,0:0:0:0:
192,288,73383,1,0,0:0:0:0:
304,256,73554,2,0,L|304:164,1,75
432,96,73897,2,0,L|340:128,1,75
72,124,74240,5,0,0:0:0:0:
120,280,74411,1,0,0:0:0:0:
228,76,74583,1,0,0:0:0:0:
280,160,74754,2,0,P|280:224|200:248,1,150
208,176,75268,1,0,0:0:0:0:
280,160,75440,6,0,P|280:232|128:232,1,225.000008583069
208,192,75954,1,0,0:0:0:0:
280,156,76125,2,0,P|260:224|216:232,1,112.500004291535
192,160,76640,5,0,0:0:0:0:
104,172,76811,2,0,L|140:240,1,56.2500021457673
260,108,77154,1,0,0:0:0:0:
136,196,77325,2,0,B|153:202|165:206|185:218|256:244|256:244|213:186|248:124|269:134|301:166|288:200|268:256|292:292|368:112,1,450.000017166138
164,108,79040,6,0,L|148:152,1,37.5000014305115
224,164,79212,2,0,L|232:200,1,37.5000014305115
156,216,79383,2,0,L|148:252,1,37.5000014305115
224,272,79554,2,0,L|240:316,1,37.5000014305115
236,307,79725,5,0,0:0:0:0:
372,88,80068,1,0,0:0:0:0:
392,220,80411,1,0,0:0:0:0:
248,232,80754,1,0,0:0:0:0:
136,164,81097,6,0,L|176:176,1,37.5
228,320,81440,2,0,L|240:276,1,37.5
392,240,81783,2,0,L|352:228,1,37.5
300,92,82125,2,0,L|288:132,1,37.5
136,84,82468,5,0,0:0:0:0:
80,264,82640,1,0,0:0:0:0:
220,240,82811,2,0,L|236:204,1,37.5
352,116,83154,5,0,0:0:0:0:
352,116,83325,1,0,0:0:0:0:
352,116,83497,2,0,L|352:288,1,150
352,264,83840,1,0,0:0:0:0:
272,168,84011,5,0,0:0:0:0:
128,272,84183,1,0,0:0:0:0:
88,152,84354,1,0,0:0:0:0:
204,84,84525,2,0,L|168:116,1,37.5
204,280,84868,6,0,P|232:220|240:216,1,56.2500021457673
396,168,85211,5,0,0:0:0:0:
316,88,85383,1,0,0:0:0:0:
296,248,85554,1,0,0:0:0:0:
232,108,85725,1,0,0:0:0:0:
160,276,85897,5,0,0:0:0:0:
156,108,86068,1,0,0:0:0:0:
32,268,86240,1,0,0:0:0:0:
76,92,86411,1,0,0:0:0:0:
344,284,86583,2,0,L|328:220,2,56.2500021457673
360,256,87097,2,0,L|368:184,2,56.2500021457673
348,112,87611,5,0,0:0:0:0:
228,304,87783,1,0,0:0:0:0:
52,264,87954,2,0,B|152:232|244:124|268:96,1,225.000008583069
268,136,88468,6,0,P|244:212|260:240,1,112.500004291535
328,284,88983,5,0,0:0:0:0:
412,120,89154,1,0,0:0:0:0:
344,80,89325,2,0,P|268:64|176:96,1,150
124,168,90183,1,0,0:0:0:0:
360,96,90697,6,0,L|372:128,1,18.75
196,312,90868,2,0,L|180:288,1,18.75
280,116,91125,1,0,0:0:0:0:
316,288,91297,6,0,L|332:256,1,18.75
220,208,91468,2,0,L|204:176,1,18.75
112,96,91725,5,0,0:0:0:0:
256,288,91926,1,0,0:0:0:0:
