osu file format v14

[General]
AudioFilename: audio.mp3
AudioLeadIn: 0
PreviewTime: 56912
Countdown: 0
SampleSet: Normal
StackLeniency: 0.7
Mode: 0
LetterboxInBreaks: 0
WidescreenStoryboard: 1

[Editor]
DistanceSpacing: 1.9
BeatDivisor: 4
GridSize: 4
TimelineZoom: 1

[Metadata]
Title:Fancy Game !?
TitleUnicode:Fancy Game !?
Artist:solfa feat. KOTOKO
ArtistUnicode:solfa feat. KOTOKO
Creator:_Meep_
Version:Lvl 25
Source:My Fair Gentleman!
Tags:Kotoko solfa _meep_ Fancy Game !? chuable chuablesoft eroge visual novel galgame
BeatmapID:990852
BeatmapSetID:462551

[Difficulty]
HPDrainRate:4
CircleSize:3
OverallDifficulty:4
ApproachRate:6
SliderMultiplier:1.5
SliderTickRate:2

[Events]
//Background and Video events
Video,0,"meep.mp4"
0,0,"ec10_0000.jpg",0,0
//Break Periods
2,10668,15247
2,16497,21075
2,52154,56732
//Storyboard Layer 0 (Background)
//Storyboard Layer 1 (Fail)
//Storyboard Layer 2 (Pass)
//Storyboard Layer 3 (Foreground)
//Storyboard Sound Samples

[TimingPoints]
183,342.857142857143,4,1,1,100,1,0
57440,-100,4,1,1,100,0,1
79382,-100,4,1,1,100,0,0

[Colours]
Combo1 : 128,128,255
Combo2 : 192,192,192
Combo3 : 255,128,64
Combo4 : 255,128,255

[HitObjects]
128,152,183,5,0,0:0:0:0:
260,77,868,1,0,0:0:0:0:
399,140,1554,1,0,0:0:0:0:
431,289,2240,1,0,0:0:0:0:
340,48,2925,6,0,P|328:112|404:108,1,150
416,184,3611,2,0,P|420:256|352:244,1,150
264,296,4297,1,0,0:0:0:0:
140,260,4983,1,0,0:0:0:0:
160,136,5668,5,0,0:0:0:0:
368,88,6354,1,0,0:0:0:0:
364,232,7040,1,0,0:0:0:0:
212,228,7725,2,0,L|132:228,2,75
240,112,8411,5,0,0:0:0:0:
320,192,9097,1,0,0:0:0:0:
396,272,9782,1,0,0:0:0:0:
288,332,10468,1,0,0:0:0:0:
256,196,16297,5,0,0:0:0:0:
208,80,22125,5,0,0:0:0:0:
144,160,22811,1,0,0:0:0:0:
224,224,23497,1,0,0:0:0:0:
304,160,24183,5,0,0:0:0:0:
176,144,24868,1,0,0:0:0:0:
128,256,25554,1,0,0:0:0:0:
240,208,26240,1,0,0:0:0:0:
352,144,26925,5,0,0:0:0:0:
256,80,27268,1,0,0:0:0:0:
192,160,27611,5,0,0:0:0:0:
128,224,27783,2,0,P|76:216|68:208,2,37.5
256,224,28297,6,0,P|308:220|316:212,2,37.5
136,208,28812,6,0,P|88:196|80:188,2,37.5
208,176,29326,6,0,P|256:164|264:156,2,37.5
232,80,29840,5,0,0:0:0:0:
352,132,30011,1,0,0:0:0:0:
368,240,30183,2,0,B|288:224|280:163|272:144|231:136|112:285|371:337|371:337|211:353,2,562.5
384,128,33440,5,0,0:0:0:0:
272,96,34125,1,0,0:0:0:0:
208,160,34811,2,0,L|296:200,1,75
360,183,35497,1,0,0:0:0:0:
216,128,36182,1,0,0:0:0:0:
140,204,36868,1,0,0:0:0:0:
232,284,37554,2,0,L|316:224,1,75
384,256,38068,2,0,L|400:148,1,75
256,192,38411,12,0,40640,0:0:0:0:
264,168,41325,6,0,B|244:220|168:276|212:384|264:372|-36:296|484:256|300:372|332:328|332:328|336:280|388:128,2,525
128,168,44068,5,0,0:0:0:0:
256,96,44754,1,0,0:0:0:0:
400,148,45440,1,0,0:0:0:0:
420,296,46125,1,0,0:0:0:0:
304,304,46811,5,0,0:0:0:0:
148,240,47497,1,0,0:0:0:0:
280,88,48182,1,0,0:0:0:0:
336,152,48697,1,0,0:0:0:0:
296,224,48868,1,0,0:0:0:0:
188,104,49554,6,0,L|128:192,1,75
145,165,49897,1,0,0:0:0:0:
200,248,50240,2,0,L|264:164,1,75
245,188,50583,1,0,0:0:0:0:
312,248,50925,2,0,L|248:332,1,75
272,316,51268,1,0,0:0:0:0:
272,316,51611,1,0,0:0:0:0:
272,316,51954,1,0,0:0:0:0:
256,192,57782,5,0,0:0:0:0:
336,104,58468,1,0,0:0:0:0:
448,80,59154,1,0,0:0:0:0:
464,192,59840,1,0,0:0:0:0:
304,192,60525,5,0,0:0:0:0:
276,104,60868,1,0,0:0:0:0:
196,128,61211,1,0,0:0:0:0:
220,208,61554,1,0,0:0:0:0:
232,296,61897,6,0,L|336:284,1,75
306,287,62240,1,0,0:0:0:0:
390,277,62583,2,0,L|382:189,1,75
383,202,62925,1,0,0:0:0:0:
360,156,63954,5,0,0:0:0:0:
244,184,64640,1,0,0:0:0:0:
292,288,65325,1,0,0:0:0:0:
144,80,66011,2,0,L|148:176,1,75
256,192,66354,12,0,67725,0:0:0:0:
120,96,68754,5,0,0:0:0:0:
184,184,69440,1,0,0:0:0:0:
284,92,70125,1,0,0:0:0:0:
364,172,70811,1,0,0:0:0:0:
296,276,71497,5,0,0:0:0:0:
176,204,72182,1,0,0:0:0:0:
304,160,72868,1,0,0:0:0:0:
224,96,73554,1,0,0:0:0:0:
176,192,74240,6,0,P|276:280|296:272,1,150
268,192,74925,1,0,0:0:0:0:
368,192,75268,2,0,P|340:284|272:288,1,150
272,208,75954,1,0,0:0:0:0:
176,268,76297,1,0,0:0:0:0:
176,176,76640,1,0,0:0:0:0:
256,256,76982,1,0,0:0:0:0:
256,192,77325,12,0,78697,0:0:0:0:
432,224,79040,5,0,0:0:0:0:
352,296,79382,1,0,0:0:0:0:
236,300,79724,6,0,L|208:204,1,75
316,236,80067,2,0,L|336:148,1,75
248,132,80410,2,0,L|184:80,1,75
108,120,80753,5,0,0:0:0:0:
80,208,80924,1,0,0:0:0:0:
144,280,81096,6,0,P|196:330|215:321,6,75
132,72,82467,5,0,0:0:0:0:
144,188,82810,1,0,0:0:0:0:
264,128,83153,1,0,0:0:0:0:
312,248,83496,1,0,0:0:0:0:
284,232,83839,6,0,L|256:132,1,75
216,256,84182,2,0,L|192:340,1,75
148,240,84524,2,0,L|120:148,1,75
96,272,84867,1,0,0:0:0:0:
372,96,85210,6,0,L|400:192,1,75
284,144,85896,2,0,L|272:228,1,75
172,172,86582,2,0,L|120:240,1,75
224,292,87267,2,0,L|272:216,1,75
256,192,87953,12,0,90011,0:0:0:0:
124,144,90696,6,0,P|132:248|240:292,1,225
304,216,91724,6,0,P|324:148|344:132,1,75
