osu file format v14

[General]
AudioFilename: audio.mp3
AudioLeadIn: 0
PreviewTime: 180441
Countdown: 0
SampleSet: Soft
StackLeniency: 0.7
Mode: 0
LetterboxInBreaks: 0
WidescreenStoryboard: 1

[Editor]
DistanceSpacing: 1
BeatDivisor: 2
GridSize: 32
TimelineZoom: 1.7

[Metadata]
Title:Nijiiro Spring
TitleUnicode:虹色スプリング
Artist:solfa feat. Hashimoto Miyuki
ArtistUnicode:solfa feat. 橋本みゆき
Creator:Zekk
Version:Normal
Source:あやかしコントラクト
Tags:ayakashi contract hd1 vndb vn visual novel eroge japanese pop opening op bongo reisevia pache knowledge roda totsuki rock
BeatmapID:3836738
BeatmapSetID:1843240

[Difficulty]
HPDrainRate:3
CircleSize:3.7
OverallDifficulty:4
ApproachRate:5
SliderMultiplier:1
SliderTickRate:1

[Events]
//Background and Video events
0,0,"osubgwoman.jpg",0,0
//Break Periods
2,71558,80825
2,90025,90825
2,138224,146158
2,169858,179325
//Storyboard Layer 0 (Background)
//Storyboard Layer 1 (Fail)
//Storyboard Layer 2 (Pass)
//Storyboard Layer 3 (Foreground)
//Storyboard Layer 4 (Overlay)
//Storyboard Sound Samples

[TimingPoints]
692,333.333333333333,4,2,0,70,1,0
15358,-100,4,2,0,60,0,0
36691,-100,4,2,0,70,0,0
47191,-100,4,2,0,80,0,0
82025,-100,4,2,0,60,0,0
103358,-100,4,2,0,70,0,0
113858,-100,4,2,0,80,0,0
148691,-100,4,2,0,80,0,0
169858,-100,4,2,0,80,0,1
180525,-100,4,2,0,80,0,0

[Colours]
Combo1 : 248,211,171
Combo2 : 171,252,203
Combo3 : 175,221,254
Combo4 : 249,254,186
Combo5 : 240,80,80

[HitObjects]
448,21,2025,6,0,P|425:60|405:134,1,100,4|8,1:2|0:2,0:0:0:0:
421,160,2525,1,0,1:2:0:0:
336,213,2858,1,0,1:2:0:0:
336,213,3025,1,8,0:2:0:0:
255,154,3358,2,0,P|228:137|140:124,1,100,0|8,1:2|0:2,0:0:0:0:
117,144,3858,1,0,1:2:0:0:
56,223,4191,1,0,1:2:0:0:
56,223,4358,2,0,P|67:259|70:299,1,50,8|0,0:2|0:0,0:0:0:0:
45,315,4691,6,0,P|69:361|144:366,1,100,0|8,1:2|0:2,0:0:0:0:
155,350,5191,2,0,P|200:333|254:321,1,100,0|0,1:2|1:2,0:0:0:0:
296,342,5691,1,8,0:2:0:0:
385,297,6025,1,0,1:2:0:0:
400,198,6358,1,8,0:2:0:0:
301,179,6691,2,0,P|253:197|174:218,1,100,8|8,0:2|0:2,0:0:0:0:
175,250,7191,5,8,0:2:0:0:
175,250,7358,2,0,P|137:234|58:221,1,100,4|8,1:2|0:2,0:0:0:0:
49,175,7858,2,0,P|46:134|106:81,1,100,0|0,1:2|1:2,0:0:0:0:
130,91,8358,1,8,0:2:0:0:
191,12,8691,2,0,P|239:31|297:46,1,100,0|8,1:2|0:2,0:0:0:0:
323,76,9191,2,0,P|370:88|435:112,1,100,0|0,1:2|1:2,0:0:0:0:
468,104,9691,1,8,0:2:0:0:
495,200,10025,6,0,P|483:227|477:263,1,50,0|0,1:2|0:2,0:0:0:0:
448,287,10358,1,8,0:2:0:0:
448,287,10525,2,0,P|407:284|360:240,1,100,0|0,1:2|1:2,0:0:0:0:
342,201,11025,1,8,0:2:0:0:
251,159,11358,2,0,P|226:171|181:179,2,50,8|8|8,0:2|0:3|0:3,0:0:0:0:
270,113,11858,2,0,P|298:103|328:78,2,50,8|4|4,0:2|0:3|0:3,0:0:0:0:
223,94,12358,1,8,0:2:0:0:
173,83,12525,1,8,0:3:0:0:
124,72,12691,6,0,P|81:93|14:108,2,100,4|8|0,1:2|0:2|0:2,0:0:0:0:
202,10,13691,1,8,0:2:0:0:
284,67,14025,2,0,P|330:82|397:118,1,100,0|8,1:2|0:2,0:0:0:0:
429,114,14525,1,8,0:3:0:0:
429,114,14691,1,8,0:3:0:0:
490,205,15025,1,4,0:3:0:0:
490,205,15191,1,12,0:3:0:0:
490,205,15358,6,0,P|441:211|367:229,1,100,0|8,1:2|0:2,0:0:0:0:
350,250,15858,2,0,P|316:249|270:169,1,100,0|0,0:2|1:2,0:0:0:0:
222,225,16358,1,8,0:2:0:0:
148,292,16691,1,0,1:2:0:0:
62,240,17025,1,8,0:2:0:0:
62,240,17191,2,0,P|51:191|31:131,1,100,0|0,1:2|1:2,0:0:0:0:
39,93,17691,1,8,0:2:0:0:
132,57,18025,6,0,P|146:34|161:0,2,50,0|0|8,1:2|0:2|0:2,0:0:0:0:
143,105,18525,2,0,P|209:91|265:85,1,100,0|0,1:2|1:2,0:0:0:0:
290,77,19025,1,8,0:2:0:0:
362,3,19358,2,0,P|387:43|429:88,1,100,0|8,1:2|0:2,0:0:0:0:
462,111,19858,2,0,P|464:157|421:200,1,100,0|0,1:2|1:2,0:0:0:0:
383,212,20358,1,8,0:2:0:0:
290,249,20691,6,0,P|272:295|263:349,1,100,4|8,1:2|0:2,0:0:0:0:
219,368,21191,1,0,0:2:0:0:
219,368,21358,2,0,P|177:346|111:328,1,100,0|8,1:2|0:2,0:0:0:0:
45,271,22025,2,0,P|104:256|137:209,1,100,0|8,1:2|0:2,0:0:0:0:
154,185,22525,2,0,P|178:224|249:242,1,100,0|0,1:2|1:2,0:0:0:0:
275,235,23025,1,8,0:2:0:0:
337,157,23358,6,0,P|335:107|338:51,1,100,0|8,1:2|0:2,0:0:0:0:
329,7,23858,1,0,1:2:0:0:
229,1,24191,1,0,1:2:0:0:
185,91,24525,2,0,P|150:131|95:133,1,100,0|0,0:2|1:2,0:0:0:0:
56,129,25025,1,8,0:2:0:0:
82,225,25358,2,0,P|117:286|152:368,1,150,0|8,1:2|0:3,0:0:0:0:
198,358,26025,6,0,P|263:357|332:363,1,100,4|8,1:2|0:2,0:0:0:0:
391,323,26691,2,0,P|420:325|462:319,2,50,0|0|8,1:2|1:2|0:2,0:0:0:0:
302,276,27358,2,0,P|256:280|171:269,1,100,4|8,1:2|0:2,0:0:0:0:
156,295,27858,2,0,P|114:288|25:298,1,100,0|0,1:2|1:2,0:0:0:0:
17,259,28358,1,8,0:2:0:0:
90,190,28691,6,0,P|141:197|210:188,1,100,0|8,1:2|0:2,0:0:0:0:
221,154,29191,1,0,1:0:0:0:
320,186,29525,1,0,1:0:0:0:
320,186,29691,1,8,0:2:0:0:
408,138,30025,2,0,P|409:87|394:2,1,100,0|8,1:2|0:2,0:0:0:0:
368,2,30525,2,0,B|319:20|319:20|256:-1,1,100,0|0,1:2|1:2,0:0:0:0:
235,37,31025,1,8,0:2:0:0:
262,132,31358,6,0,P|254:178|243:248,1,100,4|8,1:2|0:2,0:0:0:0:
172,295,32025,2,0,L|98:279,2,50,0|0|10,1:2|1:2|0:1,0:0:0:0:
194,339,32525,1,10,0:1:0:0:
194,339,32691,2,0,L|318:315,1,100,0|8,1:2|0:2,0:0:0:0:
336,344,33191,2,0,P|383:349|451:264,1,150,8|8,0:2|0:2,0:0:0:0:
511,201,34025,6,0,P|505:152|496:96,1,100,4|8,1:2|0:2,0:0:0:0:
493,52,34525,1,4,1:2:0:0:
395,75,34858,1,0,1:2:0:0:
303,115,35191,2,0,P|245:99|186:92,1,100,4|0,1:2|1:2,0:0:0:0:
156,84,35691,1,8,0:2:0:0:
74,44,36025,1,8,0:3:0:0:
74,44,36191,1,4,0:3:0:0:
74,44,36358,1,8,0:2:0:0:
17,126,36691,6,0,P|29:178|38:233,1,100,4|8,1:2|0:2,0:0:0:0:
131,256,37358,2,0,P|140:312|156:369,1,100,8|8,0:2|0:2,0:0:0:0:
239,306,38025,2,0,L|311:318,1,50,8|0,0:2|1:2,0:0:0:0:
330,340,38358,1,8,0:2:0:0:
330,340,38525,2,0,P|389:342|423:306,1,100,0|0,1:2|1:2,0:0:0:0:
439,271,39025,1,8,0:2:0:0:
485,182,39358,6,0,P|474:117|467:65,1,100,8|8,0:2|0:2,0:0:0:0:
369,86,40025,2,0,P|352:42|318:-21,1,100,8|8,0:2|0:2,0:0:0:0:
265,73,40691,2,0,P|220:62|149:48,1,100,12|8,0:2|0:2,0:0:0:0:
119,64,41191,1,0,1:2:0:0:
119,64,41358,2,0,L|48:48,2,50,8|8|8,0:3|0:3|0:2,0:0:0:0:
184,139,42025,6,0,P|206:186|228:265,1,100,12|8,0:2|0:2,0:0:0:0:
186,268,42525,1,0,1:2:0:0:
186,268,42691,2,0,P|170:310|134:376,1,100,8|8,0:2|0:2,0:0:0:0:
66,295,43358,2,0,B|39:256|39:256|56:186,1,100,8|8,0:2|1:2,0:0:0:0:
88,171,43858,1,0,1:2:0:0:
88,171,44025,1,0,0:0:0:0:
155,97,44358,2,0,L|209:110,1,50,8|0,0:2|1:2,0:0:0:0:
249,128,44691,6,0,P|281:117|359:104,1,100,4|8,1:2|0:2,0:0:0:0:
382,70,45191,2,0,P|439:61|491:43,1,100,0|0,1:2|1:2,0:0:0:0:
497,94,45691,1,8,0:2:0:0:
458,186,46025,2,0,L|437:254,1,50,8|4,0:3|0:3,0:0:0:0:
425,280,46358,1,8,0:2:0:0:
425,280,46525,1,0,1:2:0:0:
244,366,47191,6,0,P|245:299|230:242,1,100,4|0,1:2|1:2,0:0:0:0:
195,241,47691,1,8,0:2:0:0:
99,271,48025,2,0,P|79:267|34:230,1,50,0|0,1:2|1:2,0:0:0:0:
30,213,48358,1,8,0:2:0:0:
30,213,48525,2,0,P|24:170|82:117,1,100,0|0,1:2|1:2,0:0:0:0:
101,106,49025,1,8,0:2:0:0:
178,168,49358,2,0,P|222:179|266:189,1,50,0|0,1:2|1:2,0:0:0:0:
279,194,49691,5,8,0:2:0:0:
279,194,49858,2,0,B|324:171|324:171|379:178,1,100,4|0,1:2|1:2,0:0:0:0:
410,210,50358,1,8,0:2:0:0:
479,137,50691,2,0,L|463:49,1,50,0|0,1:2|1:2,0:0:0:0:
463,37,51025,1,8,0:2:0:0:
463,37,51191,2,0,P|409:21|348:0,1,100,0|0,1:2|1:2,0:0:0:0:
330,40,51691,2,0,P|275:21|212:3,1,100,8|8,0:2|0:2,0:0:0:0:
162,78,52358,1,8,0:2:0:0:
215,162,52691,6,0,L|225:242,1,50,4|0,1:2|1:2,0:0:0:0:
225,261,53025,1,0,1:2:0:0:
225,261,53191,2,0,P|188:250|107:240,1,100,4|0,1:2|1:2,0:0:0:0:
39,288,53858,2,0,B|27:338|27:338|53:392,1,100,4|0,1:2|0:2,0:0:0:0:
96,370,54358,1,8,0:2:0:0:
96,370,54525,2,0,P|145:360|204:354,1,100,0|0,1:2|1:2,0:0:0:0:
244,356,55025,1,8,0:2:0:0:
316,286,55358,6,0,L|306:222,1,50,4|0,1:2|1:2,0:0:0:0:
337,197,55691,1,8,0:2:0:0:
337,197,55858,2,0,B|389:205|389:205|439:185,1,100,4|0,1:2|1:2,0:0:0:0:
498,263,56525,2,0,P|489:311|480:390,1,100,8|8,0:2|0:3,0:0:0:0:
434,375,57025,1,8,0:3:0:0:
385,364,57191,1,4,1:2:0:0:
287,342,57525,1,4,0:3:0:0:
219,268,57858,6,0,P|216:217|210:157,1,100,4|0,1:2|1:2,0:0:0:0:
244,130,58358,1,8,0:2:0:0:
156,81,58691,2,0,P|126:87|76:95,1,50,0|0,1:2|1:2,0:0:0:0:
56,96,59025,1,8,0:2:0:0:
56,96,59191,2,0,B|41:141|41:141|60:219,1,100,0|0,0:2|0:2,0:0:0:0:
85,230,59691,1,10,0:1:0:0:
149,306,60025,2,0,L|130:375,2,50,8|8|8,0:2|0:2|0:2,0:0:0:0:
193,282,60525,6,0,P|239:298|300:311,1,100,4|0,1:2|1:2,0:0:0:0:
337,323,61025,1,8,0:2:0:0:
429,361,61358,2,0,L|412:271,1,50,0|0,1:2|1:2,0:0:0:0:
445,268,61691,1,8,0:2:0:0:
445,268,61858,2,0,P|457:218|428:161,1,100,0|0,1:2|1:2,0:0:0:0:
393,156,62358,1,8,0:2:0:0:
308,209,62691,1,0,1:2:0:0:
259,220,62858,1,8,0:2:0:0:
210,233,63025,1,8,0:2:0:0:
128,291,63358,6,0,P|76:276|9:266,1,100,4|8,1:2|0:2,0:0:0:0:
5,224,63858,1,4,1:2:0:0:
59,140,64191,2,0,P|90:148|126:155,1,50,4|12,1:2|0:2,0:0:0:0:
153,131,64525,2,0,B|179:95|179:95|172:21,1,100,4|8,0:2|0:2,0:0:0:0:
215,11,65025,1,8,0:2:0:0:
215,11,65191,1,0,1:2:0:0:
288,78,65525,1,0,1:2:0:0:
288,78,65691,2,0,L|349:92,1,50,8|0,0:2|0:2,0:0:0:0:
382,67,66025,6,0,P|437:80|498:88,1,100,4|0,1:2|0:0,0:0:0:0:
481,136,66525,1,4,1:2:0:0:
475,235,66858,2,0,P|436:227|386:219,1,50,0|10,1:2|0:1,0:0:0:0:
385,195,67191,2,0,B|339:217|339:217|262:207,1,100,4|0,1:2|1:2,0:0:0:0:
248,183,67691,1,12,0:2:0:0:
152,153,68025,1,0,1:2:0:0:
82,224,68358,2,0,L|95:294,1,50,8|4,0:3|0:3,0:0:0:0:
118,315,68691,6,0,P|153:304|187:297,1,50,8|8,0:2|0:3,0:0:0:0:
219,289,69025,1,4,0:3:0:0:
267,278,69191,1,0,1:2:0:0:
354,365,69525,1,0,1:2:0:0:
469,268,70025,2,0,P|459:204|445:161,1,100,0|8,1:2|0:3,0:0:0:0:
429,125,70525,1,0,1:2:0:0:
347,67,70858,1,12,0:2:0:0:
347,67,71025,2,0,P|296:87|221:98,1,100,2|6,0:2|1:2,0:0:0:0:
96,351,82025,5,0,1:2:0:0:
96,351,82191,1,0,1:2:0:0:
314,192,83191,1,0,1:2:0:0:
314,192,83358,1,0,1:2:0:0:
314,192,83525,1,0,1:2:0:0:
337,278,83858,1,0,1:2:0:0:
495,118,84691,5,0,1:2:0:0:
495,118,84858,1,0,1:2:0:0:
229,70,85858,1,0,1:2:0:0:
229,70,86025,1,0,1:2:0:0:
229,70,86191,1,0,1:2:0:0:
191,151,86525,1,0,1:2:0:0:
142,370,87358,5,0,1:2:0:0:
142,370,87525,1,0,1:2:0:0:
5,136,88525,1,0,1:2:0:0:
5,136,88691,1,0,1:2:0:0:
5,136,88858,1,0,1:2:0:0:
91,111,89191,1,0,1:2:0:0:
354,152,92025,6,0,B|370:108|370:108|351:45,1,100,8|8,0:3|0:2,0:0:0:0:
322,26,92525,1,8,0:3:0:0:
322,26,92691,6,0,P|257:27|188:21,1,100,4|8,1:2|0:2,0:0:0:0:
130,65,93357,2,0,P|101:63|59:69,2,50,0|0|8,1:2|1:2|0:2,0:0:0:0:
216,116,94024,2,0,P|262:112|347:123,1,100,4|8,1:2|0:2,0:0:0:0:
360,93,94524,2,0,P|402:100|491:90,1,100,0|0,1:2|1:2,0:0:0:0:
498,128,95024,1,8,0:2:0:0:
426,197,95357,6,0,P|375:190|306:199,1,100,0|8,1:2|0:2,0:0:0:0:
284,221,95858,1,0,1:0:0:0:
196,173,96191,1,0,1:0:0:0:
196,173,96358,1,8,0:0:0:0:
113,229,96691,2,0,P|112:280|127:365,1,100,0|8,1:2|0:2,0:0:0:0:
136,375,97191,2,0,B|185:357|185:357|248:378,1,100,0|0,1:2|1:2,0:0:0:0:
275,350,97691,1,8,0:2:0:0:
248,254,98024,6,0,P|256:208|267:138,1,100,4|8,1:2|0:2,0:0:0:0:
340,89,98691,2,0,L|414:105,2,50,0|0|10,1:2|1:2|0:1,0:0:0:0:
318,45,99191,1,10,0:1:0:0:
318,45,99357,2,0,L|194:69,1,100,0|8,1:2|0:2,0:0:0:0:
176,40,99857,2,0,P|129:35|61:120,1,150,8|8,0:2|0:2,0:0:0:0:
1,183,100691,6,0,P|7:232|16:288,1,100,4|8,1:2|0:2,0:0:0:0:
19,332,101191,1,4,1:2:0:0:
117,309,101524,1,0,1:2:0:0:
209,269,101857,2,0,P|267:285|326:292,1,100,4|0,1:2|1:2,0:0:0:0:
356,300,102357,1,8,0:2:0:0:
456,344,102691,1,8,0:3:0:0:
456,344,102857,1,4,0:3:0:0:
456,344,103024,1,8,0:2:0:0:
501,254,103357,6,0,P|489:202|480:147,1,100,4|8,1:2|0:2,0:0:0:0:
385,126,104024,2,0,P|376:70|360:13,1,100,8|8,0:2|0:2,0:0:0:0:
273,78,104691,2,0,L|201:66,1,50,8|0,0:2|1:2,0:0:0:0:
182,44,105024,1,8,0:2:0:0:
182,44,105191,2,0,P|123:42|89:78,1,100,0|0,1:2|1:2,0:0:0:0:
73,113,105691,1,8,0:2:0:0:
27,202,106024,6,0,P|38:267|45:319,1,100,8|8,0:2|0:2,0:0:0:0:
141,282,106691,2,0,P|158:326|192:389,1,100,8|8,0:2|0:2,0:0:0:0:
247,311,107357,2,0,P|292:322|363:336,1,100,12|8,0:2|0:2,0:0:0:0:
393,320,107857,1,0,1:2:0:0:
393,320,108024,2,0,L|464:336,2,50,8|8|8,0:3|0:3|0:2,0:0:0:0:
328,245,108691,6,0,P|306:198|284:119,1,100,12|8,0:2|0:2,0:0:0:0:
326,116,109191,1,0,1:2:0:0:
326,116,109357,2,0,P|342:74|378:8,1,100,8|8,0:2|0:2,0:0:0:0:
446,89,110024,2,0,B|473:128|473:128|456:198,1,100,8|8,0:2|1:2,0:0:0:0:
424,213,110524,1,0,1:2:0:0:
424,213,110691,1,8,0:0:0:0:
357,287,111024,2,0,L|303:274,1,50,8|0,0:2|1:2,0:0:0:0:
263,256,111357,6,0,P|231:267|153:280,1,100,4|8,1:2|0:2,0:0:0:0:
130,314,111857,2,0,P|73:323|21:341,1,100,0|0,1:2|1:2,0:0:0:0:
15,290,112357,1,8,0:2:0:0:
54,198,112691,2,0,L|75:130,1,50,8|4,0:3|0:3,0:0:0:0:
87,104,113024,1,8,0:2:0:0:
101,56,113191,1,0,1:2:0:0:
297,19,113858,6,0,P|281:81|264:148,1,100,4|0,1:2|1:2,0:0:0:0:
263,165,114358,1,8,0:2:0:0:
342,225,114691,2,0,L|401:210,1,50,0|0,1:2|1:2,0:0:0:0:
438,199,115025,1,8,0:2:0:0:
438,199,115191,2,0,B|465:241|465:241|454:291,1,100,0|0,1:2|1:2,0:0:0:0:
440,338,115691,1,8,0:2:0:0:
343,364,116025,2,0,L|277:349,1,50,0|0,1:2|1:2,0:0:0:0:
246,369,116358,5,8,0:2:0:0:
246,369,116525,2,0,L|229:265,1,100,4|0,1:2|1:2,0:0:0:0:
216,222,117025,1,8,0:2:0:0:
306,180,117358,1,0,1:2:0:0:
245,100,117691,1,8,0:2:0:0:
245,100,117858,2,0,P|187:119|133:129,1,100,0|0,1:2|1:2,0:0:0:0:
99,116,118358,1,8,0:2:0:0:
24,182,118691,2,0,B|10:231|10:231|33:291,1,100,8|8,0:2|0:2,0:0:0:0:
49,321,119191,5,0,0:0:0:0:
49,321,119358,2,0,P|109:337|176:363,1,100,4|0,1:2|1:2,0:0:0:0:
190,368,119858,1,4,1:2:0:0:
264,302,120191,2,0,L|250:236,1,50,0|12,1:2|0:2,0:0:0:0:
222,213,120525,2,0,P|218:170|252:113,1,100,4|0,1:2|1:2,0:0:0:0:
292,109,121025,1,8,0:2:0:0:
292,109,121191,1,0,1:2:0:0:
379,157,121525,1,0,1:2:0:0:
379,157,121691,2,0,L|440:171,1,50,8|0,0:2|1:2,0:0:0:0:
473,146,122025,6,0,B|499:107|499:107|491:49,1,100,4|8,1:2|0:2,0:0:0:0:
447,30,122525,1,4,1:2:0:0:
356,72,122858,1,0,1:2:0:0:
356,72,123025,1,8,0:2:0:0:
356,72,123191,2,0,P|299:56|256:48,1,100,8|8,0:2|0:3,0:0:0:0:
214,37,123691,1,8,0:3:0:0:
214,37,123858,1,4,1:2:0:0:
119,3,124191,1,4,0:3:0:0:
44,69,124525,6,0,P|53:115|60:190,1,100,4|0,1:2|1:2,0:0:0:0:
33,211,125025,1,8,0:2:0:0:
103,281,125358,2,0,P|140:276|172:263,2,50,0|0|8,1:2|1:2|0:2,0:0:0:0:
68,317,125858,2,0,B|70:370|70:370|122:391,1,100,0|0,1:1|0:2,0:0:0:0:
159,366,126358,1,10,0:1:0:0:
245,315,126691,2,0,L|325:298,1,50,8|8,0:2|0:2,0:0:0:0:
329,268,127025,5,8,0:2:0:0:
329,268,127191,2,0,P|337:224|302:157,1,100,4|0,1:2|1:2,0:0:0:0:
273,149,127691,1,8,0:2:0:0:
201,78,128025,2,0,L|216:7,1,50,0|0,1:2|1:2,0:0:0:0:
259,14,128358,1,8,0:2:0:0:
259,14,128525,2,0,P|315:32|368:45,1,100,0|0,1:2|1:2,0:0:0:0:
404,51,129025,1,8,0:2:0:0:
455,136,129358,1,0,1:2:0:0:
442,184,129525,1,0,0:0:0:0:
431,232,129691,1,8,0:2:0:0:
459,328,130025,6,0,P|409:334|336:354,1,100,4|8,1:2|0:2,0:0:0:0:
314,364,130525,1,4,1:2:0:0:
259,280,130858,2,0,L|267:222,1,50,4|12,1:2|0:2,0:0:0:0:
237,189,131191,2,0,B|187:193|187:193|135:164,1,100,4|8,0:2|0:2,0:0:0:0:
98,146,131691,1,8,0:2:0:0:
98,146,131858,1,0,1:2:0:0:
163,70,132191,1,0,1:2:0:0:
163,70,132358,2,0,L|151:5,1,50,8|0,0:2|0:2,0:0:0:0:
203,14,132691,6,0,P|257:25|318:33,1,100,4|0,1:2|0:0,0:0:0:0:
351,37,133191,1,4,1:2:0:0:
376,133,133525,2,0,P|338:123|303:118,1,50,0|10,1:2|0:1,0:0:0:0:
287,152,133858,2,0,B|262:194|262:194|271:267,1,100,4|0,1:2|0:0,0:0:0:0:
290,289,134358,1,12,0:2:0:0:
369,350,134691,2,0,P|426:336|503:323,1,100,0|8,1:2|0:3,0:0:0:0:
487,230,135358,6,0,L|473:152,1,50,8|8,0:2|0:3,0:0:0:0:
466,132,135691,1,4,0:3:0:0:
417,143,135858,1,0,1:2:0:0:
321,171,136191,1,0,1:2:0:0:
175,208,136691,2,0,P|184:159|206:91,1,100,0|8,1:2|0:3,0:0:0:0:
222,67,137191,1,0,1:2:0:0:
125,68,137525,1,12,0:2:0:0:
125,68,137691,2,0,P|111:118|99:182,1,100,2|6,0:2|1:2,0:0:0:0:
256,192,147358,12,4,148691,1:2:0:0:
188,265,149358,5,0,0:0:0:0:
188,265,149525,1,0,1:2:0:0:
188,265,149691,2,0,L|127:281,1,50,8|0,0:2|0:2,0:0:0:0:
94,300,150025,2,0,B|68:257|68:257|86:194,1,100,0|8,1:2|0:2,0:0:0:0:
52,168,150525,2,0,P|60:118|76:50,1,100,0|0,1:2|1:2,0:0:0:0:
70,19,151025,1,8,0:2:0:0:
185,26,151358,6,0,P|226:57|294:52,1,100,4|8,1:2|0:2,0:0:0:0:
314,30,151858,2,0,P|328:88|340:145,1,100,8|10,0:2|1:1,0:0:0:0:
338,177,152358,1,4,0:2:0:0:
279,258,152691,1,0,1:2:0:0:
293,305,152858,1,0,1:2:0:0:
315,349,153025,2,0,B|360:324|360:324|432:334,1,100,12|0,0:2|1:2,0:0:0:0:
453,352,153525,2,0,P|461:285|484:191,1,150,8|0,0:2|1:2,0:0:0:0:
392,154,154358,6,0,B|347:175|347:175|281:161,1,100,6|0,1:0|0:2,0:0:0:0:
253,141,154858,2,0,P|196:158|133:169,1,100,6|0,1:0|0:2,0:0:0:0:
126,205,155358,1,0,1:2:0:0:
50,139,155691,1,8,0:2:0:0:
50,139,155858,2,0,P|43:92|32:36,1,100,0|0,1:2|1:2,0:0:0:0:
76,15,156358,2,0,L|143:33,1,50,8|0,0:2|0:2,0:0:0:0:
176,42,156691,5,0,1:2:0:0:
176,42,156858,1,0,1:2:0:0:
270,10,157191,2,0,P|285:65|297:120,1,100,2|0,1:0|1:2,0:0:0:0:
288,156,157691,1,8,0:2:0:0:
288,156,157858,2,0,P|301:223|313:270,1,100,0|8,0:2|0:3,0:0:0:0:
355,282,158358,1,8,0:3:0:0:
355,282,158525,2,0,B|428:265|428:265|522:324,1,150,0|12,1:2|0:2,0:0:0:0:
419,374,159358,6,0,P|370:364|304:358,1,100,4|8,1:2|0:2,0:0:0:0:
270,364,159858,2,0,P|217:358|161:345,1,100,0|0,1:2|1:2,0:0:0:0:
132,317,160358,1,8,0:2:0:0:
132,317,160525,1,2,0:1:0:0:
69,239,160858,2,0,L|86:162,1,50,0|8,1:2|0:2,0:0:0:0:
62,143,161191,2,0,B|113:147|113:147|157:121,1,100,0|0,1:2|1:2,0:0:0:0:
179,78,161691,1,8,0:2:0:0:
265,26,162025,6,0,P|251:82|244:136,1,100,4|8,1:2|0:2,0:0:0:0:
273,165,162525,2,0,P|322:171|375:187,1,100,0|0,1:2|1:2,0:0:0:0:
423,178,163025,1,8,0:2:0:0:
423,178,163191,1,0,0:2:0:0:
485,256,163525,2,0,L|465:332,1,50,0|12,1:2|0:2,0:0:0:0:
430,331,163858,2,0,B|385:305|385:305|317:311,1,100,2|8,0:1|0:2,0:0:0:0:
291,330,164358,1,8,0:2:0:0:
222,255,164691,6,0,P|210:200|191:137,1,100,4|8,1:2|0:2,0:0:0:0:
156,129,165191,1,0,1:2:0:0:
156,129,165358,1,4,1:2:0:0:
69,179,165691,2,0,L|87:246,1,50,8|0,0:2|0:2,0:0:0:0:
61,273,166025,2,0,P|74:321|84:388,1,100,4|8,1:2|0:2,0:0:0:0:
165,315,166691,2,0,L|229:330,1,50,4|0,0:2|1:2,0:0:0:0:
260,346,167025,1,8,0:2:0:0:
308,335,167191,1,0,1:2:0:0:
355,317,167358,6,0,P|413:331|462:348,1,100,12|12,0:2|0:2,0:0:0:0:
495,255,168025,2,0,B|518:213|518:213|508:151,1,100,12|8,0:0|1:0,0:0:0:0:
462,144,168525,1,8,1:0:0:0:
462,144,168691,2,0,L|400:162,1,50,8|8,0:0|0:3,0:0:0:0:
367,178,169025,1,4,0:3:0:0:
319,192,169191,1,12,0:0:0:0:
31,370,180525,6,0,P|35:316|37:233,1,100,4|0,1:2|1:2,0:0:0:0:
70,233,181025,1,8,0:2:0:0:
156,283,181358,2,0,L|151:370,1,50,0|0,1:2|1:2,0:0:0:0:
192,363,181691,1,8,0:2:0:0:
192,363,181858,2,0,B|242:349|242:349|317:375,1,100,0|0,1:2|1:2,0:0:0:0:
333,345,182358,1,8,0:2:0:0:
407,277,182691,1,0,1:2:0:0:
364,196,183025,5,8,0:2:0:0:
364,196,183191,2,0,P|310:205|232:225,1,100,4|0,1:2|1:2,0:0:0:0:
218,232,183691,1,8,0:2:0:0:
131,181,184025,2,0,P|87:189|61:199,1,50,0|0,1:2|1:2,0:0:0:0:
40,173,184358,1,8,0:2:0:0:
40,173,184525,2,0,P|12:135|32:68,1,100,0|0,1:2|1:2,0:0:0:0:
59,56,185025,1,8,0:2:0:0:
150,16,185358,1,8,0:2:0:0:
198,26,185525,1,8,0:2:0:0:
246,34,185691,1,8,0:2:0:0:
300,117,186025,6,0,P|286:169|273:232,1,100,4|0,1:2|1:2,0:0:0:0:
284,263,186525,1,4,1:2:0:0:
357,330,186858,2,0,P|395:321|434:320,1,50,0|12,1:2|0:2,0:0:0:0:
455,329,187191,2,0,B|488:293|488:293|481:233,1,100,4|0,1:2|0:2,0:0:0:0:
458,198,187691,1,8,0:2:0:0:
458,198,187858,1,0,1:2:0:0:
478,100,188191,1,0,1:2:0:0:
478,100,188358,2,0,P|424:91|392:83,1,50,8|0,0:2|0:2,0:0:0:0:
387,63,188691,6,0,P|344:80|274:98,1,100,4|8,1:2|0:2,0:0:0:0:
271,140,189191,1,4,1:2:0:0:
195,74,189525,2,0,L|136:60,1,50,0|8,1:2|0:2,0:0:0:0:
102,85,189858,2,0,B|71:126|71:126|86:197,1,100,8|8,0:2|0:3,0:0:0:0:
106,216,190358,1,8,0:3:0:0:
106,216,190525,1,4,1:2:0:0:
74,310,190858,1,4,0:3:0:0:
161,359,191191,6,0,P|220:352|271:342,1,100,4|0,1:2|1:2,0:0:0:0:
300,315,191691,2,0,L|353:326,2,50,8|0|0,0:2|1:2|1:2,0:0:0:0:
276,270,192191,1,0,1:2:0:0:
262,221,192358,1,8,0:2:0:0:
250,172,192525,2,0,P|264:119|279:-8,1,150,0|10,1:2|0:1,0:0:0:0:
365,72,193358,2,0,P|395:80|434:83,1,50,8|8,0:2|0:2,0:0:0:0:
452,114,193691,5,8,0:2:0:0:
452,114,193858,2,0,P|463:160|434:222,1,100,4|0,1:2|1:2,0:0:0:0:
410,244,194358,1,8,0:2:0:0:
315,212,194691,2,0,L|259:225,1,50,0|0,1:2|1:2,0:0:0:0:
239,265,195025,1,8,0:2:0:0:
239,265,195191,2,0,B|195:240|195:240|126:254,1,100,0|0,1:2|1:2,0:0:0:0:
99,268,195691,1,8,0:2:0:0:
38,188,196025,1,0,1:2:0:0:
49,139,196191,1,8,0:2:0:0:
63,91,196358,1,8,0:2:0:0:
148,38,196691,6,0,P|196:53|253:73,1,100,4|8,1:2|0:2,0:0:0:0:
290,53,197191,1,4,1:2:0:0:
345,136,197525,2,0,L|328:227,1,50,4|12,1:2|0:2,0:0:0:0:
362,227,197858,2,0,B|405:254|405:254|476:245,1,100,4|8,0:2|0:2,0:0:0:0:
497,272,198358,1,8,0:2:0:0:
497,272,198525,1,0,1:2:0:0:
428,345,198858,1,0,1:2:0:0:
428,345,199025,2,0,L|355:329,1,50,8|8,0:2|0:2,0:0:0:0:
340,302,199358,6,0,P|287:313|218:334,1,100,12|8,1:2|0:0,0:0:0:0:
208,361,199858,1,4,1:2:0:0:
150,279,200191,2,0,L|172:204,1,50,0|10,1:2|0:1,0:0:0:0:
202,198,200525,2,0,P|192:127|166:31,1,150,4|12,1:2|0:2,0:0:0:0:
265,14,201358,2,0,P|343:33|470:65,1,200,0|8,1:2|0:0,0:0:0:0:
510,93,202191,1,8,0:3:0:0:
510,93,202358,1,4,0:3:0:0:
510,93,202525,1,0,1:0:0:0:
486,189,202858,1,0,1:2:0:0:
401,313,203358,6,0,P|357:301|288:295,1,100,0|8,1:2|0:3,0:0:0:0:
284,249,203858,1,0,1:2:0:0:
204,308,204191,1,12,0:2:0:0:
204,308,204358,2,0,P|159:298|127:297,1,50,2|0,0:2|0:0,0:0:0:0:
111,322,204691,5,6,1:2:0:0:
47,251,205025,1,8,0:0:0:0:
47,251,205191,2,0,P|57:202|75:136,1,100,0|8,1:0|0:0,0:0:0:0:
80,104,205691,1,8,0:0:0:0:
177,126,206025,1,8,0:0:0:0:
