osu file format v14

[General]
AudioFilename: audio.mp3
AudioLeadIn: 0
PreviewTime: 180441
Countdown: 0
SampleSet: Soft
StackLeniency: 0.7
Mode: 0
LetterboxInBreaks: 0
WidescreenStoryboard: 1

[Editor]
DistanceSpacing: 1
BeatDivisor: 4
GridSize: 32
TimelineZoom: 1.7

[Metadata]
Title:Nijiiro Spring
TitleUnicode:虹色スプリング
Artist:solfa feat. Hashimoto Miyuki
ArtistUnicode:solfa feat. 橋本みゆき
Creator:Zekk
Version:Hard
Source:あやかしコントラクト
Tags:ayakashi contract hd1 vndb vn visual novel eroge japanese pop opening op bongo reisevia pache knowledge roda totsuki rock
BeatmapID:3836737
BeatmapSetID:1843240

[Difficulty]
HPDrainRate:4
CircleSize:4
OverallDifficulty:7
ApproachRate:8
SliderMultiplier:1.4
SliderTickRate:1

[Events]
//Background and Video events
0,0,"osubgwoman.jpg",0,0
//Break Periods
2,71558,81275
2,138225,146608
2,170058,179775
//Storyboard Layer 0 (Background)
//Storyboard Layer 1 (Fail)
//Storyboard Layer 2 (Pass)
//Storyboard Layer 3 (Foreground)
//Storyboard Layer 4 (Overlay)
//Storyboard Sound Samples

[TimingPoints]
692,333.333333333333,4,2,0,70,1,0
15358,-111.111111111111,4,2,0,60,0,0
36691,-111.111111111111,4,2,0,70,0,0
47191,-100,4,2,0,80,0,0
82025,-111.111111111111,4,2,0,60,0,0
103358,-111.111111111111,4,2,0,70,0,0
113858,-100,4,2,0,80,0,0
148691,-100,4,2,0,80,0,0
169858,-100,4,2,0,80,0,1
180525,-100,4,2,0,80,0,0

[Colours]
Combo1 : 248,211,171
Combo2 : 171,252,203
Combo3 : 175,221,254
Combo4 : 249,254,186
Combo5 : 240,80,80

[HitObjects]
279,373,692,5,0,1:2:0:0:
341,317,858,2,0,L|381:327,2,35,8|8|8,0:2|0:2|0:2,0:0:0:0:
262,295,1191,1,0,1:2:0:0:
177,273,1358,1,8,0:2:0:0:
177,273,1441,1,8,0:2:0:0:
177,273,1525,1,8,0:2:0:0:
256,211,1691,6,0,L|318:199,3,35,8|8|8|8,0:2|0:2|0:2|0:2,0:0:0:0:
329,169,2025,2,0,P|399:144|425:78,1,140,4|8,1:2|0:0,0:0:0:0:
355,34,2525,2,0,P|316:30|276:17,1,70,0|0,1:0|0:0,0:0:0:0:
209,74,2858,1,0,1:0:0:0:
123,24,3025,2,0,B|80:75|135:119|92:176,1,140,8|0,0:0|1:0,0:0:0:0:
43,231,3525,2,0,P|38:207|-9:179,1,70,0|8,1:0|0:0,0:0:0:0:
41,310,3858,2,0,P|65:255|135:296,1,140,0|0,1:0|1:0,0:0:0:0:
169,361,4358,2,0,P|175:328|168:278,1,70,8|0,0:0|0:0,0:0:0:0:
250,245,4691,5,0,1:0:0:0:
323,275,4858,1,0,0:0:0:0:
383,231,5025,1,8,0:0:0:0:
312,145,5191,2,0,B|267:138|267:138|227:147|227:147|157:133,1,140,0|0,1:0|1:0,0:0:0:0:
110,89,5691,2,0,P|146:80|185:62,1,70,8|0,0:0|0:0,0:0:0:0:
263,7,6025,6,0,P|314:52|388:41,2,140,0|8|8,1:0|0:0|0:3,0:0:0:0:
216,93,6858,1,8,0:0:0:0:
216,93,6941,1,8,0:0:0:0:
216,93,7025,1,8,0:0:0:0:
120,46,7191,2,8,L|54:34,1,35
45,47,7358,6,0,L|60:137,1,70,4|0,1:2|0:2,0:0:0:0:
12,187,7691,1,8,0:2:0:0:
94,224,7858,2,0,P|169:202|238:165,1,140,0|0,1:2|1:2,0:0:0:0:
295,126,8358,2,0,P|331:140|370:169,1,70,8|0,0:2|0:2,0:0:0:0:
423,222,8691,5,0,1:2:0:0:
373,284,8858,1,0,1:2:0:0:
367,362,9025,1,8,0:2:0:0:
288,314,9191,2,0,B|210:302|223:354|128:328,1,140,0|0,1:2|1:2,0:0:0:0:
54,319,9691,2,0,P|91:310|136:289,1,70,8|0,0:2|0:2,0:0:0:0:
193,230,10025,6,0,L|178:140,1,70,0|0,1:2|0:2,0:0:0:0:
137,88,10358,1,8,0:2:0:0:
208,22,10525,2,0,P|241:73|336:91,1,140,0|0,1:2|1:2,0:0:0:0:
395,44,11025,2,0,P|430:36|483:7,1,70,8|0,0:2|1:2,0:0:0:0:
493,98,11358,5,8,0:2:0:0:
451,163,11525,1,8,0:3:0:0:
485,235,11691,2,0,P|489:266|505:328,1,70,8|8,0:3|0:2,0:0:0:0:
437,353,12025,1,4,0:3:0:0:
363,330,12191,1,4,0:3:0:0:
291,305,12358,1,8,0:2:0:0:
126,343,12691,6,0,L|45:367,1,70,4|0,1:2|0:2,0:0:0:0:
70,281,13025,2,0,P|32:263|-9:237,1,70,8|0,0:2|1:2,0:0:0:0:
78,197,13358,2,0,P|61:150|63:58,2,140,0|8|0,0:2|0:2|1:2,0:0:0:0:
158,152,14191,1,8,0:2:0:0:
158,152,14275,1,8,0:2:0:0:
158,152,14358,2,0,P|196:142|236:123,1,70,8|8,0:2|0:3,0:0:0:0:
286,68,14691,1,8,0:3:0:0:
309,151,14858,2,0,P|316:171|318:195,2,35,4|4|4,0:3|0:3|0:3,0:0:0:0:
286,68,15191,1,12,0:3:0:0:
371,97,15358,6,0,P|406:123|505:159,1,125.999996154785,0|8,1:2|0:2,0:0:0:0:
481,154,16025,2,0,P|464:182|447:230,1,62.9999980773926,0|0,1:2|1:2,0:0:0:0:
473,281,16358,1,8,0:2:0:0:
379,373,16691,6,0,P|323:353|253:308,1,125.999996154785,0|8,1:2|0:2,0:0:0:0:
201,278,17191,2,0,P|168:287|127:308,1,62.9999980773926,0|0,1:2|0:0,0:0:0:0:
78,339,17525,1,0,1:2:0:0:
78,339,17691,1,8,0:2:0:0:
21,215,18025,6,0,P|34:184|39:145,1,62.9999980773926,0|0,1:2|0:2,0:0:0:0:
31,74,18358,1,8,0:2:0:0:
100,113,18525,2,0,P|138:135|227:158,1,125.999996154785,0|0,1:2|1:2,0:0:0:0:
280,115,19025,1,8,0:2:0:0:
426,192,19358,6,0,P|398:203|355:230,1,62.9999980773926,0|0,1:2|1:2,0:0:0:0:
428,273,19691,1,8,0:2:0:0:
364,313,19858,1,0,1:2:0:0:
364,313,19941,1,0,1:2:0:0:
364,313,20025,2,0,P|301:295|225:286,1,125.999996154785,0|8,1:2|0:2,0:0:0:0:
77,333,20691,6,0,P|102:315|146:271,1,62.9999980773926,4|0,1:2|0:0,0:0:0:0:
157,220,21025,2,0,P|143:162|137:95,1,125.999996154785,8|0,0:2|1:2,0:0:0:0:
198,58,21525,2,0,P|213:90|237:130,1,62.9999980773926,0|8,1:2|0:2,0:0:0:0:
306,146,21858,1,0,0:2:0:0:
306,146,22025,2,0,B|368:118|376:173|451:146,1,125.999996154785,0|8,1:2|0:2,0:0:0:0:
486,205,22525,2,0,P|444:195|403:190,1,62.9999980773926,0|0,1:2|0:0,0:0:0:0:
362,243,22858,1,0,1:2:0:0:
362,243,23025,1,8,0:2:0:0:
213,308,23358,6,0,P|282:326|311:369,1,125.999996154785,0|8,1:2|0:2,0:0:0:0:
372,332,23858,2,0,P|393:326|432:304,1,62.9999980773926,0|0,1:2|0:0,0:0:0:0:
488,269,24191,2,0,P|444:256|395:232,1,94.499997116089,0|0,1:2|0:0,0:0:0:0:
400,235,24525,2,0,P|421:180|419:106,1,125.999996154785,0|0,0:2|1:2,0:0:0:0:
361,60,25025,2,0,P|371:97|373:140,1,62.9999980773926,8|0,0:2|1:2,0:0:0:0:
288,164,25358,2,0,P|258:159|206:145,2,62.9999980773926,0|0|8,1:2|1:2|0:2,0:0:0:0:
328,245,25858,1,8,0:3:0:0:
239,285,26025,6,0,P|167:270|86:261,1,125.999996154785,4|8,1:2|0:2,0:0:0:0:
17,160,26691,1,0,1:2:0:0:
92,136,26858,1,0,1:2:0:0:
115,61,27025,1,8,0:2:0:0:
153,193,27358,6,0,P|218:180|297:139,1,125.999996154785,4|8,1:2|0:2,0:0:0:0:
341,122,27858,2,0,P|311:113|281:92,1,62.9999980773926,0|0,1:2|1:2,0:0:0:0:
324,33,28191,1,0,1:2:0:0:
324,33,28358,1,8,0:2:0:0:
434,164,28691,6,0,P|414:214|396:297,1,125.999996154785,0|8,1:2|0:2,0:0:0:0:
401,375,29191,2,0,P|361:347|332:332,1,62.9999980773926,0|0,1:2|0:0,0:0:0:0:
315,276,29525,2,0,P|284:297|209:325,1,94.499997116089,0|0,1:2|0:0,0:0:0:0:
231,319,29858,2,0,B|162:293|172:339|79:314,1,125.999996154785,0|0,0:2|1:2,0:0:0:0:
65,234,30358,1,8,0:2:0:0:
7,294,30525,2,0,P|39:282|81:251,1,62.9999980773926,0|0,1:2|1:2,0:0:0:0:
145,216,30858,1,0,1:2:0:0:
145,216,31025,1,8,0:2:0:0:
15,119,31358,6,0,P|84:121|168:115,2,125.999996154785,4|8|0,1:2|0:2|1:2,0:0:0:0:
27,39,32191,2,0,P|49:54|94:73,1,62.9999980773926,0|10,1:2|0:1,0:0:0:0:
148,30,32525,1,10,0:1:0:0:
227,79,32691,2,0,P|266:47|346:46,1,125.999996154785,0|8,1:2|0:2,0:0:0:0:
385,103,33191,2,0,P|457:99|516:122,1,125.999996154785,8|8,0:2|0:2,0:0:0:0:
463,177,33691,2,0,P|483:204|496:250,1,62.9999980773926,8|2,0:2|0:2,0:0:0:0:
402,271,34025,6,0,B|330:259|336:293|275:288,1,125.999996154785,4|8,1:2|0:2,0:0:0:0:
214,317,34525,2,0,P|241:285|256:247,1,62.9999980773926,4|0,1:2|0:0,0:0:0:0:
184,209,34858,1,0,1:2:0:0:
184,209,35025,1,8,0:2:0:0:
113,258,35191,6,0,P|122:205|114:117,1,125.999996154785,4|0,1:2|1:2,0:0:0:0:
117,133,35608,1,0,0:0:0:0:
117,133,35691,2,0,P|156:124|202:103,1,62.9999980773926,8|8,0:2|0:3,0:0:0:0:
249,59,36025,1,8,0:3:0:0:
291,126,36191,1,4,0:3:0:0:
263,199,36358,2,0,P|266:229|267:267,1,62.9999980773926,8|0,0:2|0:2,0:0:0:0:
299,354,36691,6,0,P|341:320|404:299,1,94.499997116089,4|0,1:2|0:0,0:0:0:0:
377,304,37025,2,0,P|408:320|454:330,1,62.9999980773926,8|0,0:2|1:2,0:0:0:0:
443,228,37358,2,0,P|488:187|514:119,1,125.999996154785,8|8,0:2|0:2,0:0:0:0:
454,58,37858,1,0,1:2:0:0:
357,103,38025,6,0,P|314:81|275:72,1,62.9999980773926,8|0,0:2|1:2,0:0:0:0:
231,23,38358,1,8,0:2:0:0:
192,106,38525,2,0,P|171:149|94:178,1,125.999996154785,0|0,1:2|1:2,0:0:0:0:
7,163,39025,2,0,P|22:200|30:244,1,62.9999980773926,8|0,0:2|1:2,0:0:0:0:
2,309,39358,6,0,P|32:305|84:286,1,62.9999980773926,8|0,0:2|1:2,0:0:0:0:
101,382,39691,2,0,P|131:359|154:324,1,62.9999980773926,8|0,0:2|1:2,0:0:0:0:
224,326,40025,2,0,P|234:278|216:209,1,94.499997116089,8|0,0:2|0:2,0:0:0:0:
227,233,40358,2,0,P|236:198|248:149,1,62.9999980773926,8|0,0:2|1:2,0:0:0:0:
318,233,40691,6,0,B|378:210|394:267|460:244,1,125.999996154785,12|8,0:2|0:2,0:0:0:0:
499,178,41191,1,0,1:2:0:0:
431,124,41358,1,8,0:3:0:0:
416,128,41441,1,8,0:3:0:0:
404,133,41525,1,8,0:3:0:0:
326,98,41691,2,0,P|290:87|253:67,1,62.9999980773926,8|0,0:2|1:2,0:0:0:0:
194,0,42025,6,0,P|147:49|145:117,1,125.999996154785,12|8,0:2|0:2,0:0:0:0:
166,186,42525,1,0,1:2:0:0:
83,168,42691,2,0,P|56:185|28:198,1,62.9999980773926,8|0,0:2|1:2,0:0:0:0:
94,251,43025,2,0,P|140:264|224:322,1,125.999996154785,8|8,0:2|0:2,0:0:0:0:
259,366,43525,1,0,1:2:0:0:
328,326,43691,1,8,1:2:0:0:
268,242,43858,2,0,P|241:192|246:117,1,125.999996154785,0|0,1:2|1:2,0:0:0:0:
312,157,44358,2,0,P|347:163|374:172,1,62.9999980773926,8|0,0:2|1:2,0:0:0:0:
445,146,44691,5,4,1:2:0:0:
495,293,45025,1,8,0:2:0:0:
495,293,45191,1,0,1:2:0:0:
323,351,45525,1,0,1:2:0:0:
323,351,45691,1,8,0:2:0:0:
262,190,46025,1,8,0:3:0:0:
262,190,46108,1,8,0:3:0:0:
262,190,46191,1,4,0:3:0:0:
334,222,46358,1,8,0:2:0:0:
404,251,46525,1,0,1:2:0:0:
404,251,47191,6,0,B|334:227|332:272|244:254,1,140,4|0,1:2|1:2,0:0:0:0:
176,260,47691,2,0,P|195:295|214:344,1,70,8|0,0:2|0:2,0:0:0:0:
148,367,48025,1,0,1:2:0:0:
70,352,48191,1,0,1:2:0:0:
47,279,48358,1,8,0:2:0:0:
2,204,48525,2,0,P|79:169|113:128,1,140,0|0,1:2|1:2,0:0:0:0:
154,44,49025,2,0,P|193:70|234:80,1,70,8|0,0:2|0:2,0:0:0:0:
285,124,49358,1,0,1:2:0:0:
319,55,49525,1,0,1:2:0:0:
319,55,49691,1,8,0:2:0:0:
379,120,49858,6,0,P|386:184|386:273,1,140,4|0,1:2|1:2,0:0:0:0:
466,306,50358,2,0,P|456:337|422:390,1,70,8|0,0:2|1:2,0:0:0:0:
367,369,50691,2,0,P|300:342|220:338,1,140,0|8,1:2|0:2,0:0:0:0:
149,329,51191,2,0,P|213:290|260:225,1,140,0|0,1:2|1:2,0:0:0:0:
171,188,51691,2,0,P|175:152|169:101,1,70,8|8,0:2|0:2,0:0:0:0:
106,75,52025,2,0,B|188:47|191:109|266:80,1,140,8|8,0:2|0:2,0:0:0:0:
487,7,52691,6,0,P|489:38|497:83,1,70,4|0,1:2|1:2,0:0:0:0:
453,147,53025,1,0,1:2:0:0:
399,88,53191,2,0,P|396:170|386:241,1,140,4|0,1:2|1:2,0:0:0:0:
474,264,53691,1,8,0:0:0:0:
430,367,53859,2,0,P|416:334|411:300,1,70,12|4,0:2|1:2,0:0:0:0:
326,336,54191,1,0,0:2:0:0:
253,364,54358,1,8,0:2:0:0:
182,314,54525,2,0,P|124:290|45:302,1,140,0|0,1:2|1:2,0:0:0:0:
14,218,55025,2,0,P|54:224|98:249,1,70,8|0,0:2|0:2,0:0:0:0:
142,143,55358,6,0,P|135:93|138:-4,1,140,4|8,1:2|0:2,0:0:0:0:
215,70,55858,2,0,P|221:99|246:142,1,70,4|0,1:2|0:2,0:0:0:0:
76,169,56191,2,0,P|94:137|108:99,1,70,0|8,1:2|0:2,0:0:0:0:
169,167,56525,1,8,0:2:0:0:
139,248,56691,1,8,0:2:0:0:
180,328,56858,1,8,0:3:0:0:
180,328,56941,1,8,0:3:0:0:
180,328,57025,1,8,0:3:0:0:
127,382,57191,5,4,1:2:0:0:
261,311,57525,1,4,0:3:0:0:
395,369,57858,2,0,P|386:302|386:220,1,140,4|0,1:2|1:2,0:0:0:0:
465,202,58358,2,0,P|447:163|439:123,1,70,8|0,0:2|1:2,0:0:0:0:
338,163,58691,2,0,B|263:147|266:190|189:166,1,140,0|8,1:2|0:2,0:0:0:0:
120,195,59191,1,0,0:2:0:0:
73,124,59358,2,0,P|105:109|134:88,1,70,2|0,1:3|0:2,0:0:0:0:
234,61,59691,2,0,P|167:50|91:12,2,140,10|8|8,0:1|0:2|0:2,0:0:0:0:
328,10,60525,6,0,P|382:21|406:103,1,140,4|0,1:2|1:2,0:0:0:0:
339,145,61025,2,0,P|326:178|283:212,1,70,8|0,0:2|0:2,0:0:0:0:
233,263,61358,1,0,1:2:0:0:
279,327,61525,1,0,1:2:0:0:
358,323,61691,1,8,0:2:0:0:
443,353,61858,6,0,P|423:286|426:204,1,140,0|0,1:2|1:2,0:0:0:0:
361,171,62358,2,0,P|343:197|328:255,1,70,8|0,0:2|0:2,0:0:0:0:
249,180,62691,2,0,P|170:154|89:162,1,140,0|8,1:2|0:2,0:0:0:0:
48,201,63191,1,8,0:2:0:0:
11,105,63358,6,0,P|86:84|144:36,1,140,4|8,1:2|0:2,0:0:0:0:
218,0,63858,2,0,P|234:34|244:81,1,70,4|0,1:2|0:0,0:0:0:0:
313,125,64191,2,0,P|321:91|337:59,1,70,4|12,1:2|0:2,0:0:0:0:
454,16,64525,6,0,P|445:83|483:165,1,140,4|8,0:2|0:2,0:0:0:0:
507,227,65025,1,8,0:2:0:0:
443,280,65191,1,0,1:2:0:0:
443,280,65358,1,4,1:2:0:0:
365,237,65525,1,0,1:2:0:0:
412,312,65691,1,8,0:2:0:0:
255,355,66025,6,0,B|180:333|181:380|106:363,1,140,4|0,1:2|0:0,0:0:0:0:
56,308,66525,2,0,P|70:274|81:225,1,70,4|2,1:2|0:1,0:0:0:0:
175,270,66858,2,0,P|164:226|161:132,2,140,0|4|0,1:2|1:2|1:2,0:0:0:0:
255,206,67691,2,0,P|289:188|340:172,1,70,12|4,0:2|0:2,0:0:0:0:
375,241,68025,2,0,P|436:251|524:288,1,140,0|8,1:2|0:3,0:0:0:0:
463,207,68525,1,4,0:3:0:0:
510,134,68691,5,8,0:2:0:0:
479,68,68858,1,8,0:3:0:0:
411,45,69025,1,4,0:3:0:0:
342,76,69192,1,0,1:2:0:0:
342,76,69525,1,0,1:2:0:0:
233,172,70025,5,0,1:2:0:0:
161,205,70191,1,8,0:3:0:0:
161,205,70275,1,8,0:3:0:0:
161,205,70358,1,8,0:3:0:0:
87,159,70525,1,0,1:2:0:0:
11,104,70858,5,12,0:2:0:0:
11,104,71025,2,0,P|14:162|1:256,1,140,2|6,0:2|1:2,0:0:0:0:
338,379,82025,5,0,1:2:0:0:
338,379,82191,1,0,1:2:0:0:
444,198,83191,1,0,1:2:0:0:
444,198,83358,1,0,1:2:0:0:
444,198,83525,1,0,1:2:0:0:
330,137,83858,1,0,1:2:0:0:
106,276,84691,5,0,1:2:0:0:
106,276,84858,1,0,1:2:0:0:
68,55,85858,1,0,1:2:0:0:
68,55,86025,1,0,1:2:0:0:
68,55,86191,1,0,1:2:0:0:
155,150,86525,1,0,1:2:0:0:
240,365,87358,5,0,1:2:0:0:
240,365,87525,1,0,1:2:0:0:
317,103,88525,1,0,1:2:0:0:
317,103,88691,1,0,1:2:0:0:
317,103,88858,1,0,1:2:0:0:
376,230,89191,1,0,1:2:0:0:
189,68,90025,5,2,0:2:0:0:
259,319,92025,1,8,0:3:0:0:
231,242,92191,1,8,0:2:0:0:
231,242,92275,1,8,0:2:0:0:
231,242,92358,1,8,0:2:0:0:
206,161,92525,1,8,0:3:0:0:
273,99,92691,6,0,P|345:114|426:123,1,125.999996154785,4|8,1:2|0:2,0:0:0:0:
495,224,93357,1,0,1:2:0:0:
420,248,93524,1,0,1:2:0:0:
397,323,93691,1,8,0:2:0:0:
359,191,94024,6,0,P|294:204|215:245,1,125.999996154785,4|8,1:2|0:2,0:0:0:0:
171,262,94524,2,0,P|201:271|231:292,1,62.9999980773926,0|0,1:2|1:2,0:0:0:0:
188,351,94857,1,0,1:2:0:0:
188,351,95024,1,8,0:2:0:0:
78,220,95357,6,0,P|98:170|116:87,1,125.999996154785,0|8,1:2|0:2,0:0:0:0:
111,9,95857,2,0,P|151:37|180:52,1,62.9999980773926,0|0,1:2|0:0,0:0:0:0:
197,108,96191,2,0,P|228:87|303:59,1,94.499997116089,0|0,1:2|0:0,0:0:0:0:
280,64,96525,2,0,B|352:47|345:80|409:75,1,125.999996154785,0|0,0:2|1:2,0:0:0:0:
455,164,97024,1,8,0:2:0:0:
512,98,97191,2,0,P|480:110|438:141,1,62.9999980773926,0|0,1:2|1:2,0:0:0:0:
367,168,97524,1,0,1:2:0:0:
367,168,97691,1,8,0:2:0:0:
497,265,98024,6,0,P|428:263|344:269,2,125.999996154785,4|8|0,1:2|0:2|1:2,0:0:0:0:
485,345,98857,2,0,P|463:330|418:311,1,62.9999980773926,0|10,1:2|0:1,0:0:0:0:
364,354,99191,1,10,0:1:0:0:
285,305,99357,2,0,P|246:337|166:338,1,125.999996154785,0|8,1:2|0:2,0:0:0:0:
127,281,99857,2,0,P|55:285|-4:262,1,125.999996154785,8|8,0:2|0:2,0:0:0:0:
49,207,100357,2,0,P|29:180|16:134,1,62.9999980773926,8|2,0:2|0:2,0:0:0:0:
98,109,100691,6,0,B|170:92|163:125|221:120,1,125.999996154785,4|8,1:2|0:2,0:0:0:0:
298,67,101191,2,0,P|271:99|256:137,1,62.9999980773926,4|0,1:2|0:0,0:0:0:0:
328,175,101524,1,0,1:2:0:0:
328,175,101691,1,8,0:2:0:0:
399,126,101857,6,0,P|390:179|398:267,1,125.999996154785,4|0,1:2|1:2,0:0:0:0:
395,251,102274,1,0,0:0:0:0:
395,251,102357,2,0,P|356:260|310:281,1,62.9999980773926,8|8,0:2|0:3,0:0:0:0:
263,325,102691,1,8,0:3:0:0:
221,258,102857,1,4,0:3:0:0:
249,185,103024,2,0,P|246:155|245:117,1,62.9999980773926,8|0,0:2|0:2,0:0:0:0:
219,29,103357,6,0,P|177:63|114:84,1,94.499997116089,4|0,1:2|0:0,0:0:0:0:
141,79,103691,2,0,P|110:63|64:53,1,62.9999980773926,8|0,0:2|1:2,0:0:0:0:
69,155,104024,2,0,P|24:196|-2:264,1,125.999996154785,8|8,0:2|0:2,0:0:0:0:
55,329,104524,1,0,1:2:0:0:
155,281,104691,6,0,P|198:303|237:312,1,62.9999980773926,8|0,0:2|1:2,0:0:0:0:
284,372,105024,1,8,0:2:0:0:
320,278,105191,2,0,P|341:235|418:206,1,125.999996154785,0|0,1:2|1:2,0:0:0:0:
505,242,105691,2,0,P|490:205|482:161,1,62.9999980773926,8|0,0:2|1:2,0:0:0:0:
511,84,106024,6,0,P|481:88|429:107,1,62.9999980773926,8|0,0:2|1:2,0:0:0:0:
413,17,106357,2,0,P|383:40|360:75,1,62.9999980773926,8|0,0:2|1:2,0:0:0:0:
293,48,106691,2,0,P|283:96|301:165,1,94.499997116089,8|0,0:2|0:0,0:0:0:0:
290,141,107024,2,0,P|281:176|269:225,1,62.9999980773926,8|0,0:2|1:2,0:0:0:0:
189,139,107358,6,0,B|117:122|124:155|60:150,1,125.999996154785,12|8,0:2|0:2,0:0:0:0:
10,220,107857,1,0,1:2:0:0:
81,260,108024,1,8,0:3:0:0:
96,256,108107,1,8,0:3:0:0:
108,251,108191,1,8,0:3:0:0:
181,305,108357,2,0,P|217:316|254:336,1,62.9999980773926,8|0,0:2|1:2,0:0:0:0:
318,384,108691,6,0,P|365:335|367:267,1,125.999996154785,12|8,0:2|0:2,0:0:0:0:
336,197,109191,1,0,1:2:0:0:
429,216,109357,2,0,P|456:199|484:186,1,62.9999980773926,8|0,0:2|1:2,0:0:0:0:
416,122,109691,2,0,P|370:109|286:51,1,125.999996154785,8|8,0:2|0:2,0:0:0:0:
239,4,110191,1,0,1:2:0:0:
168,62,110357,1,8,1:2:0:0:
240,123,110524,2,0,P|267:173|262:248,1,125.999996154785,0|0,1:2|1:2,0:0:0:0:
200,305,111024,2,0,P|165:299|138:290,1,62.9999980773926,8|0,0:2|1:2,0:0:0:0:
67,238,111357,5,4,1:2:0:0:
17,91,111691,1,8,0:2:0:0:
17,91,111857,1,0,1:2:0:0:
189,33,112191,1,0,1:2:0:0:
189,33,112357,1,8,0:2:0:0:
250,194,112691,1,8,0:3:0:0:
250,194,112774,1,8,0:3:0:0:
250,194,112857,1,4,0:3:0:0:
175,161,113024,1,8,0:2:0:0:
108,133,113191,1,0,1:2:0:0:
108,133,113858,6,0,P|106:189|90:293,1,140,4|0,1:2|1:2,0:0:0:0:
176,241,114358,2,0,P|177:282|185:324,1,70,8|0,0:2|0:2,0:0:0:0:
249,365,114691,1,0,1:2:0:0:
328,377,114858,1,0,1:2:0:0:
376,315,115025,1,8,0:2:0:0:
454,279,115191,2,0,P|403:269|350:201,1,140,0|0,1:2|1:2,0:0:0:0:
403,148,115691,2,0,P|439:133|481:101,1,70,8|0,0:2|0:0,0:0:0:0:
390,60,116025,2,0,B|309:38|315:93|232:67,1,140,0|8,1:2|0:2,0:0:0:0:
182,26,116525,5,4,1:2:0:0:
182,26,116858,1,0,1:2:0:0:
148,93,117025,1,8,0:2:0:0:
78,116,117191,1,0,1:2:0:0:
130,175,117358,2,0,P|147:211|155:256,1,70,0|0,1:2|1:2,0:0:0:0:
225,266,117691,1,8,0:2:0:0:
275,194,117858,2,0,P|321:169|425:150,1,140,0|0,1:2|1:2,0:0:0:0:
331,122,118358,2,0,P|300:92|278:59,1,70,8|0,0:2|0:0,0:0:0:0:
198,13,118691,2,0,P|211:79|201:161,1,140,8|8,0:2|0:2,0:0:0:0:
419,279,119358,5,4,1:2:0:0:
419,279,119525,1,0,1:2:0:0:
419,279,119691,1,0,1:2:0:0:
344,328,119858,2,0,P|281:306|201:294,1,140,4|0,1:2|1:2,0:0:0:0:
137,352,120358,1,12,0:2:0:0:
131,254,120525,6,0,P|88:296|-15:311,1,140,4|0,1:2|1:2,0:0:0:0:
17,237,121025,2,0,P|37:217|55:173,1,70,8|0,0:2|1:2,0:0:0:0:
122,113,121358,1,4,1:2:0:0:
198,125,121525,1,0,1:2:0:0:
266,85,121691,1,8,0:2:0:0:
465,21,122025,5,4,1:2:0:0:
506,84,122191,1,0,1:2:0:0:
477,157,122358,1,8,0:2:0:0:
407,226,122525,2,0,P|415:285|405:388,1,140,4|0,1:2|1:2,0:0:0:0:
340,291,123025,2,0,P|336:313|306:355,1,70,8|8,0:2|0:2,0:0:0:0:
233,380,123358,5,8,0:2:0:0:
231,295,123525,1,8,0:3:0:0:
231,295,123608,1,0,0:0:0:0:
231,295,123691,1,8,0:3:0:0:
224,202,123858,1,4,1:2:0:0:
218,82,124191,1,4,0:3:0:0:
81,133,124525,6,0,P|139:127|244:122,1,140,4|0,1:2|1:2,0:0:0:0:
305,152,125025,2,0,P|337:148|401:130,1,70,8|0,0:2|1:2,0:0:0:0:
451,187,125358,1,0,1:2:0:0:
451,187,125525,1,0,1:2:0:0:
451,187,125691,1,8,0:2:0:0:
380,248,125858,6,0,P|346:285|337:377,1,140,0|0,1:1|0:2,0:0:0:0:
257,338,126358,2,0,P|229:326|180:290,1,70,10|0,0:1|0:0,0:0:0:0:
111,271,126691,1,8,0:2:0:0:
42,285,126858,1,8,0:2:0:0:
9,217,127025,1,8,0:2:0:0:
87,159,127191,6,0,B|166:135|166:184|240:172,1,140,4|0,1:2|1:2,0:0:0:0:
277,121,127691,2,0,P|284:160|299:207,1,70,8|0,0:2|0:2,0:0:0:0:
222,245,128025,2,0,P|221:321|214:392,1,140,0|8,1:2|0:2,0:0:0:0:
282,338,128525,1,0,1:2:0:0:
367,366,128691,2,0,P|416:363|483:399,1,105
466,384,129025,2,0,P|461:347|464:301,1,70,8|0,0:2|0:2,0:0:0:0:
397,242,129358,1,0,1:2:0:0:
321,267,129525,1,0,0:0:0:0:
257,215,129691,2,0,P|221:228|164:236,1,70,8|8,0:2|0:2,0:0:0:0:
115,268,130025,6,0,B|192:248|187:306|262:301,1,140,4|8,1:2|0:2,0:0:0:0:
310,364,130525,2,0,B|328:334|328:334|325:285,1,70,4|0,1:2|0:0,0:0:0:0:
364,226,130858,2,0,P|363:181|372:73,1,140,4|4,1:2|0:2,0:0:0:0:
370,86,131525,1,8,0:2:0:0:
447,122,131691,1,8,0:2:0:0:
486,54,131858,1,0,1:2:0:0:
421,6,132025,2,0,P|383:15|332:16,1,70,4|0,1:2|1:2,0:0:0:0:
267,56,132358,2,0,P|207:32|128:54,1,140,8|4,0:2|1:2,0:0:0:0:
45,172,133025,5,0,0:0:0:0:
16,108,133191,2,0,P|53:123|85:128,1,70,4|0,1:2|0:0,0:0:0:0:
147,197,133525,2,0,B|144:258|171:236|161:329,1,105,0|0,1:2|0:0,0:0:0:0:
163,299,133858,2,0,P|124:303|26:330,1,140,4|0,1:2|0:0,0:0:0:0:
102,356,134358,2,0,P|141:368|177:393,1,70,12|0,0:2|0:0,0:0:0:0:
245,345,134691,1,0,1:2:0:0:
330,371,134858,1,8,0:3:0:0:
330,371,134941,1,8,0:3:0:0:
330,371,135025,2,0,P|330:333|338:283,1,70,8|4,0:3|0:3,0:0:0:0:
448,225,135358,5,8,0:2:0:0:
370,209,135525,1,8,0:3:0:0:
295,191,135691,1,4,0:3:0:0:
219,174,135858,1,0,1:2:0:0:
219,174,136191,1,0,1:2:0:0:
113,200,136691,5,0,1:2:0:0:
191,172,136858,1,8,0:3:0:0:
191,172,136941,1,8,0:3:0:0:
191,172,137025,1,8,0:3:0:0:
263,131,137191,1,0,1:2:0:0:
394,69,137525,1,12,0:2:0:0:
394,69,138025,1,6,1:2:0:0:
256,192,147358,12,4,148691,1:2:0:0:
494,178,149025,6,0,B|422:157|421:204|338:187,1,140,8|0,0:2|0:0,0:0:0:0:
288,148,149525,1,0,1:2:0:0:
288,235,149691,2,0,B|273:268|273:268|274:315,1,70,8|0,0:2|0:2,0:0:0:0:
194,358,150025,2,0,P|121:339|39:333,1,140,0|8,1:2|0:2,0:0:0:0:
1,275,150525,2,0,P|39:262|68:242,1,70,0|0,1:2|0:0,0:0:0:0:
129,192,150858,1,0,1:2:0:0:
81,132,151025,1,8,0:2:0:0:
131,72,151191,1,0,0:2:0:0:
210,139,151358,6,0,P|211:85|224:-24,1,140,4|8,1:2|0:2,0:0:0:0:
288,36,151858,2,0,P|293:71|313:120,1,70,8|0,0:2|1:2,0:0:0:0:
373,154,152191,1,10,1:1:0:0:
373,154,152358,1,4,0:2:0:0:
373,154,152525,1,0,1:2:0:0:
278,204,152691,6,0,P|242:193|189:166,1,70,0|0,1:2|1:2,0:0:0:0:
93,131,153025,1,12,0:2:0:0:
20,188,153191,1,0,1:2:0:0:
39,277,153358,1,0,1:2:0:0:
135,308,153525,1,8,0:2:0:0:
135,308,153608,1,8,0:2:0:0:
135,308,153691,2,0,L|178:300,3,35,8|8|8|8,0:2|0:2|0:2|0:2,0:0:0:0:
211,282,154025,2,0,P|272:309|327:322,1,105,0|0,1:2|0:2,0:0:0:0:
308,318,154358,6,0,P|310:260|355:160,1,140,6|0,1:0|0:2,0:0:0:0:
244,149,154858,2,0,P|241:212|202:294,1,140,6|0,1:0|0:2,0:0:0:0:
123,235,155358,1,0,1:2:0:0:
58,299,155525,1,0,1:2:0:0:
58,299,155608,1,0,1:2:0:0:
58,299,155691,1,8,0:2:0:0:
143,257,155858,1,0,1:2:0:0:
80,209,156025,6,0,P|56:201|3:171,1,70,0|0,0:2|1:2,0:0:0:0:
38,103,156358,1,8,0:2:0:0:
38,103,156525,1,0,0:2:0:0:
131,141,156691,1,0,1:2:0:0:
131,141,156858,2,0,B|206:122|209:171|276:167,1,140,0|2,1:2|1:0,0:0:0:0:
381,62,157525,2,0,P|390:102|406:149,1,70,0|8,1:2|0:2,0:0:0:0:
470,187,157858,6,0,P|420:203|376:282,1,140,0|8,0:2|0:3,0:0:0:0:
401,359,158358,1,8,0:3:0:0:
309,332,158525,1,0,1:2:0:0:
222,355,158691,1,4,0:3:0:0:
154,303,158858,1,4,0:3:0:0:
73,329,159025,1,12,0:2:0:0:
73,329,159358,6,0,B|61:274|97:295|69:197,1,105,4|0,1:2|0:0,0:0:0:0:
76,225,159691,1,8,0:2:0:0:
30,162,159858,2,0,P|107:197|174:218,1,140,0|0,1:2|1:2,0:0:0:0:
226,271,160358,2,0,P|257:252|304:233,1,70,8|2,0:2|0:1,0:0:0:0:
364,187,160691,1,0,1:2:0:0:
364,187,160858,1,0,1:2:0:0:
364,187,161025,1,8,0:2:0:0:
437,253,161191,2,0,P|456:186|506:138,1,140,0|0,1:2|1:2,0:0:0:0:
427,126,161691,2,0,P|416:97|416:46,1,70,8|0,0:2|0:2,0:0:0:0:
305,85,162025,6,0,B|235:63|236:103|145:84,1,140,4|8,1:2|0:2,0:0:0:0:
105,56,162525,2,0,P|137:43|173:15,1,70,0|0,1:2|0:0,0:0:0:0:
234,62,162858,1,0,1:2:0:0:
213,151,163025,2,0,P|215:182|216:222,1,70,8|0,0:2|0:2,0:0:0:0:
151,281,163358,6,0,P|143:231|111:131,1,140,0|12,1:2|0:2,0:0:0:0:
56,205,163858,2,0,P|46:244|26:281,1,70,2|0,0:1|0:0,0:0:0:0:
58,353,164191,1,8,0:2:0:0:
70,358,164275,1,0,0:0:0:0:
81,362,164358,1,8,0:2:0:0:
94,367,164441,1,8,0:2:0:0:
106,372,164525,1,8,0:2:0:0:
185,317,164691,6,0,B|266:300|260:346|337:331,1,140,4|8,1:2|0:2,0:0:0:0:
384,285,165191,1,0,1:2:0:0:
384,285,165358,1,4,1:2:0:0:
466,333,165525,1,0,1:2:0:0:
511,267,165691,2,0,P|479:256|437:229,1,70,8|0,0:2|0:2,0:0:0:0:
375,175,166025,6,0,P|381:113|373:15,1,140,4|8,1:2|0:2,0:0:0:0:
311,4,166525,1,0,1:2:0:0:
309,100,166691,2,0,P|299:132|260:183,1,70,4|0,0:2|1:2,0:0:0:0:
201,212,167025,1,8,0:2:0:0:
201,212,167191,1,0,1:2:0:0:
273,278,167358,6,0,P|338:278|431:265,1,140,12|12,0:2|0:2,0:0:0:0:
501,354,167858,1,0,1:2:0:0:
376,384,168025,2,0,P|302:373|224:373,1,140,12|8,0:0|1:0,0:0:0:0:
236,372,168441,1,8,1:0:0:0:
236,372,168524,1,8,1:0:0:0:
185,261,168691,5,8,0:0:0:0:
212,168,168858,1,8,0:3:0:0:
241,88,169025,1,4,0:3:0:0:
271,0,169191,1,12,0:0:0:0:
384,195,169858,5,0,0:0:0:0:
448,354,180525,6,0,P|382:359|278:353,1,140,4|0,1:2|1:2,0:0:0:0:
232,317,181025,2,0,P|266:297|293:272,1,70,8|0,0:2|0:2,0:0:0:0:
339,205,181358,1,0,1:2:0:0:
339,205,181525,1,0,1:2:0:0:
339,205,181691,1,8,0:2:0:0:
414,257,181858,6,0,P|387:210|390:107,1,140,0|0,1:2|1:2,0:0:0:0:
301,97,182358,2,0,P|310:60|310:18,1,70,8|0,0:2|0:2,0:0:0:0:
232,54,182691,2,0,B|161:34|166:76|81:68,1,140,0|8,1:2|0:2,0:0:0:0:
11,17,183191,1,4,1:2:0:0:
11,17,183525,1,0,1:2:0:0:
26,89,183691,1,8,0:2:0:0:
29,168,183858,1,0,0:2:0:0:
14,238,184025,2,0,P|49:223|95:211,1,70,0|0,1:2|1:2,0:0:0:0:
136,157,184358,1,8,0:2:0:0:
183,236,184525,6,0,P|173:287|174:385,1,140,0|0,1:2|1:2,0:0:0:0:
245,324,185025,2,0,P|284:318|327:302,1,70,8|0,0:2|0:0,0:0:0:0:
415,285,185358,2,0,P|325:265|314:205,1,140,8|8,0:2|0:2,0:0:0:0:
449,67,186025,5,4,1:2:0:0:
381,94,186191,1,0,1:2:0:0:
305,97,186358,1,0,1:2:0:0:
233,61,186525,2,0,P|174:38|83:34,1,140,4|0,1:2|1:2,0:0:0:0:
73,137,187025,2,0,P|47:161|22:203,1,70,12|4,0:2|1:2,0:0:0:0:
27,189,187525,1,0,0:2:0:0:
84,251,187691,1,8,0:2:0:0:
156,226,187858,2,0,P|228:215|320:187,1,140,0|0,1:2|1:2,0:0:0:0:
361,142,188358,2,0,P|390:177|424:206,1,70,8|0,0:2|0:2,0:0:0:0:
478,281,188691,6,0,B|395:265|409:309|318:297,1,140,4|8,1:2|0:2,0:0:0:0:
270,350,189191,2,0,P|225:340|188:337,1,70,4|0,1:2|0:2,0:0:0:0:
130,279,189525,2,0,P|96:280|52:289,2,70,0|8|8,1:2|0:2|0:2,0:0:0:0:
200,207,190025,1,8,0:2:0:0:
291,187,190191,1,8,0:3:0:0:
291,187,190275,1,8,0:3:0:0:
291,187,190358,1,8,0:3:0:0:
381,163,190525,1,4,1:2:0:0:
512,136,190858,1,4,0:3:0:0:
351,52,191191,6,0,B|286:28|280:78|205:57,1,140,4|0,1:2|1:2,0:0:0:0:
152,14,191691,2,0,P|145:46|122:103,1,70,8|0,0:2|1:2,0:0:0:0:
45,67,192025,2,0,P|63:141|61:221,1,140,0|8,1:2|0:2,0:0:0:0:
13,280,192525,2,0,P|54:259|133:247,1,105,0|0,0:2|0:0,0:0:0:0:
111,247,192858,1,0,0:2:0:0:
199,320,193025,2,0,P|265:330|348:384,1,140,10|8,0:1|0:2,0:0:0:0:
400,316,193525,2,0,P|440:302|470:284,1,70,8|8,0:2|0:2,0:0:0:0:
390,209,193858,6,0,B|387:137|416:162|402:57,1,140,4|0,1:2|1:2,0:0:0:0:
336,40,194358,2,0,P|321:73|293:111,1,70,8|0,0:2|0:2,0:0:0:0:
253,181,194691,1,0,1:2:0:0:
179,182,194858,1,0,1:2:0:0:
152,110,195025,1,8,0:2:0:0:
83,74,195191,2,0,P|21:96|15:189,1,140,0|0,1:2|1:2,0:0:0:0:
77,218,195691,2,0,B|69:255|69:255|83:311,1,70,8|0,0:2|0:2,0:0:0:0:
170,355,196025,2,0,P|240:352|341:360,1,140,0|8,1:2|0:2,0:0:0:0:
456,258,196691,5,4,1:2:0:0:
486,188,196858,1,0,0:0:0:0:
430,135,197025,1,8,0:2:0:0:
355,171,197191,2,0,B|281:152|287:196|206:182,1,140,4|4,1:2|1:2,0:0:0:0:
145,131,197691,1,12,0:2:0:0:
155,221,197858,6,0,P|156:257|142:365,1,140,4|8,0:2|0:2,0:0:0:0:
78,294,198358,2,0,P|66:320|30:361,1,70,8|0,0:2|1:2,0:0:0:0:
143,359,198691,1,4,1:2:0:0:
224,344,198858,1,0,1:2:0:0:
297,319,199025,2,0,P|350:326|441:352,1,140,8|12,0:2|1:2,0:0:0:0:
487,280,199525,5,0,1:2:0:0:
412,223,199691,1,8,0:0:0:0:
314,245,199858,2,0,P|246:241|198:180,2,140,4|0|4,1:2|1:2|1:2,0:0:0:0:
348,155,200691,2,0,P|341:126|334:80,1,70,0|0,0:0|1:2,0:0:0:0:
430,102,201025,2,0,P|437:69|458:21,1,70,12|4,0:2|0:2,0:0:0:0:
369,17,201358,2,0,B|296:0|296:41|213:24,1,140,0|8,1:2|0:3,0:0:0:0:
159,6,201858,1,4,0:3:0:0:
99,87,202025,5,8,0:2:0:0:
146,148,202191,1,8,0:3:0:0:
165,219,202358,1,4,0:3:0:0:
155,298,202525,1,0,1:2:0:0:
155,298,202858,1,0,1:2:0:0:
359,362,203358,5,0,1:2:0:0:
421,309,203525,1,8,0:3:0:0:
421,309,203608,1,8,0:3:0:0:
421,309,203691,1,8,0:3:0:0:
452,238,203858,1,0,1:2:0:0:
422,132,204191,1,12,0:2:0:0:
422,132,204358,2,0,P|332:115|259:93,1,140,2|6,0:2|1:2,0:0:0:0:
182,146,204858,6,0,P|159:153|134:166,2,35,8|8|8,0:0|0:0|0:0,0:0:0:0:
279,146,205191,1,0,1:0:0:0:
227,229,205358,2,0,P|218:248|211:276,2,35,8|8|8,0:0|0:0|0:0,0:0:0:0:
306,285,205691,1,8,0:0:0:0:
306,302,205774,1,8,0:0:0:0:
309,319,205857,1,8,0:0:0:0:
314,336,205941,1,8,0:0:0:0:
321,352,206024,1,8,0:0:0:0:
