osu file format v14

[General]
AudioFilename: audio.mp3
AudioLeadIn: 0
PreviewTime: 180441
Countdown: 0
SampleSet: Soft
StackLeniency: 0.7
Mode: 0
LetterboxInBreaks: 0
WidescreenStoryboard: 0

[Editor]
DistanceSpacing: 1
BeatDivisor: 4
GridSize: 32
TimelineZoom: 1.7

[Metadata]
Title:Nijiiro Spring
TitleUnicode:虹色スプリング
Artist:solfa feat. Hashimoto Miyuki
ArtistUnicode:solfa feat. 橋本みゆき
Creator:Zekk
Version:Expert
Source:あやかしコントラクト
Tags:ayakashi contract hd1 vndb vn visual novel eroge japanese pop opening op bongo reisevia pache knowledge roda totsuki rock
BeatmapID:3786028
BeatmapSetID:1843240

[Difficulty]
HPDrainRate:7
CircleSize:4
OverallDifficulty:8
ApproachRate:9
SliderMultiplier:1.8
SliderTickRate:1

[Events]
//Background and Video events
0,0,"osubgwoman.jpg",0,0
//Break Periods
2,71558,81425
2,138225,146758
2,169858,179925
//Storyboard Layer 0 (Background)
//Storyboard Layer 1 (Fail)
//Storyboard Layer 2 (Pass)
//Storyboard Layer 3 (Foreground)
//Storyboard Layer 4 (Overlay)
//Storyboard Sound Samples

[TimingPoints]
692,333.333333333333,4,2,0,70,1,0
15358,-111.111111111111,4,2,0,60,0,0
36691,-111.111111111111,4,2,0,70,0,0
47191,-100,4,2,0,80,0,0
82025,-111.111111111111,4,2,0,60,0,0
103358,-111.111111111111,4,2,0,70,0,0
113858,-100,4,2,0,80,0,0
148691,-100,4,2,0,80,0,0
169858,-100,4,2,0,80,0,1
180525,-100,4,2,0,80,0,0

[Colours]
Combo1 : 248,211,171
Combo2 : 171,252,203
Combo3 : 175,221,254
Combo4 : 249,254,186
Combo5 : 240,80,80

[HitObjects]
468,46,692,5,0,1:2:0:0:
429,239,858,1,8,0:2:0:0:
429,239,941,1,8,0:2:0:0:
429,239,1025,1,8,0:2:0:0:
487,178,1191,1,0,1:2:0:0:
284,129,1358,1,8,0:2:0:0:
284,129,1441,1,8,0:2:0:0:
284,129,1525,1,8,0:2:0:0:
294,352,1691,5,8,0:2:0:0:
341,341,1775,1,8,0:2:0:0:
388,354,1858,1,8,0:2:0:0:
437,346,1941,1,8,0:2:0:0:
482,360,2025,2,0,B|492:310|492:310|474:265,1,90,4|0,1:2|0:2,0:0:0:0:
443,198,2358,1,8,0:2:0:0:
295,266,2525,2,0,B|208:238|210:316|80:257,1,180,0|0,1:2|1:2,0:0:0:0:
34,197,3025,1,8,0:2:0:0:
34,197,3191,1,0,0:2:0:0:
71,366,3358,5,0,1:2:0:0:
160,195,3525,1,0,1:2:0:0:
331,276,3691,1,8,0:2:0:0:
239,384,3858,2,0,P|234:344|230:273,1,90,0|0,1:2|0:2,0:0:0:0:
339,183,4191,1,0,1:2:0:0:
423,223,4358,1,8,0:2:0:0:
83,10,4691,6,0,B|67:52|67:52|78:100,1,90,0|0,1:2|0:2,0:0:0:0:
146,157,5025,1,8,0:2:0:0:
308,108,5191,1,0,1:2:0:0:
234,68,5358,1,0,0:2:0:0:
220,253,5525,1,0,1:2:0:0:
303,212,5691,5,8,0:2:0:0:
146,157,5857,1,0,0:2:0:0:
148,295,6025,2,0,P|149:339|149:397,1,90,0|0,1:2|1:2,0:0:0:0:
303,212,6358,2,0,P|302:168|302:110,1,90,8|0,0:2|0:2,0:0:0:0:
65,227,6691,1,8,0:2:0:0:
65,227,6775,1,8,0:2:0:0:
65,227,6858,1,8,0:2:0:0:
65,227,6941,1,8,0:2:0:0:
65,227,7025,1,8,0:2:0:0:
255,336,7191,5,8,0:2:0:0:
255,336,7275,1,8,0:2:0:0:
255,336,7358,2,0,B|299:324|299:324|355:332,1,90,4|0,1:2|0:2,0:0:0:0:
419,378,7691,1,8,0:2:0:0:
490,277,7858,2,0,P|506:205|463:95,1,180,0|0,1:2|1:2,0:0:0:0:
313,159,8358,2,0,P|267:171|217:175,1,90,8|0,0:2|0:2,0:0:0:0:
29,377,8691,6,0,P|75:365|125:361,1,90,0|0,1:2|1:2,0:0:0:0:
222,318,9025,1,8,0:2:0:0:
343,370,9191,2,0,B|426:336|426:336|544:358,1,180,0|0,1:2|1:2,0:0:0:0:
393,166,9691,2,0,P|392:214|387:278,1,90,8|0,0:2|0:2,0:0:0:0:
228,190,10025,5,0,1:2:0:0:
89,238,10191,1,0,0:2:0:0:
48,99,10358,1,8,0:2:0:0:
141,156,10525,5,0,1:2:0:0:
13,197,10691,1,0,0:2:0:0:
56,322,10858,1,0,1:2:0:0:
246,267,11025,6,0,L|327:277,1,45,8|0,0:2|0:2,0:0:0:0:
310,294,11191,2,0,L|355:300,1,45,0|0,1:2|0:2,0:0:0:0:
480,362,11358,5,8,0:2:0:0:
443,168,11525,1,8,0:3:0:0:
443,168,11691,1,8,0:3:0:0:
236,353,11858,5,8,0:2:0:0:
274,186,12025,1,4,0:3:0:0:
301,40,12191,1,4,0:3:0:0:
53,166,12358,5,8,0:2:0:0:
170,106,12525,1,8,0:3:0:0:
347,246,12691,6,0,P|347:299|349:356,1,90,4|0,1:2|0:2,0:0:0:0:
137,384,13025,2,0,P|137:331|135:274,1,90,8|0,0:2|1:2,0:0:0:0:
372,157,13358,6,0,P|372:210|374:267,1,90,0|0,0:2|1:2,0:0:0:0:
99,307,13692,2,0,P|99:254|97:197,1,90,8|0,0:2|0:2,0:0:0:0:
255,191,14025,5,0,1:2:0:0:
255,191,14191,1,8,0:2:0:0:
255,191,14275,1,8,0:2:0:0:
255,191,14358,2,0,L|259:266,1,45,8|8,0:2|0:2,0:0:0:0:
368,361,14525,5,8,0:3:0:0:
406,348,14608,1,8,0:3:0:0:
436,322,14691,1,8,0:3:0:0:
454,285,14775,1,8,0:2:0:0:
455,245,14858,1,4,0:3:0:0:
441,208,14941,1,4,0:3:0:0:
406,176,15025,2,0,L|328:186,1,45,4|0,0:3|0:2,0:0:0:0:
288,160,15191,2,0,L|210:170,1,45,12|0,0:3|0:2,0:0:0:0:
163,215,15358,6,0,B|87:227|82:173|-17:195,1,161.999995056153,0|8,1:2|0:2,0:0:0:0:
139,105,15858,1,0,0:2:0:0:
40,27,16025,2,0,P|41:74|38:135,1,80.9999975280763,0|0,1:2|1:2,0:0:0:0:
198,201,16358,2,0,P|196:241|197:281,1,80.9999975280763,8|0,0:2|0:2,0:0:0:0:
11,314,16691,6,0,P|72:316|153:396,1,161.999995056153,0|8,1:2|0:2,0:0:0:0:
297,334,17191,2,0,L|481:323,1,161.999995056153,0|0,1:2|1:2,0:0:0:0:
458,324,17691,1,8,0:2:0:0:
268,215,18025,6,0,P|226:220|157:220,1,80.9999975280763,0|0,1:2|0:2,0:0:0:0:
103,172,18358,1,8,0:2:0:0:
183,125,18525,2,0,P|176:57|97:-3,1,161.999995056153,0|0,1:2|1:2,0:0:0:0:
270,84,19025,2,0,P|305:59|329:13,1,80.9999975280763,8|0,0:2|0:2,0:0:0:0:
408,106,19358,5,0,1:2:0:0:
489,145,19525,1,0,1:2:0:0:
496,229,19691,1,8,0:2:0:0:
379,312,19858,5,0,1:2:0:0:
379,312,19941,1,0,1:2:0:0:
379,312,20025,2,0,P|348:292|327:240,1,80.9999975280763,0|0,1:2|1:2,0:0:0:0:
226,308,20358,2,0,P|186:332|166:372,1,80.9999975280763,8|0,0:2|0:2,0:0:0:0:
0,200,20691,6,0,P|67:196|100:285,1,161.999995056153,4|8,1:2|0:2,0:0:0:0:
180,115,21191,1,0,0:2:0:0:
95,114,21358,2,0,P|65:92|25:43,1,80.9999975280763,0|0,1:2|1:2,0:0:0:0:
10,79,21691,2,0,P|10:43|28:-17,1,80.9999975280763,8|0,0:2|0:2,0:0:0:0:
207,128,22025,5,0,1:2:0:0:
289,150,22191,1,0,1:2:0:0:
357,99,22358,1,8,0:2:0:0:
440,149,22525,2,0,P|474:212|471:319,1,161.999995056153,0|0,1:2|1:2,0:0:0:0:
347,363,23025,2,0,P|331:323|333:258,1,80.9999975280763,8|0,0:2|0:2,0:0:0:0:
512,384,23358,5,0,1:2:0:0:
239,291,23691,1,8,0:2:0:0:
150,351,23858,2,0,P|74:355|-14:292,1,161.999995056153,0|0,1:2|1:2,0:0:0:0:
62,216,24358,2,0,B|103:225|103:225|172:215,1,80.9999975280763,8|0,0:2|0:2,0:0:0:0:
275,179,24691,5,0,1:2:0:0:
261,98,24858,1,0,1:2:0:0:
246,18,25025,1,8,0:2:0:0:
252,208,25191,5,0,1:2:0:0:
252,208,25275,1,0,1:2:0:0:
252,208,25358,1,0,1:2:0:0:
342,105,25525,1,0,1:2:0:0:
172,58,25691,2,0,L|182:114,1,40.4999987640381,8|0,0:2|0:2,0:0:0:0:
174,307,25858,5,8,0:3:0:0:
174,307,25941,1,4,0:3:0:0:
174,307,26025,2,0,P|254:305|360:310,1,161.999995056153,4|8,1:2|0:2,0:0:0:0:
508,383,26691,1,0,1:2:0:0:
508,383,26858,1,0,1:2:0:0:
508,383,27025,1,8,0:2:0:0:
335,308,27358,6,0,P|254:305|174:307,1,161.999995056153,4|8,1:2|0:2,0:0:0:0:
4,383,27858,1,0,1:2:0:0:
4,383,27941,1,0,1:2:0:0:
4,383,28025,1,0,1:2:0:0:
4,383,28191,1,0,1:2:0:0:
4,383,28358,1,8,0:2:0:0:
125,204,28691,6,0,P|124:164|118:109,1,80.9999975280763,0|0,1:2|0:2,0:0:0:0:
48,88,29025,1,8,0:2:0:0:
300,15,29191,2,0,P|244:47|228:174,1,161.999995056153,0|0,1:2|1:2,0:0:0:0:
356,96,29691,2,0,P|401:94|460:96,1,80.9999975280763,8|0,0:2|0:2,0:0:0:0:
378,197,30025,5,0,1:2:0:0:
384,12,30191,1,0,1:2:0:0:
216,137,30358,5,8,0:2:0:0:
290,248,30525,1,0,1:2:0:0:
290,248,30608,1,0,1:2:0:0:
290,248,30691,2,0,B|305:208|305:208|291:154,1,80.9999975280763,0|0,1:2|1:2,0:0:0:0:
134,265,31025,2,0,B|119:305|119:305|133:359,1,80.9999975280763,8|0,0:2|0:2,0:0:0:0:
215,278,31358,6,0,B|309:265|296:307|396:288,1,161.999995056153,4|8,1:2|0:2,0:0:0:0:
448,325,31858,1,0,0:2:0:0:
477,204,32025,2,0,P|428:207|359:203,1,80.9999975280763,0|0,1:2|1:2,0:0:0:0:
258,172,32358,5,10,0:1:0:0:
297,147,32441,1,10,0:1:0:0:
309,107,32525,1,10,0:1:0:0:
298,57,32608,1,10,0:1:0:0:
253,38,32691,2,0,B|184:62|184:62|91:37,1,161.999995056153,0|8,1:2|0:2,0:0:0:0:
21,145,33191,1,8,0:2:0:0:
21,145,33275,1,8,0:2:0:0:
21,145,33358,2,0,L|86:154,1,40.4999987640381,8|8,0:2|0:2,0:0:0:0:
97,171,33525,2,0,L|162:180,1,40.4999987640381,8|8,0:2|0:2,0:0:0:0:
209,130,33691,5,8,0:2:0:0:
281,230,33858,1,2,0:2:0:0:
106,382,34025,6,0,P|110:319|111:197,1,161.999995056153,4|8,1:2|0:2,0:0:0:0:
24,292,34525,1,4,1:2:0:0:
283,381,34858,1,0,1:2:0:0:
283,381,35025,1,8,0:2:0:0:
223,116,35191,6,0,P|219:179|218:301,1,161.999995056153,4|0,1:2|1:2,0:0:0:0:
315,203,35691,1,8,0:2:0:0:
121,135,35858,1,8,0:3:0:0:
121,135,35941,1,8,0:3:0:0:
121,135,36025,1,8,0:3:0:0:
115,330,36191,2,0,L|172:325,1,40.4999987640381,4|4,0:3|0:3,0:0:0:0:
327,380,36358,2,0,B|320:339|320:339|334:269,1,80.9999975280763,8|0,0:2|0:2,0:0:0:0:
479,158,36691,5,4,1:2:0:0:
316,105,36858,1,0,1:2:0:0:
437,1,37025,1,8,0:2:0:0:
412,86,37191,5,0,1:2:0:0:
163,18,37358,2,0,B|147:55|147:55|153:120,1,80.9999975280763,8|0,0:2|1:2,0:0:0:0:
373,285,37691,2,0,B|389:248|389:248|383:183,1,80.9999975280763,8|0,0:2|1:2,0:0:0:0:
188,329,38025,5,8,0:2:0:0:
81,366,38191,1,0,1:2:0:0:
52,268,38358,1,8,0:2:0:0:
156,225,38525,1,0,1:2:0:0:
326,367,38691,5,8,0:2:0:0:
425,155,38858,1,0,1:2:0:0:
252,224,39025,1,8,0:2:0:0:
462,344,39191,1,0,1:2:0:0:
236,87,39358,5,8,0:2:0:0:
142,112,39525,1,0,1:2:0:0:
53,139,39691,1,8,0:2:0:0:
117,32,39858,1,0,1:2:0:0:
252,224,40025,5,8,0:2:0:0:
349,41,40191,2,0,P|353:64|360:120,1,40.4999987640381,0|0,1:2|0:2,0:0:0:0:
122,249,40358,6,0,L|12:238,1,80.9999975280763,8|0,0:2|1:2,0:0:0:0:
249,354,40691,2,0,B|342:339|321:383|428:365,1,161.999995056153,12|8,0:2|0:2,0:0:0:0:
478,299,41191,1,0,1:2:0:0:
370,227,41358,1,8,0:3:0:0:
365,186,41441,1,8,0:3:0:0:
361,146,41524,1,8,0:3:0:0:
357,106,41608,1,8,0:3:0:0:
352,65,41691,1,8,0:2:0:0:
200,157,41858,1,0,1:2:0:0:
460,214,42025,5,12,0:2:0:0:
434,28,42191,1,0,1:2:0:0:
275,135,42358,5,8,0:2:0:0:
301,321,42524,1,0,1:2:0:0:
0,208,42691,5,8,0:2:0:0:
31,85,42857,1,0,1:2:0:0:
148,234,43025,5,8,0:2:0:0:
117,357,43191,1,0,1:2:0:0:
287,241,43358,6,0,L|383:229,1,80.9999975280763,8|0,0:2|1:2,0:0:0:0:
431,173,43691,1,8,1:2:0:0:
509,310,43858,2,0,P|433:323|373:401,1,161.999995056153,0|0,1:2|1:2,0:0:0:0:
247,351,44358,2,0,P|247:308|249:246,1,80.9999975280763,8|0,0:2|1:2,0:0:0:0:
128,197,44691,5,4,1:2:0:0:
45,222,44858,1,0,1:2:0:0:
6,147,45025,1,8,0:2:0:0:
145,79,45191,6,0,P|191:84|340:123,1,161.999995056153,0|0,1:2|1:2,0:0:0:0:
485,20,45691,2,0,P|453:51|420:107,1,80.9999975280763,8|0,0:2|0:2,0:0:0:0:
453,248,46025,5,8,0:3:0:0:
463,210,46108,1,8,0:3:0:0:
445,169,46191,1,4,0:3:0:0:
252,255,46358,1,8,0:2:0:0:
80,170,46525,1,0,1:2:0:0:
80,170,47191,6,0,B|184:151|163:210|277:178,1,180,4|0,1:2|1:2,0:0:0:0:
386,104,47691,2,0,P|387:58|375:-8,1,90,8|0,0:2|0:2,0:0:0:0:
281,92,48025,1,0,1:2:0:0:
427,174,48191,1,0,1:2:0:0:
340,313,48358,1,8,0:2:0:0:
171,235,48525,6,0,P|104:235|-12:237,1,180,0|0,1:2|1:2,0:0:0:0:
246,373,49025,2,0,B|262:331|262:331|245:269,1,90,8|0,0:2|0:2,0:0:0:0:
69,135,49358,1,0,1:2:0:0:
66,220,49525,1,0,1:2:0:0:
60,310,49691,1,8,0:2:0:0:
407,197,49858,6,0,B|437:116|437:116|410:4,1,180,4|0,1:2|1:2,0:0:0:0:
293,74,50358,2,0,P|237:75|183:70,1,90,8|0,0:2|1:2,0:0:0:0:
203,72,50608,1,0,1:2:0:0:
203,72,50691,1,0,1:2:0:0:
71,15,50858,1,0,1:2:0:0:
80,51,50941,1,0,1:2:0:0:
91,87,51025,1,8,0:2:0:0:
13,211,51191,6,0,B|93:190|93:190|191:212,1,180,0|0,1:2|1:2,0:0:0:0:
265,324,51691,1,8,0:2:0:0:
334,222,51858,1,8,0:2:0:0:
334,222,51941,1,8,0:2:0:0:
334,222,52025,1,8,0:2:0:0:
178,348,52191,5,8,0:2:0:0:
133,341,52274,1,8,0:2:0:0:
88,335,52357,1,8,0:2:0:0:
44,329,52441,1,8,0:2:0:0:
0,323,52524,1,8,0:2:0:0:
48,308,52608,1,8,0:2:0:0:
93,293,52691,1,4,1:2:0:0:
171,269,52858,1,0,1:2:0:0:
249,243,53025,1,0,1:2:0:0:
357,328,53191,6,0,L|459:353,1,90,4|0,1:2|0:2,0:0:0:0:
428,155,53525,2,0,L|479:249,1,90,0|12,1:2|0:2,0:0:0:0:
447,50,53858,6,0,P|422:107|306:127,1,180,4|0,1:2|0:2,0:0:0:0:
266,67,54358,1,8,0:2:0:0:
135,119,54525,2,0,B|92:109|92:109|29:125,1,90,0|4,1:2|1:2,0:0:0:0:
151,40,54858,1,0,1:2:0:0:
255,209,55025,2,0,P|251:257|252:334,1,90,8|0,0:2|0:2,0:0:0:0:
501,17,55358,5,4,1:2:0:0:
473,93,55525,1,0,1:2:0:0:
491,171,55691,1,8,0:2:0:0:
306,108,55858,2,0,P|258:107|195:109,1,90,4|0,1:2|0:2,0:0:0:0:
28,356,56191,5,0,1:2:0:0:
81,257,56358,1,8,0:2:0:0:
19,163,56525,1,8,0:2:0:0:
19,163,56608,1,8,0:2:0:0:
19,163,56691,1,8,0:2:0:0:
269,11,56858,5,8,0:3:0:0:
248,52,56941,1,8,0:3:0:0:
262,97,57025,1,8,0:3:0:0:
470,224,57191,6,0,L|351:229,1,90,4|0,1:2|0:2,0:0:0:0:
201,287,57525,2,0,P|301:323|334:412,1,180,4|4,0:3|1:2,0:0:0:0:
243,192,58025,1,0,0:2:0:0:
132,250,58191,1,0,1:2:0:0:
77,133,58358,1,8,0:2:0:0:
159,174,58525,5,0,1:2:0:0:
19,257,58691,1,0,1:2:0:0:
96,380,58858,1,0,1:2:0:0:
4,174,59025,5,8,0:2:0:0:
132,250,59191,1,0,0:2:0:0:
214,99,59358,2,0,P|213:50|218:-11,1,90,2|0,1:3|0:2,0:0:0:0:
446,98,59691,6,0,P|447:147|442:208,1,90,10|0,0:1|0:2,0:0:0:0:
277,384,60025,1,8,0:2:0:0:
270,339,60108,1,8,0:2:0:0:
267,294,60191,1,8,0:2:0:0:
269,249,60275,1,8,0:2:0:0:
275,205,60358,1,8,0:2:0:0:
512,295,60525,6,0,P|466:307|324:290,1,180,4|0,1:2|1:2,0:0:0:0:
150,240,61025,2,0,B|163:280|163:280|156:348,1,90,8|0,0:2|0:2,0:0:0:0:
81,375,61358,1,0,1:2:0:0:
45,190,61525,1,0,1:2:0:0:
232,266,61691,1,8,0:2:0:0:
69,294,61858,5,0,1:2:0:0:
194,134,62025,1,0,1:2:0:0:
19,47,62191,1,0,1:2:0:0:
291,147,62358,5,8,0:2:0:0:
384,122,62525,1,0,0:2:0:0:
466,90,62691,2,0,L|522:110,1,45,0|0,1:2|0:2,0:0:0:0:
512,110,62858,1,8,0:2:0:0:
476,138,62941,1,8,0:2:0:0:
450,174,63024,1,8,0:2:0:0:
434,216,63108,1,8,0:2:0:0:
429,260,63191,1,8,0:2:0:0:
436,304,63274,1,8,0:2:0:0:
456,338,63358,6,0,B|411:332|411:332|350:343,1,90,4|0,1:2|1:2,0:0:0:0:
287,372,63691,1,8,0:2:0:0:
163,286,63858,2,0,P|238:262|256:149,1,180,4|4,1:2|1:2,0:0:0:0:
112,56,64358,2,0,P|112:104|107:164,1,90,12|4,0:2|0:2,0:0:0:0:
384,57,64858,5,8,0:2:0:0:
384,57,64941,1,8,0:2:0:0:
384,57,65025,1,8,0:2:0:0:
301,101,65191,1,0,1:2:0:0:
225,51,65358,1,4,1:2:0:0:
84,172,65525,1,0,1:2:0:0:
249,321,65691,2,0,P|255:279|258:219,1,90,8|0,0:2|0:2,0:0:0:0:
131,328,66025,5,4,1:2:0:0:
497,299,66191,2,0,P|411:320|343:378,1,180,0|4,1:2|1:2,0:0:0:0:
122,254,66691,2,0,L|10:247,1,90,2|0,0:1|1:2,0:0:0:0:
177,86,67025,2,0,L|131:20,1,45,10|2,0:1|0:1,0:0:0:0:
87,0,67191,6,0,P|92:67|86:187,1,180,4|0,1:2|1:2,0:0:0:0:
298,119,67691,2,0,B|289:76|289:76|298:25,1,90,12|4,0:2|0:2,0:0:0:0:
445,165,68025,1,0,1:2:0:0:
262,237,68191,1,8,0:3:0:0:
262,237,68275,1,8,0:3:0:0:
262,237,68358,1,8,0:3:0:0:
393,382,68525,2,0,L|402:323,1,45,4|0,0:3|0:2,0:0:0:0:
41,368,68691,5,8,0:2:0:0:
65,279,68858,1,8,0:3:0:0:
13,189,69025,1,4,0:3:0:0:
63,114,69191,1,0,1:2:0:0:
22,30,69525,1,0,1:2:0:0:
471,16,70025,5,0,1:2:0:0:
447,110,70191,1,8,0:3:0:0:
447,110,70275,1,8,0:3:0:0:
447,110,70358,1,8,0:3:0:0:
499,195,70525,1,0,1:2:0:0:
449,272,70858,1,12,0:2:0:0:
490,354,71025,1,2,0:2:0:0:
256,192,71358,5,6,1:2:0:0:
420,75,82025,5,0,1:2:0:0:
420,75,82191,1,0,1:2:0:0:
74,195,83191,5,0,1:2:0:0:
74,195,83358,1,0,1:2:0:0:
74,195,83524,1,0,1:2:0:0:
74,195,83858,1,0,1:2:0:0:
362,368,84691,5,0,1:2:0:0:
362,368,84857,1,0,1:2:0:0:
256,192,85858,5,0,1:2:0:0:
256,192,86025,1,0,1:2:0:0:
256,192,86191,1,0,1:2:0:0:
256,192,86525,1,0,1:2:0:0:
109,350,87358,5,0,1:2:0:0:
109,350,87524,1,0,1:2:0:0:
455,230,88524,5,0,1:2:0:0:
455,230,88691,1,0,1:2:0:0:
455,230,88857,1,0,1:2:0:0:
455,230,89191,1,0,1:2:0:0:
167,57,90024,5,2,0:2:0:0:
456,125,92025,5,8,0:3:0:0:
279,236,92191,1,8,0:2:0:0:
279,236,92275,1,8,0:2:0:0:
279,236,92358,1,8,0:2:0:0:
173,76,92524,5,8,0:3:0:0:
173,76,92608,1,4,0:3:0:0:
173,76,92691,2,0,P|253:78|359:73,1,161.999995056153,4|8,1:2|0:2,0:0:0:0:
508,1,93358,1,0,1:2:0:0:
508,1,93525,1,0,1:2:0:0:
508,1,93692,1,8,0:2:0:0:
335,76,94025,6,0,P|254:79|174:77,1,161.999995056153,4|8,1:2|0:2,0:0:0:0:
4,1,94525,1,0,1:2:0:0:
4,1,94608,1,0,1:2:0:0:
4,1,94692,1,0,1:2:0:0:
4,1,94858,1,0,1:2:0:0:
4,1,95025,1,8,0:2:0:0:
125,180,95358,6,0,P|124:220|118:275,1,80.9999975280763,0|0,1:2|0:2,0:0:0:0:
48,296,95692,1,8,0:2:0:0:
300,369,95858,2,0,P|244:337|228:210,1,161.999995056153,0|0,1:2|1:2,0:0:0:0:
356,288,96358,2,0,P|401:290|460:288,1,80.9999975280763,8|0,0:2|0:2,0:0:0:0:
378,187,96692,5,0,1:2:0:0:
384,372,96858,1,0,1:2:0:0:
216,247,97025,5,8,0:2:0:0:
290,136,97192,1,0,1:2:0:0:
290,136,97275,1,0,1:2:0:0:
290,136,97358,2,0,B|305:176|305:176|291:230,1,80.9999975280763,0|0,1:2|1:2,0:0:0:0:
134,119,97692,2,0,B|119:79|119:79|133:25,1,80.9999975280763,8|0,0:2|0:2,0:0:0:0:
215,106,98025,6,0,B|309:119|296:77|396:96,1,161.999995056153,4|8,1:2|0:2,0:0:0:0:
448,59,98525,1,0,0:2:0:0:
477,180,98692,2,0,P|428:177|359:181,1,80.9999975280763,0|0,1:2|1:2,0:0:0:0:
258,212,99025,5,10,0:1:0:0:
297,237,99108,1,10,0:1:0:0:
309,277,99192,1,10,0:1:0:0:
298,327,99275,1,10,0:1:0:0:
253,346,99358,2,0,B|184:322|184:322|91:347,1,161.999995056153,0|8,1:2|0:2,0:0:0:0:
21,239,99858,1,8,0:2:0:0:
21,239,99942,1,8,0:2:0:0:
21,239,100025,2,0,L|86:230,1,40.4999987640381,8|8,0:2|0:2,0:0:0:0:
97,213,100192,2,0,L|162:204,1,40.4999987640381,8|8,0:2|0:2,0:0:0:0:
209,254,100358,5,8,0:2:0:0:
281,154,100525,1,2,0:2:0:0:
106,2,100692,6,0,P|110:65|111:187,1,161.999995056153,4|8,1:2|0:2,0:0:0:0:
24,92,101192,1,4,1:2:0:0:
283,3,101525,1,0,1:2:0:0:
283,3,101692,1,8,0:2:0:0:
223,268,101858,6,0,P|219:205|218:83,1,161.999995056153,4|0,1:2|1:2,0:0:0:0:
315,181,102358,1,8,0:2:0:0:
121,249,102525,1,8,0:3:0:0:
121,249,102608,1,8,0:3:0:0:
121,249,102692,1,8,0:3:0:0:
115,54,102858,2,0,L|172:59,1,40.4999987640381,4|4,0:3|0:3,0:0:0:0:
327,4,103025,2,0,B|320:45|320:45|334:115,1,80.9999975280763,8|0,0:2|0:2,0:0:0:0:
499,190,103358,5,4,1:2:0:0:
319,273,103525,1,0,1:2:0:0:
484,384,103692,1,8,0:2:0:0:
385,176,103858,5,0,1:2:0:0:
191,281,104025,2,0,B|187:321|187:321|203:358,1,80.9999975280763,8|0,0:2|1:2,0:0:0:0:
319,273,104358,2,0,B|322:232|322:232|306:195,1,80.9999975280763,8|0,0:2|1:2,0:0:0:0:
30,26,104691,5,8,0:2:0:0:
104,68,104858,1,0,1:2:0:0:
175,18,105025,1,8,0:2:0:0:
262,50,105191,1,0,1:2:0:0:
468,14,105358,5,8,0:2:0:0:
469,275,105525,1,0,1:2:0:0:
340,157,105691,2,0,P|341:113|343:60,1,80.9999975280763,8|0,0:2|1:2,0:0:0:0:
116,375,106025,5,8,0:2:0:0:
12,224,106191,1,0,1:2:0:0:
179,133,106358,1,8,0:2:0:0:
91,111,106525,5,0,1:2:0:0:
221,312,106691,2,0,B|262:304|262:304|317:311,1,80.9999975280763,8|0,0:2|1:2,0:0:0:0:
104,192,107025,2,0,B|63:200|63:200|9:186,1,80.9999975280763,8|0,0:2|1:2,0:0:0:0:
249,30,107358,6,0,B|342:45|321:1|428:19,1,161.999995056153,12|8,0:2|0:2,0:0:0:0:
478,85,107858,1,0,1:2:0:0:
370,157,108025,1,8,0:3:0:0:
365,198,108108,1,8,0:3:0:0:
361,238,108191,1,8,0:3:0:0:
357,278,108275,1,8,0:3:0:0:
352,319,108358,1,8,0:2:0:0:
200,227,108525,1,0,1:2:0:0:
460,170,108692,5,12,0:2:0:0:
434,356,108858,1,0,1:2:0:0:
275,249,109025,5,8,0:2:0:0:
301,63,109191,1,0,1:2:0:0:
1,268,109358,5,8,0:2:0:0:
28,357,109524,1,0,1:2:0:0:
161,102,109692,5,8,0:2:0:0:
142,20,109858,1,0,1:2:0:0:
287,143,110025,6,0,L|383:155,1,80.9999975280763,8|0,0:2|1:2,0:0:0:0:
431,211,110358,1,8,1:2:0:0:
509,74,110525,2,0,P|433:61|373:-17,1,161.999995056153,0|0,1:2|1:2,0:0:0:0:
247,33,111025,2,0,P|247:76|249:138,1,80.9999975280763,8|0,0:2|1:2,0:0:0:0:
33,217,111358,5,4,1:2:0:0:
2,135,111525,1,0,1:2:0:0:
71,80,111691,1,8,0:2:0:0:
145,305,111858,6,0,P|191:300|340:261,1,161.999995056153,0|0,1:2|1:2,0:0:0:0:
485,364,112358,2,0,P|453:333|420:277,1,80.9999975280763,8|0,0:2|0:2,0:0:0:0:
453,136,112692,5,8,0:3:0:0:
463,174,112775,1,8,0:3:0:0:
445,215,112858,1,4,0:3:0:0:
252,129,113025,1,8,0:2:0:0:
80,214,113192,1,0,1:2:0:0:
80,214,113858,6,0,P|81:263|79:325,1,90,4|0,1:2|0:0,0:0:0:0:
318,270,114191,1,0,1:2:0:0:
232,216,114358,1,8,0:2:0:0:
233,316,114525,5,0,0:2:0:0:
370,174,114691,1,0,1:2:0:0:
196,71,114858,1,0,1:2:0:0:
282,58,115025,5,8,0:2:0:0:
115,202,115191,1,0,1:2:0:0:
7,84,115358,2,0,B|15:40|15:40|-3:-30,1,90,0|0,0:0|1:2,0:0:0:0:
196,71,115691,6,0,B|288:52|280:115|402:79,1,180,8|0,0:2|1:2,0:0:0:0:
431,36,116191,1,0,1:2:0:0:
512,175,116358,1,8,0:2:0:0:
307,346,116525,6,0,P|300:302|301:154,1,180,4|0,1:2|1:2,0:0:0:0:
414,261,117025,1,8,0:2:0:0:
414,261,117191,1,0,1:2:0:0:
198,355,117358,5,0,1:2:0:0:
217,254,117525,1,0,1:2:0:0:
111,290,117691,5,8,0:2:0:0:
321,373,117858,1,0,1:2:0:0:
321,373,117941,1,0,1:0:0:0:
321,373,118025,2,0,B|366:363|366:363|421:370,1,90,0|0,0:0|1:2,0:0:0:0:
512,146,118358,2,0,P|445:179|413:272,1,180,8|8,0:2|0:2,0:0:0:0:
288,141,118858,1,8,0:2:0:0:
206,200,119025,1,8,0:2:0:0:
206,200,119358,6,0,L|82:192,1,90,4|0,1:2|1:2,0:0:0:0:
54,134,119691,1,0,1:2:0:0:
0,338,119858,2,0,B|83:316|83:316|178:340,1,180,4|0,1:2|1:2,0:0:0:0:
360,271,120358,2,0,P|362:320|367:384,1,90,12|4,0:2|1:2,0:0:0:0:
495,208,120691,6,0,L|440:198,1,45,0|0,1:0|1:0,1:0:0:0:
430,170,120858,2,0,L|375:160,1,45,0|0,1:2|0:0,0:0:0:0:
265,134,121025,5,8,0:2:0:0:
234,146,121108,1,0,1:0:0:0:
199,162,121191,1,0,1:2:0:0:
126,196,121358,1,4,1:2:0:0:
53,230,121525,1,0,1:2:0:0:
88,160,121691,1,8,0:2:0:0:
125,89,121858,1,0,1:2:0:0:
299,293,122025,5,4,1:2:0:0:
435,343,122191,1,0,1:2:0:0:
512,224,122358,1,8,0:2:0:0:
335,171,122525,6,0,B|291:180|291:180|236:169,1,90,4|0,1:2|0:2,0:0:0:0:
203,106,122858,1,0,1:2:0:0:
216,26,123025,1,8,0:2:0:0:
296,76,123191,5,8,0:2:0:0:
101,157,123358,1,8,0:2:0:0:
101,157,123441,1,8,0:0:0:0:
101,157,123525,1,8,0:3:0:0:
355,130,123691,5,8,0:3:0:0:
35,90,123858,1,4,1:2:0:0:
453,102,124191,5,4,0:3:0:0:
192,150,124525,2,0,L|200:352,1,180,4|0,1:2|1:2,0:0:0:0:
281,257,125025,1,8,0:2:0:0:
112,207,125191,1,0,1:2:0:0:
114,289,125358,5,0,1:2:0:0:
273,176,125525,1,0,1:2:0:0:
153,63,125691,1,8,0:2:0:0:
239,64,125858,5,0,1:1:0:0:
89,129,126025,2,0,P|50:129|-35:120,1,90,2|0,1:3|0:2,0:0:0:0:
224,264,126358,2,0,B|326:244|309:305|425:271,1,180,10|8,0:1|0:2,0:0:0:0:
454,213,126858,1,8,0:2:0:0:
494,284,127025,1,8,0:2:0:0:
255,180,127191,6,0,P|259:108|256:-13,1,180,4|0,1:2|1:2,0:0:0:0:
450,47,127691,5,8,0:2:0:0:
462,124,127858,1,0,0:2:0:0:
257,275,128025,5,0,1:2:0:0:
181,219,128191,1,0,1:2:0:0:
255,180,128358,1,8,0:2:0:0:
181,362,128525,6,0,P|104:356|-11:361,1,180,0|0,1:2|1:2,0:0:0:0:
9,215,129025,2,0,P|49:235|108:249,1,90,8|0,0:2|0:2,0:0:0:0:
450,233,129358,6,0,P|390:307|360:392,1,180,0|8,1:2|0:2,0:0:0:0:
475,334,129858,1,8,0:2:0:0:
244,245,130025,6,0,B|231:200|231:200|250:133,1,90,4|0,1:2|1:2,0:0:0:0:
326,113,130358,1,8,0:2:0:0:
177,134,130525,2,0,B|84:122|106:163|-10:138,1,180,4|4,1:2|1:2,0:0:0:0:
224,16,131025,2,0,P|264:17|323:15,1,90,12|4,0:2|0:2,0:0:0:0:
471,197,131358,6,0,L|459:255,1,45,8|0,0:0|0:0,0:0:0:0:
457,297,131525,2,8,L|467:245,1,45,8|8,0:2|0:2,0:0:0:0:
326,222,131691,5,8,0:2:0:0:
243,259,131858,1,0,1:2:0:0:
114,203,132025,1,4,1:2:0:0:
11,240,132191,1,0,1:2:0:0:
162,365,132358,5,8,0:2:0:0:
212,150,132525,1,0,0:2:0:0:
492,19,132691,6,0,P|502:58|506:117,1,90,4|0,1:2|1:2,0:0:0:0:
397,188,133025,1,0,0:0:0:0:
241,60,133191,2,0,P|154:42|48:0,1,180,4|0,1:2|1:2,0:0:0:0:
396,12,133691,2,0,P|366:58|344:116,1,90,10|4,0:1|1:2,0:0:0:0:
25,99,134025,6,0,P|101:153|95:231,1,180,0|12,0:0|0:2,0:0:0:0:
338,160,134691,5,0,1:2:0:0:
321,257,134858,1,8,0:3:0:0:
321,257,134941,1,8,0:3:0:0:
321,257,135025,2,0,L|251:283,1,45,8|0,0:3|0:0,0:0:0:0:
235,297,135191,2,0,L|155:323,1,45,4|0,0:3|0:2,0:0:0:0:
41,368,135358,5,8,0:2:0:0:
65,279,135525,1,8,0:3:0:0:
13,189,135692,1,4,0:3:0:0:
63,114,135858,1,0,1:2:0:0:
22,30,136192,1,0,1:2:0:0:
471,16,136692,5,0,1:2:0:0:
447,110,136858,1,8,0:3:0:0:
447,110,136942,1,8,0:3:0:0:
447,110,137025,1,8,0:3:0:0:
499,195,137192,1,0,1:2:0:0:
449,272,137525,1,12,0:2:0:0:
490,354,137692,1,2,0:2:0:0:
256,192,138025,5,6,1:2:0:0:
263,369,147358,6,0,P|271:348|286:317,1,45,4|2,1:2|0:1,0:0:0:0:
378,235,147525,1,8,0:2:0:0:
338,221,147608,1,8,0:2:0:0:
337,179,147691,1,8,0:2:0:0:
376,165,147775,1,8,0:2:0:0:
403,197,147858,1,8,0:2:0:0:
358,194,147941,1,8,0:2:0:0:
314,201,148024,1,8,0:2:0:0:
273,218,148108,1,8,0:2:0:0:
237,245,148191,1,8,0:2:0:0:
208,280,148274,1,8,0:2:0:0:
189,321,148358,1,8,0:2:0:0:
218,287,148441,1,8,0:2:0:0:
233,244,148524,1,8,0:2:0:0:
230,200,148608,1,8,0:2:0:0:
211,158,148691,6,0,P|161:158|105:154,1,90,4|0,1:2|0:2,0:0:0:0:
58,204,149025,1,8,0:2:0:0:
2,21,149191,2,0,B|91:44|91:44|190:20,1,180,0|0,1:2|1:2,0:0:0:0:
263,5,149691,1,8,0:2:0:0:
242,83,149858,1,0,0:2:0:0:
387,354,150025,5,0,1:2:0:0:
348,277,150191,1,0,1:2:0:0:
252,259,150358,1,8,0:2:0:0:
163,300,150525,2,0,P|90:267|64:159,1,180,0|0,1:2|1:2,0:0:0:0:
6,372,151025,2,0,P|26:343|74:305,1,90,8|0,0:2|0:2,0:0:0:0:
254,187,151358,6,0,B|358:170|334:219|447:200,1,180,4|8,1:2|0:2,0:0:0:0:
465,170,151775,1,10,0:1:0:0:
465,170,151858,2,0,B|486:131|486:131|475:76,1,90,8|0,0:2|1:2,0:0:0:0:
339,31,152191,2,0,L|279:46,1,45,10|0,1:1|0:2,0:0:0:0:
271,61,152358,2,0,L|241:113,1,45,4|0,0:2|0:2,0:0:0:0:
215,128,152525,5,0,1:2:0:0:
81,187,152691,1,0,1:2:0:0:
159,235,152858,5,0,1:2:0:0:
396,366,153025,2,0,B|416:326|416:326|403:249,1,90,12|0,0:2|0:2,0:0:0:0:
166,337,153358,6,0,P|190:348|233:346,1,45,0|0,1:2|0:2,0:0:0:0:
252,328,153525,1,8,0:2:0:0:
277,302,153608,1,8,0:2:0:0:
295,271,153691,1,8,0:2:0:0:
303,236,153775,1,8,0:2:0:0:
302,200,153858,1,8,0:2:0:0:
291,166,153941,1,8,0:2:0:0:
271,137,154025,6,0,L|279:86,1,45,0|0,1:2|0:2,0:0:0:0:
266,59,154191,2,0,L|276:-4,1,45,0|0,1:2|0:2,0:0:0:0:
442,110,154358,6,0,P|473:173|460:297,1,180,6|0,1:0|0:2,0:0:0:0:
139,384,154858,2,0,P|108:321|121:197,1,180,6|0,1:0|0:2,0:0:0:0:
183,157,155358,1,0,1:2:0:0:
327,223,155525,1,0,1:2:0:0:
327,223,155608,1,0,1:2:0:0:
327,223,155691,1,8,0:2:0:0:
427,103,155858,2,0,P|428:60|419:-13,1,90,0|0,1:2|0:2,0:0:0:0:
251,132,156191,5,0,1:2:0:0:
230,216,156358,1,8,0:2:0:0:
273,301,156525,1,0,0:2:0:0:
205,367,156691,5,0,1:2:0:0:
96,290,156858,2,0,P|46:293|-24:286,1,90,0|8,1:2|0:2,0:0:0:0:
251,132,157191,6,0,L|456:126,1,180,2|0,1:0|1:2,0:0:0:0:
246,22,157691,1,8,0:2:0:0:
246,22,157858,1,0,0:2:0:0:
465,231,158025,5,8,0:2:0:0:
451,338,158191,1,8,0:3:0:0:
451,338,158358,1,8,0:3:0:0:
223,179,158525,5,0,1:2:0:0:
245,277,158691,1,4,0:3:0:0:
263,377,158858,1,4,0:3:0:0:
341,335,159025,5,12,0:2:0:0:
116,281,159191,1,0,1:2:0:0:
116,281,159275,1,0,1:2:0:0:
116,281,159358,1,4,1:2:0:0:
159,360,159525,5,0,1:2:0:0:
318,210,159691,1,8,0:2:0:0:
179,90,159858,2,0,P|104:87|-33:86,1,180,0|0,1:2|1:2,0:0:0:0:
302,16,160358,2,0,B|320:56|320:56|306:130,1,90,8|2,0:2|0:1,0:0:0:0:
424,384,160691,5,0,1:2:0:0:
494,239,160858,1,0,1:2:0:0:
330,169,161025,1,8,0:2:0:0:
163,282,161191,2,0,B|67:293|79:232|-47:263,1,180,0|0,1:2|1:2,0:0:0:0:
120,110,161691,2,0,B|134:155|134:155|123:212,1,90,8|0,0:2|0:2,0:0:0:0:
321,374,162025,6,0,P|381:337|375:219,1,180,4|8,1:2|0:2,0:0:0:0:
252,125,162525,2,0,P|254:212|246:325,1,180,0|0,1:2|1:2,0:0:0:0:
155,205,163025,1,8,0:2:0:0:
351,144,163191,6,0,P|401:148|460:149,1,90,0|0,0:2|1:2,0:0:0:0:
313,5,163525,1,0,1:2:0:0:
166,82,163691,1,12,0:2:0:0:
317,214,163858,2,0,P|347:272|343:386,1,180,2|8,0:1|0:2,0:0:0:0:
201,319,164358,5,8,0:2:0:0:
156,311,164441,1,8,0:2:0:0:
112,316,164524,1,8,0:2:0:0:
70,334,164608,1,8,0:2:0:0:
35,362,164691,1,4,1:2:0:0:
12,269,164858,1,0,0:2:0:0:
73,196,165025,1,8,0:2:0:0:
0,154,165191,5,0,1:2:0:0:
156,232,165358,5,4,1:2:0:0:
238,195,165525,1,0,1:2:0:0:
248,95,165691,1,8,0:2:0:0:
167,37,165858,1,0,0:2:0:0:
441,136,166025,5,4,1:2:0:0:
393,16,166191,1,0,0:2:0:0:
494,52,166358,1,8,0:2:0:0:
368,109,166525,1,0,1:2:0:0:
255,377,166691,5,4,0:2:0:0:
173,131,166858,1,0,1:2:0:0:
379,297,167025,1,8,0:2:0:0:
126,232,167191,1,0,1:2:0:0:
391,193,167358,5,12,0:2:0:0:
391,193,167525,1,0,1:2:0:0:
139,339,167691,5,12,0:2:0:0:
139,339,167858,1,0,1:2:0:0:
266,138,168025,6,0,L|253:43,1,90,12|0,0:0|1:0,0:0:0:0:
254,48,168275,1,8,1:0:0:0:
254,48,168358,1,8,1:0:0:0:
254,48,168441,1,8,1:0:0:0:
254,48,168525,1,8,1:0:0:0:
502,201,168691,5,8,0:0:0:0:
358,190,168858,5,8,0:3:0:0:
189,201,169024,5,4,0:3:0:0:
30,188,169191,5,12,0:0:0:0:
36,335,180525,6,0,B|123:311|123:311|235:341,1,180,4|0,1:2|1:2,0:0:0:0:
330,373,181025,1,8,0:2:0:0:
388,212,181191,1,0,0:2:0:0:
459,255,181358,1,0,1:2:0:0:
279,300,181525,1,0,1:2:0:0:
237,127,181691,1,8,0:2:0:0:
192,223,181858,5,0,1:2:0:0:
340,114,182025,1,0,0:0:0:0:
340,114,182191,1,0,1:2:0:0:
340,114,182358,1,8,0:2:0:0:
171,21,182525,1,0,0:2:0:0:
333,7,182691,5,0,1:2:0:0:
129,113,182858,1,0,1:2:0:0:
58,83,183025,1,8,0:2:0:0:
69,10,183191,1,4,1:2:0:0:
416,197,183525,5,0,1:2:0:0:
389,343,183691,1,8,0:2:0:0:
315,247,183858,1,0,0:2:0:0:
486,289,184025,1,0,1:2:0:0:
237,378,184191,1,0,1:2:0:0:
237,378,184275,1,0,1:2:0:0:
237,378,184358,2,0,B|226:332|226:332|241:274,1,90,8|0,0:2|1:2,0:0:0:0:
468,111,184691,6,0,P|472:157|484:229,1,90,0|0,0:0|1:2,0:0:0:0:
261,159,185025,2,0,B|170:182|186:114|56:144,1,180,8|8,0:2|0:2,0:0:0:0:
10,83,185525,2,0,L|9:155,1,45,8|8,0:2|0:2,0:0:0:0:
165,313,185691,5,8,0:2:0:0:
120,317,185774,1,8,0:2:0:0:
77,330,185858,1,8,0:2:0:0:
38,353,185941,1,8,0:2:0:0:
6,383,186024,1,4,1:2:0:0:
61,264,186191,1,0,1:2:0:0:
156,194,186358,1,0,1:2:0:0:
295,166,186525,6,0,B|310:207|310:207|299:267,1,90,4|0,1:2|0:2,0:0:0:0:
166,378,186858,1,0,1:2:0:0:
187,280,187025,1,12,0:2:0:0:
337,355,187191,2,0,B|433:328|418:380|522:359,1,180,4|0,1:2|0:2,0:0:0:0:
363,243,187691,1,8,0:2:0:0:
486,133,187858,2,0,P|498:179|501:246,1,90,0|4,1:2|1:2,0:0:0:0:
302,124,188191,2,0,L|225:135,1,45,0|0,1:2|0:0,0:0:0:0:
215,160,188358,2,0,P|178:162|111:147,1,90,8|0,0:2|0:2,0:0:0:0:
290,369,188691,5,4,1:2:0:0:
320,273,188858,1,0,1:2:0:0:
232,308,189025,1,8,0:2:0:0:
493,369,189191,2,0,P|491:321|490:267,1,90,4|0,1:2|0:2,0:0:0:0:
187,124,189525,2,0,P|189:172|190:226,1,90,0|8,1:2|0:2,0:0:0:0:
424,104,189858,5,8,0:2:0:0:
255,18,190025,1,8,0:2:0:0:
89,101,190191,1,8,0:3:0:0:
89,101,190275,1,8,0:3:0:0:
89,101,190358,1,8,0:3:0:0:
288,216,190525,6,0,P|334:216|387:211,1,90,4|0,1:2|0:2,0:0:0:0:
510,238,190858,2,0,P|454:271|405:394,1,180,4|4,0:3|1:2,0:0:0:0:
239,313,191358,1,0,0:2:0:0:
138,354,191525,1,0,1:2:0:0:
106,255,191691,1,8,0:2:0:0:
54,321,191858,5,0,1:2:0:0:
218,233,192025,1,0,1:2:0:0:
62,90,192191,1,0,1:2:0:0:
30,164,192358,1,8,0:2:0:0:
200,65,192525,1,0,0:2:0:0:
119,29,192691,5,2,1:3:0:0:
208,145,192858,1,0,0:2:0:0:
322,75,193025,1,10,0:1:0:0:
264,17,193191,5,0,0:2:0:0:
218,233,193358,1,8,0:2:0:0:
62,90,193525,1,8,0:2:0:0:
405,245,193691,5,8,0:2:0:0:
478,208,193858,2,0,P|499:291|486:404,1,180,4|0,1:2|1:2,0:0:0:0:
308,325,194358,2,0,B|266:334|266:334|191:318,1,90,8|0,0:2|0:2,0:0:0:0:
78,202,194691,1,0,1:2:0:0:
62,280,194858,1,0,1:2:0:0:
189,203,195025,1,8,0:2:0:0:
84,103,195191,6,0,P|36:106|-28:102,1,90,0|0,1:2|1:2,0:0:0:0:
216,73,195525,2,0,P|188:52|151:-6,1,90,0|8,1:2|0:2,0:0:0:0:
302,206,195858,2,0,P|325:162|356:127,1,90,0|0,0:2|1:2,0:0:0:0:
193,357,196191,2,0,P|235:339|308:325,1,90,8|8,0:2|0:2,0:0:0:0:
379,295,196525,2,0,P|404:304|446:337,1,45,8|8,0:2|0:2,0:0:0:0:
482,360,196691,6,0,P|473:273|480:158,1,180,4|8,1:2|0:2,0:0:0:0:
320,49,197191,2,0,B|305:89|305:89|326:159,1,90,4|0,1:2|0:0,0:0:0:0:
397,173,197525,1,4,1:2:0:0:
414,93,197691,1,12,0:2:0:0:
203,213,197858,6,0,B|110:191|127:246|9:214,1,180,4|8,0:2|0:2,0:0:0:0:
143,104,198358,1,8,0:2:0:0:
309,237,198525,2,0,P|310:279|305:347,1,90,0|4,1:2|1:2,0:0:0:0:
266,52,198858,5,0,1:2:0:0:
25,218,199025,1,8,0:2:0:0:
28,262,199108,1,8,0:0:0:0:
52,300,199191,1,8,0:2:0:0:
90,323,199275,1,8,0:0:0:0:
134,326,199358,1,12,1:2:0:0:
220,297,199525,1,0,1:2:0:0:
307,326,199691,1,8,0:0:0:0:
444,250,199858,6,0,B|455:205|455:205|439:133,1,90,4|2,1:2|0:1,0:0:0:0:
218,53,200191,2,0,B|202:100|202:100|223:170,1,90,0|10,1:2|0:1,0:0:0:0:
351,62,200525,1,4,1:2:0:0:
266,230,200691,5,0,0:0:0:0:
174,209,200858,1,0,1:2:0:0:
79,180,201025,1,12,0:2:0:0:
28,93,201191,5,4,0:2:0:0:
151,367,201358,5,0,1:2:0:0:
254,336,201525,1,8,0:3:0:0:
254,336,201608,1,8,0:3:0:0:
254,336,201691,1,8,0:3:0:0:
344,294,201858,1,4,0:3:0:0:
41,368,202025,5,8,0:2:0:0:
65,279,202192,1,8,0:3:0:0:
13,189,202359,1,4,0:3:0:0:
63,114,202525,1,0,1:2:0:0:
22,30,202859,1,0,1:2:0:0:
471,16,203359,5,0,1:2:0:0:
447,110,203525,1,8,0:3:0:0:
447,110,203609,1,8,0:3:0:0:
447,110,203692,1,8,0:3:0:0:
499,195,203859,1,0,1:2:0:0:
449,272,204192,1,12,0:2:0:0:
490,354,204359,1,2,0:2:0:0:
308,188,204692,5,6,1:2:0:0:
122,287,204858,1,8,0:0:0:0:
122,287,204941,1,8,0:0:0:0:
122,287,205025,1,8,0:0:0:0:
151,189,205191,5,0,1:0:0:0:
340,348,205358,1,8,0:0:0:0:
340,348,205441,1,8,0:0:0:0:
340,348,205525,1,8,0:0:0:0:
222,340,205691,5,8,0:0:0:0:
227,295,205774,1,8,0:0:0:0:
232,250,205857,1,8,0:0:0:0:
237,205,205941,1,8,0:0:0:0:
242,161,206024,1,8,0:0:0:0:
