osu file format v14

[General]
AudioFilename: audio.mp3
AudioLeadIn: 0
PreviewTime: 65026
Countdown: 0
SampleSet: Normal
StackLeniency: 0.7
Mode: 1
LetterboxInBreaks: 0
WidescreenStoryboard: 0

[Editor]
Bookmarks: 30615,55713,105909,131007,171791,184340
DistanceSpacing: 1
BeatDivisor: 6
GridSize: 32
TimelineZoom: 2.2

[Metadata]
Title:hot splash!
TitleUnicode:hot splash!
Artist:solfa feat. Chata
ArtistUnicode:solfa feat. 茶太
Creator:[R]
Version:fortuitous
Source:QUINTUPLE☆SPLASH
Tags:TaikOseania MTNTWarz ron クインタプルスプラッシュ Parasol chronicle -the sun- featured artist fa mappers' guild mpg mg osu op opening iyuna 天ヶ咲麗 amagasaki urara full ver version video game japanese visual novel vn eroge jpop j-pop pop
BeatmapID:3272216
BeatmapSetID:1601757

[Difficulty]
HPDrainRate:6
CircleSize:5
OverallDifficulty:6
ApproachRate:5
SliderMultiplier:1.4
SliderTickRate:1

[Events]
//Background and Video events
0,0,"BG.jpg",0,50
//Break Periods
//Storyboard Layer 0 (Background)
//Storyboard Layer 1 (Fail)
//Storyboard Layer 2 (Pass)
//Storyboard Layer 3 (Foreground)
//Storyboard Layer 4 (Overlay)
//Storyboard Sound Samples

[TimingPoints]
420,392.156862745098,4,1,0,50,1,0
9831,392.156862745098,4,1,0,50,1,8
10223,392.156862745098,4,1,0,70,1,0
11742,-100,4,1,0,80,0,0
30566,-100,4,1,0,70,0,0
55664,-100,4,1,0,80,0,0
65124,-100,4,1,0,90,0,1
90223,-100,4,1,0,90,0,0
93311,-100,4,1,0,70,0,0
130958,-100,4,1,0,80,0,0
140419,-100,4,1,0,90,0,1
165517,-100,4,1,0,90,0,0
165566,-100,4,1,0,80,0,0
184291,-100,4,1,0,70,0,0
195272,-100,4,1,0,80,0,0
196889,-100,4,1,0,90,0,1
221987,-100,4,1,0,90,0,0
224389,-100,4,1,0,70,0,0
225124,722.89156626506,4,1,0,70,1,0
225124,-54.3478260869565,4,1,0,70,0,0
225666,1034.48275862069,4,1,0,70,1,8
225666,-42.1940928270042,4,1,0,70,0,0
225924,821.917808219178,4,1,0,70,1,8
225924,-52.9100529100529,4,1,0,70,0,0
226745,1090.90909090909,4,1,0,70,1,8
226745,-45.045045045045,4,1,0,70,0,0
227290,1090.90909090909,4,1,0,70,1,0
227290,-48.0769230769231,4,1,0,70,0,0
227835,-51.5463917525773,4,1,0,70,0,0
228380,-55.5555555555556,4,1,0,70,0,0
228926,-60.2409638554217,4,1,0,70,0,0
229471,-60.2409638554217,4,1,0,60,0,0
233835,-60.2409638554217,4,1,0,50,0,0

[HitObjects]
256,192,420,5,0,0:0:0:0:
256,192,616,1,0,0:0:0:0:
256,192,812,1,8,0:0:0:0:
256,192,1008,1,0,0:0:0:0:
256,192,1400,1,0,0:0:0:0:
256,192,1596,1,0,0:0:0:0:
256,192,1792,1,8,0:0:0:0:
256,192,1988,1,8,0:0:0:0:
256,192,2184,1,0,0:0:0:0:
256,192,2380,1,0,0:0:0:0:
256,192,2576,1,8,0:0:0:0:
256,192,3165,1,0,0:0:0:0:
256,192,3557,1,0,0:0:0:0:
256,192,3753,1,0,0:0:0:0:
256,192,3949,1,8,0:0:0:0:
256,192,4145,1,0,0:0:0:0:
256,192,4537,1,0,0:0:0:0:
256,192,4733,1,0,0:0:0:0:
256,192,4929,1,8,0:0:0:0:
256,192,5125,1,8,0:0:0:0:
256,192,5321,1,0,0:0:0:0:
256,192,5518,1,0,0:0:0:0:
256,192,5714,1,8,0:0:0:0:
256,192,6498,1,0,0:0:0:0:
256,192,7478,1,0,0:0:0:0:
256,192,9047,1,8,0:0:0:0:
256,192,10223,1,8,0:0:0:0:
256,192,10321,1,8,0:0:0:0:
256,192,10419,1,0,0:0:0:0:
256,192,10484,1,0,0:0:0:0:
256,192,10549,1,0,0:0:0:0:
256,192,10615,1,8,0:0:0:0:
256,192,10811,1,8,0:0:0:0:
256,192,10909,1,8,0:0:0:0:
256,192,11007,1,0,0:0:0:0:
256,192,11105,1,0,0:0:0:0:
256,192,11203,1,8,0:0:0:0:
256,192,11301,1,0,0:0:0:0:
256,192,11399,1,8,0:0:0:0:
256,192,11497,1,8,0:0:0:0:
256,192,11595,1,8,0:0:0:0:
256,192,11791,1,4,0:0:0:0:
256,192,12183,1,8,0:0:0:0:
256,192,12379,1,0,0:0:0:0:
256,192,12477,1,0,0:0:0:0:
256,192,12575,1,8,0:0:0:0:
256,192,12673,1,0,0:0:0:0:
256,192,12772,1,8,0:0:0:0:
256,192,12968,1,0,0:0:0:0:
256,192,13164,1,8,0:0:0:0:
256,192,13360,1,0,0:0:0:0:
256,192,13556,1,0,0:0:0:0:
256,192,13654,1,0,0:0:0:0:
256,192,13752,1,8,0:0:0:0:
256,192,13850,1,0,0:0:0:0:
256,192,13948,1,8,0:0:0:0:
256,192,14046,1,8,0:0:0:0:
256,192,14144,1,0,0:0:0:0:
256,192,14340,1,8,0:0:0:0:
256,192,14536,1,0,0:0:0:0:
256,192,14732,1,8,0:0:0:0:
256,192,14830,1,8,0:0:0:0:
256,192,14928,1,0,0:0:0:0:
256,192,15124,1,8,0:0:0:0:
256,192,15321,1,0,0:0:0:0:
256,192,15419,1,0,0:0:0:0:
256,192,15517,1,0,0:0:0:0:
256,192,15615,1,0,0:0:0:0:
256,192,15713,1,8,0:0:0:0:
256,192,15909,1,0,0:0:0:0:
256,192,16007,1,0,0:0:0:0:
256,192,16105,1,8,0:0:0:0:
256,192,16301,1,0,0:0:0:0:
256,192,16497,1,8,0:0:0:0:
256,192,16595,1,0,0:0:0:0:
256,192,16693,1,0,0:0:0:0:
256,192,16791,1,0,0:0:0:0:
256,192,16889,1,8,0:0:0:0:
256,192,17085,1,0,0:0:0:0:
256,192,17281,1,8,0:0:0:0:
256,192,17379,1,8,0:0:0:0:
256,192,17477,1,0,0:0:0:0:
256,192,17575,1,0,0:0:0:0:
256,192,17673,1,8,0:0:0:0:
256,192,17870,1,8,0:0:0:0:
256,192,17968,1,8,0:0:0:0:
256,192,18066,1,0,0:0:0:0:
256,192,18458,1,8,0:0:0:0:
256,192,18654,1,0,0:0:0:0:
256,192,18752,1,0,0:0:0:0:
256,192,18850,1,8,0:0:0:0:
256,192,18948,1,8,0:0:0:0:
256,192,19046,1,0,0:0:0:0:
256,192,19242,1,8,0:0:0:0:
256,192,19438,1,8,0:0:0:0:
256,192,19536,1,8,0:0:0:0:
256,192,19634,1,0,0:0:0:0:
256,192,19830,1,8,0:0:0:0:
256,192,20026,1,0,0:0:0:0:
256,192,20223,1,0,0:0:0:0:
256,192,20321,1,0,0:0:0:0:
256,192,20419,1,8,0:0:0:0:
256,192,20615,1,0,0:0:0:0:
256,192,20811,1,8,0:0:0:0:
256,192,20909,1,8,0:0:0:0:
256,192,21007,1,8,0:0:0:0:
256,192,21105,1,8,0:0:0:0:
256,192,21203,1,0,0:0:0:0:
256,192,21399,1,8,0:0:0:0:
256,192,21595,1,0,0:0:0:0:
256,192,21693,1,0,0:0:0:0:
256,192,21791,1,8,0:0:0:0:
256,192,21987,1,8,0:0:0:0:
256,192,22085,1,0,0:0:0:0:
256,192,22183,1,8,0:0:0:0:
256,192,22281,1,8,0:0:0:0:
256,192,22379,1,0,0:0:0:0:
256,192,22477,1,0,0:0:0:0:
256,192,22575,1,8,0:0:0:0:
256,192,22772,1,0,0:0:0:0:
256,192,22968,1,8,0:0:0:0:
256,192,23164,1,0,0:0:0:0:
256,192,23262,1,8,0:0:0:0:
256,192,23360,1,0,0:0:0:0:
256,192,23458,1,0,0:0:0:0:
256,192,23556,1,8,0:0:0:0:
256,192,23752,1,0,0:0:0:0:
256,192,23948,1,8,0:0:0:0:
256,192,24046,1,0,0:0:0:0:
256,192,24144,1,8,0:0:0:0:
256,192,24340,1,4,0:0:0:0:
256,192,24732,1,12,0:0:0:0:
256,192,25124,1,4,0:0:0:0:
256,192,25321,1,8,0:0:0:0:
256,192,25517,1,0,0:0:0:0:
256,192,25713,1,0,0:0:0:0:
256,192,25909,1,12,0:0:0:0:
256,192,26301,1,4,0:0:0:0:
256,192,26693,1,12,0:0:0:0:
256,192,26889,1,0,0:0:0:0:
256,192,27085,1,8,0:0:0:0:
256,192,27183,1,0,0:0:0:0:
256,192,27281,1,8,0:0:0:0:
256,192,27477,1,4,0:0:0:0:
256,192,27870,1,4,0:0:0:0:
256,192,28066,1,4,0:0:0:0:
256,192,28458,1,4,0:0:0:0:
256,192,28850,1,4,0:0:0:0:
256,192,29242,1,4,0:0:0:0:
256,192,29634,1,4,0:0:0:0:
256,192,29830,1,12,0:0:0:0:
256,192,30615,1,4,0:0:0:0:
256,192,31007,1,0,0:0:0:0:
256,192,31203,1,8,0:0:0:0:
256,192,31595,1,0,0:0:0:0:
256,192,31791,1,0,0:0:0:0:
256,192,31987,1,8,0:0:0:0:
256,192,32183,1,0,0:0:0:0:
256,192,32575,1,8,0:0:0:0:
256,192,32772,1,0,0:0:0:0:
256,192,33164,1,0,0:0:0:0:
256,192,33360,1,8,0:0:0:0:
256,192,33556,1,8,0:0:0:0:
256,192,33752,1,0,0:0:0:0:
256,192,34144,1,8,0:0:0:0:
256,192,34340,1,8,0:0:0:0:
256,192,34536,1,0,0:0:0:0:
256,192,34928,1,0,0:0:0:0:
256,192,35124,1,0,0:0:0:0:
256,192,35321,1,8,0:0:0:0:
256,192,35517,1,0,0:0:0:0:
256,192,35713,1,0,0:0:0:0:
256,192,35909,1,8,0:0:0:0:
256,192,36301,1,0,0:0:0:0:
256,192,36497,1,8,0:0:0:0:
256,192,36693,1,8,0:0:0:0:
256,192,36889,1,0,0:0:0:0:
256,192,37281,1,0,0:0:0:0:
256,192,37477,1,8,0:0:0:0:
256,192,37673,1,0,0:0:0:0:
256,192,37870,1,8,0:0:0:0:
256,192,38262,1,8,0:0:0:0:
256,192,38458,1,0,0:0:0:0:
256,192,38850,1,0,0:0:0:0:
256,192,39046,1,8,0:0:0:0:
256,192,39438,1,8,0:0:0:0:
256,192,39634,1,0,0:0:0:0:
256,192,39830,1,0,0:0:0:0:
256,192,40026,1,8,0:0:0:0:
256,192,40419,1,0,0:0:0:0:
256,192,40615,1,0,0:0:0:0:
256,192,40811,1,8,0:0:0:0:
256,192,41203,1,8,0:0:0:0:
256,192,41595,1,0,0:0:0:0:
256,192,41987,1,8,0:0:0:0:
256,192,42183,1,0,0:0:0:0:
256,192,42379,1,8,0:0:0:0:
256,192,42575,1,0,0:0:0:0:
256,192,42772,1,8,0:0:0:0:
256,192,43164,1,0,0:0:0:0:
256,192,43556,1,0,0:0:0:0:
256,192,43752,1,8,0:0:0:0:
256,192,44144,1,0,0:0:0:0:
256,192,44340,1,0,0:0:0:0:
256,192,44536,1,8,0:0:0:0:
256,192,44732,1,0,0:0:0:0:
256,192,45124,1,8,0:0:0:0:
256,192,45321,1,0,0:0:0:0:
256,192,45713,1,0,0:0:0:0:
256,192,45909,1,8,0:0:0:0:
256,192,46105,1,8,0:0:0:0:
256,192,46301,1,0,0:0:0:0:
256,192,46693,1,8,0:0:0:0:
256,192,46889,1,8,0:0:0:0:
256,192,47085,1,0,0:0:0:0:
256,192,47281,1,8,0:0:0:0:
256,192,47477,1,0,0:0:0:0:
256,192,47870,1,8,0:0:0:0:
256,192,48066,1,0,0:0:0:0:
256,192,48262,1,0,0:0:0:0:
256,192,48458,1,8,0:0:0:0:
256,192,48850,1,0,0:0:0:0:
256,192,49046,1,8,0:0:0:0:
256,192,49242,1,8,0:0:0:0:
256,192,49438,1,0,0:0:0:0:
256,192,49830,1,0,0:0:0:0:
256,192,50026,1,8,0:0:0:0:
256,192,50223,1,0,0:0:0:0:
256,192,50419,1,8,0:0:0:0:
256,192,50811,1,8,0:0:0:0:
256,192,51007,1,0,0:0:0:0:
256,192,51399,1,0,0:0:0:0:
256,192,51595,1,8,0:0:0:0:
256,192,51987,1,8,0:0:0:0:
256,192,52183,1,0,0:0:0:0:
256,192,52379,1,0,0:0:0:0:
256,192,52575,1,8,0:0:0:0:
256,192,52968,1,0,0:0:0:0:
256,192,53164,1,0,0:0:0:0:
256,192,53360,1,8,0:0:0:0:
256,192,53556,1,0,0:0:0:0:
256,192,53752,1,8,0:0:0:0:
256,192,54144,1,0,0:0:0:0:
256,192,54536,1,8,0:0:0:0:
256,192,54732,1,0,0:0:0:0:
256,192,54830,1,0,0:0:0:0:
256,192,54928,1,8,0:0:0:0:
256,192,55124,1,0,0:0:0:0:
256,192,55321,1,8,0:0:0:0:
256,192,55419,1,0,0:0:0:0:
256,192,55517,1,8,0:0:0:0:
256,192,55713,1,4,0:0:0:0:
256,192,56105,1,8,0:0:0:0:
256,192,56301,1,0,0:0:0:0:
256,192,56399,1,0,0:0:0:0:
256,192,56497,1,8,0:0:0:0:
256,192,56693,1,0,0:0:0:0:
256,192,56889,1,8,0:0:0:0:
256,192,56987,1,8,0:0:0:0:
256,192,57085,1,8,0:0:0:0:
256,192,57281,1,0,0:0:0:0:
256,192,57673,1,8,0:0:0:0:
256,192,57870,1,8,0:0:0:0:
256,192,57968,1,8,0:0:0:0:
256,192,58066,1,0,0:0:0:0:
256,192,58262,1,0,0:0:0:0:
256,192,58458,1,8,0:0:0:0:
256,192,58654,1,0,0:0:0:0:
256,192,58752,1,0,0:0:0:0:
256,192,58850,1,8,0:0:0:0:
256,192,58948,1,8,0:0:0:0:
256,192,59046,1,0,0:0:0:0:
256,192,59242,1,8,0:0:0:0:
256,192,59438,1,0,0:0:0:0:
256,192,59634,1,8,0:0:0:0:
256,192,59732,1,0,0:0:0:0:
256,192,59830,1,8,0:0:0:0:
256,192,59928,1,8,0:0:0:0:
256,192,60026,1,0,0:0:0:0:
256,192,60222,1,8,0:0:0:0:
256,192,60419,1,0,0:0:0:0:
256,192,60615,1,0,0:0:0:0:
256,192,60811,1,8,0:0:0:0:
256,192,60909,1,8,0:0:0:0:
256,192,61007,1,0,0:0:0:0:
256,192,61105,1,0,0:0:0:0:
256,192,61203,1,8,0:0:0:0:
256,192,61399,1,0,0:0:0:0:
256,192,61595,1,8,0:0:0:0:
256,192,61791,1,0,0:0:0:0:
256,192,61889,1,0,0:0:0:0:
256,192,61987,1,8,0:0:0:0:
256,192,62183,1,0,0:0:0:0:
256,192,62379,1,8,0:0:0:0:
256,192,62575,1,8,0:0:0:0:
256,192,62673,1,0,0:0:0:0:
256,192,62772,1,8,0:0:0:0:
256,192,62968,1,8,0:0:0:0:
256,192,63164,1,0,0:0:0:0:
256,192,63360,1,8,0:0:0:0:
256,192,63556,1,0,0:0:0:0:
256,192,63654,1,0,0:0:0:0:
256,192,63752,1,0,0:0:0:0:
256,192,63850,1,0,0:0:0:0:
256,192,63948,1,8,0:0:0:0:
256,192,64144,1,0,0:0:0:0:
256,192,64242,1,0,0:0:0:0:
256,192,64340,1,8,0:0:0:0:
256,192,64732,1,8,0:0:0:0:
256,192,64830,1,8,0:0:0:0:
256,192,64928,1,8,0:0:0:0:
256,192,65026,1,8,0:0:0:0:
256,192,65124,1,4,0:0:0:0:
256,192,65517,1,8,0:0:0:0:
256,192,65713,1,8,0:0:0:0:
256,192,65811,1,0,0:0:0:0:
256,192,65909,1,0,0:0:0:0:
256,192,66007,1,0,0:0:0:0:
256,192,66105,1,8,0:0:0:0:
256,192,66301,1,0,0:0:0:0:
256,192,66497,1,0,0:0:0:0:
256,192,66595,1,0,0:0:0:0:
256,192,66693,1,8,0:0:0:0:
256,192,66889,1,0,0:0:0:0:
256,192,67085,1,8,0:0:0:0:
256,192,67183,1,8,0:0:0:0:
256,192,67281,1,0,0:0:0:0:
256,192,67477,1,8,0:0:0:0:
256,192,67575,1,8,0:0:0:0:
256,192,67673,1,0,0:0:0:0:
256,192,67772,1,0,0:0:0:0:
256,192,67870,1,8,0:0:0:0:
256,192,68066,1,0,0:0:0:0:
256,192,68262,1,8,0:0:0:0:
256,192,68654,1,8,0:0:0:0:
256,192,68850,1,0,0:0:0:0:
256,192,68948,1,0,0:0:0:0:
256,192,69046,1,8,0:0:0:0:
256,192,69242,1,0,0:0:0:0:
256,192,69438,1,8,0:0:0:0:
256,192,69536,1,0,0:0:0:0:
256,192,69634,1,8,0:0:0:0:
256,192,69732,1,8,0:0:0:0:
256,192,69830,1,0,0:0:0:0:
256,192,70026,1,8,0:0:0:0:
256,192,70223,1,0,0:0:0:0:
256,192,70321,1,0,0:0:0:0:
256,192,70419,1,0,0:0:0:0:
256,192,70517,1,0,0:0:0:0:
256,192,70615,1,8,0:0:0:0:
256,192,70811,1,0,0:0:0:0:
256,192,71007,1,8,0:0:0:0:
256,192,71105,1,8,0:0:0:0:
256,192,71203,1,8,0:0:0:0:
256,192,71399,1,4,0:0:0:0:
256,192,71595,1,8,0:0:0:0:
256,192,71693,1,8,0:0:0:0:
256,192,71791,1,0,0:0:0:0:
256,192,71987,1,0,0:0:0:0:
256,192,72085,1,0,0:0:0:0:
256,192,72183,1,8,0:0:0:0:
256,192,72281,1,0,0:0:0:0:
256,192,72379,1,8,0:0:0:0:
256,192,72477,1,8,0:0:0:0:
256,192,72575,1,0,0:0:0:0:
256,192,72772,1,12,0:0:0:0:
256,192,73164,1,8,0:0:0:0:
256,192,73360,1,0,0:0:0:0:
256,192,73556,1,0,0:0:0:0:
256,192,73654,1,0,0:0:0:0:
256,192,73752,1,8,0:0:0:0:
256,192,73850,1,8,0:0:0:0:
256,192,73948,1,0,0:0:0:0:
256,192,74144,1,8,0:0:0:0:
256,192,74340,1,0,0:0:0:0:
256,192,74438,1,0,0:0:0:0:
256,192,74536,1,8,0:0:0:0:
256,192,74732,1,0,0:0:0:0:
256,192,74928,1,8,0:0:0:0:
256,192,75026,1,0,0:0:0:0:
256,192,75124,1,8,0:0:0:0:
256,192,75321,1,0,0:0:0:0:
256,192,75517,1,8,0:0:0:0:
256,192,75615,1,8,0:0:0:0:
256,192,75713,1,0,0:0:0:0:
256,192,75811,1,0,0:0:0:0:
256,192,75909,1,8,0:0:0:0:
256,192,76105,1,0,0:0:0:0:
256,192,76301,1,0,0:0:0:0:
256,192,76497,1,8,0:0:0:0:
256,192,76595,1,0,0:0:0:0:
256,192,76693,1,0,0:0:0:0:
256,192,76791,1,0,0:0:0:0:
256,192,76889,1,8,0:0:0:0:
256,192,77085,1,0,0:0:0:0:
256,192,77281,1,8,0:0:0:0:
256,192,77379,1,8,0:0:0:0:
256,192,77477,1,8,0:0:0:0:
256,192,77575,1,8,0:0:0:0:
256,192,77673,1,4,0:0:0:0:
256,192,78066,1,0,0:0:0:0:
256,192,78262,1,8,0:0:0:0:
256,192,78360,1,8,0:0:0:0:
256,192,78458,1,0,0:0:0:0:
256,192,78556,1,0,0:0:0:0:
256,192,78654,1,8,0:0:0:0:
256,192,78850,1,0,0:0:0:0:
256,192,79046,1,8,0:0:0:0:
256,192,79144,1,8,0:0:0:0:
256,192,79242,1,0,0:0:0:0:
256,192,79438,1,0,0:0:0:0:
256,192,79634,1,8,0:0:0:0:
256,192,79732,1,0,0:0:0:0:
256,192,79830,1,0,0:0:0:0:
256,192,79928,1,0,0:0:0:0:
256,192,80026,1,8,0:0:0:0:
256,192,80223,1,0,0:0:0:0:
256,192,80321,1,0,0:0:0:0:
256,192,80419,1,8,0:0:0:0:
256,192,80615,1,0,0:0:0:0:
256,192,80811,1,8,0:0:0:0:
256,192,81007,1,8,0:0:0:0:
256,192,81105,1,8,0:0:0:0:
256,192,81203,1,0,0:0:0:0:
256,192,81399,1,8,0:0:0:0:
256,192,81791,1,8,0:0:0:0:
256,192,81987,1,0,0:0:0:0:
256,192,82085,1,0,0:0:0:0:
256,192,82183,1,8,0:0:0:0:
256,192,82281,1,0,0:0:0:0:
256,192,82379,1,8,0:0:0:0:
256,192,82575,1,0,0:0:0:0:
256,192,82772,1,8,0:0:0:0:
256,192,82870,1,8,0:0:0:0:
256,192,82968,1,0,0:0:0:0:
256,192,83164,1,8,0:0:0:0:
256,192,83360,1,0,0:0:0:0:
256,192,83458,1,0,0:0:0:0:
256,192,83556,1,8,0:0:0:0:
256,192,83654,1,8,0:0:0:0:
256,192,83752,1,8,0:0:0:0:
256,192,83948,1,4,0:0:0:0:
256,192,84144,1,8,0:0:0:0:
256,192,84242,1,8,0:0:0:0:
256,192,84340,1,0,0:0:0:0:
256,192,84536,1,0,0:0:0:0:
256,192,84634,1,8,0:0:0:0:
256,192,84732,1,0,0:0:0:0:
256,192,84830,1,0,0:0:0:0:
256,192,84928,1,8,0:0:0:0:
256,192,85026,1,0,0:0:0:0:
256,192,85124,1,8,0:0:0:0:
256,192,85321,1,12,0:0:0:0:
256,192,85713,1,8,0:0:0:0:
256,192,85909,1,0,0:0:0:0:
256,192,86105,1,0,0:0:0:0:
256,192,86203,1,0,0:0:0:0:
256,192,86301,1,8,0:0:0:0:
256,192,86399,1,8,0:0:0:0:
256,192,86497,1,0,0:0:0:0:
256,192,86693,1,8,0:0:0:0:
256,192,86889,1,0,0:0:0:0:
256,192,86987,1,0,0:0:0:0:
256,192,87085,1,8,0:0:0:0:
256,192,87281,1,0,0:0:0:0:
256,192,87477,1,8,0:0:0:0:
256,192,87575,1,0,0:0:0:0:
256,192,87673,1,8,0:0:0:0:
256,192,87772,1,8,0:0:0:0:
256,192,87870,1,0,0:0:0:0:
256,192,88066,1,0,0:0:0:0:
256,192,88164,1,0,0:0:0:0:
256,192,88262,1,8,0:0:0:0:
256,192,88458,1,0,0:0:0:0:
256,192,88654,1,8,0:0:0:0:
256,192,88752,1,8,0:0:0:0:
256,192,88850,1,0,0:0:0:0:
256,192,88948,1,0,0:0:0:0:
256,192,89046,1,8,0:0:0:0:
256,192,89242,1,0,0:0:0:0:
256,192,89438,1,8,0:0:0:0:
256,192,89536,1,8,0:0:0:0:
256,192,89634,1,0,0:0:0:0:
256,192,89732,1,0,0:0:0:0:
256,192,89830,1,8,0:0:0:0:
256,192,89928,1,8,0:0:0:0:
256,192,90026,1,8,0:0:0:0:
256,192,90223,1,4,0:0:0:0:
256,192,90615,1,4,0:0:0:0:
256,192,90811,1,4,0:0:0:0:
256,192,91203,1,4,0:0:0:0:
256,192,91595,1,4,0:0:0:0:
256,192,91987,1,4,0:0:0:0:
256,192,92379,1,4,0:0:0:0:
256,192,92575,1,12,0:0:0:0:
256,192,93360,1,12,0:0:0:0:
256,192,93556,1,0,0:0:0:0:
256,192,93752,1,0,0:0:0:0:
256,192,93948,1,8,0:0:0:0:
256,192,94340,1,8,0:0:0:0:
256,192,94536,1,0,0:0:0:0:
256,192,94732,1,8,0:0:0:0:
256,192,94928,1,0,0:0:0:0:
256,192,95124,1,0,0:0:0:0:
256,192,95321,1,8,0:0:0:0:
256,192,95517,1,0,0:0:0:0:
256,192,95713,1,8,0:0:0:0:
256,192,96105,1,0,0:0:0:0:
256,192,96497,1,8,0:0:0:0:
256,192,96693,1,8,0:0:0:0:
256,192,96889,1,8,0:0:0:0:
256,192,97085,1,0,0:0:0:0:
256,192,97477,1,0,0:0:0:0:
256,192,97673,1,8,0:0:0:0:
256,192,97870,1,8,0:0:0:0:
256,192,98066,1,0,0:0:0:0:
256,192,98262,1,0,0:0:0:0:
256,192,98458,1,0,0:0:0:0:
256,192,98654,1,8,0:0:0:0:
256,192,99046,1,8,0:0:0:0:
256,192,99242,1,0,0:0:0:0:
256,192,99438,1,8,0:0:0:0:
256,192,99634,1,8,0:0:0:0:
256,192,99830,1,0,0:0:0:0:
256,192,100026,1,0,0:0:0:0:
256,192,100223,1,8,0:0:0:0:
256,192,100615,1,8,0:0:0:0:
256,192,100811,1,0,0:0:0:0:
256,192,101007,1,8,0:0:0:0:
256,192,101203,1,0,0:0:0:0:
256,192,101399,1,0,0:0:0:0:
256,192,101595,1,8,0:0:0:0:
256,192,101791,1,0,0:0:0:0:
256,192,101987,1,8,0:0:0:0:
256,192,102183,1,8,0:0:0:0:
256,192,102379,1,0,0:0:0:0:
256,192,102575,1,0,0:0:0:0:
256,192,102772,1,8,0:0:0:0:
256,192,102968,1,0,0:0:0:0:
256,192,103164,1,0,0:0:0:0:
256,192,103360,1,8,0:0:0:0:
256,192,103752,1,8,0:0:0:0:
256,192,103948,1,8,0:0:0:0:
256,192,104144,1,0,0:0:0:0:
256,192,104340,1,8,0:0:0:0:
256,192,104536,1,8,0:0:0:0:
256,192,104732,1,8,0:0:0:0:
256,192,104928,1,0,0:0:0:0:
256,192,105321,1,0,0:0:0:0:
256,192,105517,1,8,0:0:0:0:
256,192,105615,1,0,0:0:0:0:
256,192,105713,1,8,0:0:0:0:
256,192,105909,1,4,0:0:0:0:
256,192,106105,1,0,0:0:0:0:
256,192,106203,1,0,0:0:0:0:
256,192,106301,1,0,0:0:0:0:
256,192,106497,1,8,0:0:0:0:
256,192,106889,1,0,0:0:0:0:
256,192,107085,1,8,0:0:0:0:
256,192,107281,1,8,0:0:0:0:
256,192,107379,1,8,0:0:0:0:
256,192,107477,1,0,0:0:0:0:
256,192,107673,1,0,0:0:0:0:
256,192,107772,1,8,0:0:0:0:
256,192,107870,1,0,0:0:0:0:
256,192,108066,1,8,0:0:0:0:
256,192,108458,1,0,0:0:0:0:
256,192,108654,1,8,0:0:0:0:
256,192,108752,1,0,0:0:0:0:
256,192,108850,1,8,0:0:0:0:
256,192,108948,1,8,0:0:0:0:
256,192,109046,1,0,0:0:0:0:
256,192,109242,1,8,0:0:0:0:
256,192,109438,1,0,0:0:0:0:
256,192,109536,1,0,0:0:0:0:
256,192,109634,1,8,0:0:0:0:
256,192,109732,1,0,0:0:0:0:
256,192,109830,1,8,0:0:0:0:
256,192,110026,1,0,0:0:0:0:
256,192,110222,1,8,0:0:0:0:
256,192,110419,1,0,0:0:0:0:
256,192,110517,1,8,0:0:0:0:
256,192,110615,1,0,0:0:0:0:
256,192,110811,1,8,0:0:0:0:
256,192,111007,1,8,0:0:0:0:
256,192,111105,1,8,0:0:0:0:
256,192,111203,1,0,0:0:0:0:
256,192,111399,1,8,0:0:0:0:
256,192,111595,1,0,0:0:0:0:
256,192,111791,1,8,0:0:0:0:
256,192,111987,1,0,0:0:0:0:
256,192,112085,1,0,0:0:0:0:
256,192,112183,1,8,0:0:0:0:
256,192,112379,1,8,0:0:0:0:
256,192,112477,1,8,0:0:0:0:
256,192,112575,1,8,0:0:0:0:
256,192,112772,1,0,0:0:0:0:
256,192,113164,1,8,0:0:0:0:
256,192,113360,1,0,0:0:0:0:
256,192,113556,1,0,0:0:0:0:
256,192,113654,1,0,0:0:0:0:
256,192,113752,1,8,0:0:0:0:
256,192,113948,1,8,0:0:0:0:
256,192,114046,1,0,0:0:0:0:
256,192,114144,1,8,0:0:0:0:
256,192,114340,1,0,0:0:0:0:
256,192,114732,1,8,0:0:0:0:
256,192,114928,1,0,0:0:0:0:
256,192,115026,1,0,0:0:0:0:
256,192,115124,1,8,0:0:0:0:
256,192,115222,1,0,0:0:0:0:
256,192,115321,1,8,0:0:0:0:
256,192,115517,1,0,0:0:0:0:
256,192,115713,1,8,0:0:0:0:
256,192,115909,1,0,0:0:0:0:
256,192,116007,1,8,0:0:0:0:
256,192,116105,1,0,0:0:0:0:
256,192,116301,1,8,0:0:0:0:
256,192,116497,1,0,0:0:0:0:
256,192,116595,1,0,0:0:0:0:
256,192,116693,1,0,0:0:0:0:
256,192,116791,1,0,0:0:0:0:
256,192,116889,1,8,0:0:0:0:
256,192,117085,1,8,0:0:0:0:
256,192,117281,1,0,0:0:0:0:
256,192,117477,1,0,0:0:0:0:
256,192,117575,1,0,0:0:0:0:
256,192,117673,1,8,0:0:0:0:
256,192,117870,1,0,0:0:0:0:
256,192,118066,1,8,0:0:0:0:
256,192,118164,1,0,0:0:0:0:
256,192,118262,1,8,0:0:0:0:
256,192,118458,1,4,0:0:0:0:
256,192,118654,1,0,0:0:0:0:
256,192,118752,1,0,0:0:0:0:
256,192,118850,1,0,0:0:0:0:
256,192,119046,1,8,0:0:0:0:
256,192,119438,1,0,0:0:0:0:
256,192,119634,1,8,0:0:0:0:
256,192,119830,1,8,0:0:0:0:
256,192,119928,1,8,0:0:0:0:
256,192,120026,1,0,0:0:0:0:
256,192,120222,1,0,0:0:0:0:
256,192,120321,1,8,0:0:0:0:
256,192,120419,1,0,0:0:0:0:
256,192,120615,1,8,0:0:0:0:
256,192,121007,1,0,0:0:0:0:
256,192,121203,1,8,0:0:0:0:
256,192,121301,1,0,0:0:0:0:
256,192,121399,1,8,0:0:0:0:
256,192,121497,1,8,0:0:0:0:
256,192,121595,1,0,0:0:0:0:
256,192,121791,1,8,0:0:0:0:
256,192,121987,1,0,0:0:0:0:
256,192,122085,1,0,0:0:0:0:
256,192,122183,1,8,0:0:0:0:
256,192,122281,1,0,0:0:0:0:
256,192,122379,1,8,0:0:0:0:
256,192,122575,1,0,0:0:0:0:
256,192,122772,1,8,0:0:0:0:
256,192,122968,1,0,0:0:0:0:
256,192,123066,1,8,0:0:0:0:
256,192,123164,1,0,0:0:0:0:
256,192,123360,1,8,0:0:0:0:
256,192,123556,1,8,0:0:0:0:
256,192,123654,1,8,0:0:0:0:
256,192,123752,1,0,0:0:0:0:
256,192,123948,1,8,0:0:0:0:
256,192,124144,1,0,0:0:0:0:
256,192,124340,1,8,0:0:0:0:
256,192,124536,1,0,0:0:0:0:
256,192,124634,1,0,0:0:0:0:
256,192,124732,1,8,0:0:0:0:
256,192,124928,1,8,0:0:0:0:
256,192,125026,1,8,0:0:0:0:
256,192,125124,1,8,0:0:0:0:
256,192,125321,1,0,0:0:0:0:
256,192,125713,1,8,0:0:0:0:
256,192,125909,1,0,0:0:0:0:
256,192,126105,1,0,0:0:0:0:
256,192,126203,1,0,0:0:0:0:
256,192,126301,1,8,0:0:0:0:
256,192,126497,1,8,0:0:0:0:
256,192,126595,1,0,0:0:0:0:
256,192,126693,1,8,0:0:0:0:
256,192,126889,1,0,0:0:0:0:
256,192,127281,1,8,0:0:0:0:
256,192,127477,1,0,0:0:0:0:
256,192,127575,1,0,0:0:0:0:
256,192,127673,1,8,0:0:0:0:
256,192,127772,1,0,0:0:0:0:
256,192,127870,1,8,0:0:0:0:
256,192,128066,1,0,0:0:0:0:
256,192,128262,1,8,0:0:0:0:
256,192,128458,1,0,0:0:0:0:
256,192,128556,1,8,0:0:0:0:
256,192,128654,1,0,0:0:0:0:
256,192,128850,1,8,0:0:0:0:
256,192,129046,1,0,0:0:0:0:
256,192,129144,1,0,0:0:0:0:
256,192,129242,1,0,0:0:0:0:
256,192,129340,1,0,0:0:0:0:
256,192,129438,1,8,0:0:0:0:
256,192,129634,1,0,0:0:0:0:
256,192,129830,1,8,0:0:0:0:
256,192,129928,1,8,0:0:0:0:
256,192,130026,1,0,0:0:0:0:
256,192,130222,1,8,0:0:0:0:
256,192,130419,1,0,0:0:0:0:
256,192,130615,1,8,0:0:0:0:
256,192,130713,1,0,0:0:0:0:
256,192,130811,1,8,0:0:0:0:
256,192,131007,1,4,0:0:0:0:
256,192,131399,1,8,0:0:0:0:
256,192,131595,1,0,0:0:0:0:
256,192,131693,1,0,0:0:0:0:
256,192,131791,1,8,0:0:0:0:
256,192,131987,1,0,0:0:0:0:
256,192,132183,1,8,0:0:0:0:
256,192,132281,1,8,0:0:0:0:
256,192,132379,1,8,0:0:0:0:
256,192,132575,1,0,0:0:0:0:
256,192,132968,1,8,0:0:0:0:
256,192,133164,1,8,0:0:0:0:
256,192,133262,1,8,0:0:0:0:
256,192,133360,1,0,0:0:0:0:
256,192,133556,1,0,0:0:0:0:
256,192,133752,1,8,0:0:0:0:
256,192,133948,1,0,0:0:0:0:
256,192,134046,1,0,0:0:0:0:
256,192,134144,1,8,0:0:0:0:
256,192,134242,1,8,0:0:0:0:
256,192,134340,1,0,0:0:0:0:
256,192,134536,1,8,0:0:0:0:
256,192,134732,1,0,0:0:0:0:
256,192,134928,1,8,0:0:0:0:
256,192,135026,1,0,0:0:0:0:
256,192,135124,1,8,0:0:0:0:
256,192,135223,1,8,0:0:0:0:
256,192,135321,1,0,0:0:0:0:
256,192,135517,1,8,0:0:0:0:
256,192,135713,1,0,0:0:0:0:
256,192,135909,1,0,0:0:0:0:
256,192,136105,1,8,0:0:0:0:
256,192,136203,1,8,0:0:0:0:
256,192,136301,1,0,0:0:0:0:
256,192,136399,1,0,0:0:0:0:
256,192,136497,1,8,0:0:0:0:
256,192,136693,1,0,0:0:0:0:
256,192,136889,1,8,0:0:0:0:
256,192,137085,1,0,0:0:0:0:
256,192,137183,1,0,0:0:0:0:
256,192,137281,1,8,0:0:0:0:
256,192,137477,1,0,0:0:0:0:
256,192,137673,1,8,0:0:0:0:
256,192,137870,1,8,0:0:0:0:
256,192,137968,1,0,0:0:0:0:
256,192,138066,1,8,0:0:0:0:
256,192,138262,1,8,0:0:0:0:
256,192,138458,1,0,0:0:0:0:
256,192,138654,1,8,0:0:0:0:
256,192,138850,1,0,0:0:0:0:
256,192,138948,1,0,0:0:0:0:
256,192,139046,1,0,0:0:0:0:
256,192,139144,1,0,0:0:0:0:
256,192,139242,1,8,0:0:0:0:
256,192,139438,1,0,0:0:0:0:
256,192,139536,1,0,0:0:0:0:
256,192,139634,1,8,0:0:0:0:
256,192,140026,1,8,0:0:0:0:
256,192,140124,1,8,0:0:0:0:
256,192,140223,1,8,0:0:0:0:
256,192,140321,1,8,0:0:0:0:
256,192,140419,1,4,0:0:0:0:
256,192,140811,1,8,0:0:0:0:
256,192,141007,1,8,0:0:0:0:
256,192,141105,1,8,0:0:0:0:
256,192,141203,1,0,0:0:0:0:
256,192,141301,1,0,0:0:0:0:
256,192,141399,1,8,0:0:0:0:
256,192,141595,1,0,0:0:0:0:
256,192,141791,1,0,0:0:0:0:
256,192,141889,1,0,0:0:0:0:
256,192,141987,1,8,0:0:0:0:
256,192,142183,1,0,0:0:0:0:
256,192,142379,1,8,0:0:0:0:
256,192,142477,1,8,0:0:0:0:
256,192,142575,1,0,0:0:0:0:
256,192,142772,1,8,0:0:0:0:
256,192,142870,1,8,0:0:0:0:
256,192,142968,1,0,0:0:0:0:
256,192,143066,1,0,0:0:0:0:
256,192,143164,1,8,0:0:0:0:
256,192,143360,1,0,0:0:0:0:
256,192,143556,1,8,0:0:0:0:
256,192,143948,1,8,0:0:0:0:
256,192,144144,1,0,0:0:0:0:
256,192,144242,1,0,0:0:0:0:
256,192,144340,1,8,0:0:0:0:
256,192,144536,1,0,0:0:0:0:
256,192,144732,1,8,0:0:0:0:
256,192,144830,1,0,0:0:0:0:
256,192,144928,1,8,0:0:0:0:
256,192,145026,1,8,0:0:0:0:
256,192,145124,1,0,0:0:0:0:
256,192,145321,1,8,0:0:0:0:
256,192,145517,1,0,0:0:0:0:
256,192,145615,1,0,0:0:0:0:
256,192,145713,1,0,0:0:0:0:
256,192,145811,1,0,0:0:0:0:
256,192,145909,1,8,0:0:0:0:
256,192,146105,1,0,0:0:0:0:
256,192,146301,1,8,0:0:0:0:
256,192,146399,1,8,0:0:0:0:
256,192,146497,1,8,0:0:0:0:
256,192,146693,1,4,0:0:0:0:
256,192,146889,1,8,0:0:0:0:
256,192,146987,1,8,0:0:0:0:
256,192,147085,1,0,0:0:0:0:
256,192,147281,1,0,0:0:0:0:
256,192,147379,1,0,0:0:0:0:
256,192,147477,1,8,0:0:0:0:
256,192,147575,1,0,0:0:0:0:
256,192,147673,1,8,0:0:0:0:
256,192,147772,1,8,0:0:0:0:
256,192,147870,1,0,0:0:0:0:
256,192,148066,1,12,0:0:0:0:
256,192,148458,1,8,0:0:0:0:
256,192,148654,1,0,0:0:0:0:
256,192,148850,1,0,0:0:0:0:
256,192,148948,1,0,0:0:0:0:
256,192,149046,1,8,0:0:0:0:
256,192,149144,1,8,0:0:0:0:
256,192,149242,1,0,0:0:0:0:
256,192,149438,1,8,0:0:0:0:
256,192,149634,1,0,0:0:0:0:
256,192,149732,1,0,0:0:0:0:
256,192,149830,1,8,0:0:0:0:
256,192,150026,1,0,0:0:0:0:
256,192,150223,1,8,0:0:0:0:
256,192,150321,1,0,0:0:0:0:
256,192,150419,1,8,0:0:0:0:
256,192,150615,1,0,0:0:0:0:
256,192,150811,1,8,0:0:0:0:
256,192,150909,1,8,0:0:0:0:
256,192,151007,1,0,0:0:0:0:
256,192,151105,1,0,0:0:0:0:
256,192,151203,1,8,0:0:0:0:
256,192,151399,1,0,0:0:0:0:
256,192,151595,1,0,0:0:0:0:
256,192,151791,1,8,0:0:0:0:
256,192,151889,1,0,0:0:0:0:
256,192,151987,1,0,0:0:0:0:
256,192,152085,1,0,0:0:0:0:
256,192,152183,1,8,0:0:0:0:
256,192,152379,1,0,0:0:0:0:
256,192,152575,1,8,0:0:0:0:
256,192,152673,1,8,0:0:0:0:
256,192,152772,1,8,0:0:0:0:
256,192,152870,1,8,0:0:0:0:
256,192,152968,1,4,0:0:0:0:
256,192,153360,1,0,0:0:0:0:
256,192,153556,1,8,0:0:0:0:
256,192,153654,1,8,0:0:0:0:
256,192,153752,1,0,0:0:0:0:
256,192,153850,1,0,0:0:0:0:
256,192,153948,1,8,0:0:0:0:
256,192,154144,1,0,0:0:0:0:
256,192,154340,1,8,0:0:0:0:
256,192,154438,1,8,0:0:0:0:
256,192,154536,1,0,0:0:0:0:
256,192,154732,1,0,0:0:0:0:
256,192,154928,1,8,0:0:0:0:
256,192,155026,1,0,0:0:0:0:
256,192,155124,1,0,0:0:0:0:
256,192,155223,1,0,0:0:0:0:
256,192,155321,1,8,0:0:0:0:
256,192,155517,1,0,0:0:0:0:
256,192,155615,1,0,0:0:0:0:
256,192,155713,1,8,0:0:0:0:
256,192,155909,1,0,0:0:0:0:
256,192,156105,1,8,0:0:0:0:
256,192,156301,1,8,0:0:0:0:
256,192,156399,1,8,0:0:0:0:
256,192,156497,1,0,0:0:0:0:
256,192,156693,1,8,0:0:0:0:
256,192,157085,1,8,0:0:0:0:
256,192,157281,1,0,0:0:0:0:
256,192,157379,1,0,0:0:0:0:
256,192,157477,1,8,0:0:0:0:
256,192,157575,1,0,0:0:0:0:
256,192,157673,1,8,0:0:0:0:
256,192,157870,1,0,0:0:0:0:
256,192,158066,1,8,0:0:0:0:
256,192,158164,1,8,0:0:0:0:
256,192,158262,1,0,0:0:0:0:
256,192,158458,1,8,0:0:0:0:
256,192,158654,1,0,0:0:0:0:
256,192,158752,1,0,0:0:0:0:
256,192,158850,1,8,0:0:0:0:
256,192,158948,1,8,0:0:0:0:
256,192,159046,1,8,0:0:0:0:
256,192,159242,1,4,0:0:0:0:
256,192,159438,1,8,0:0:0:0:
256,192,159536,1,8,0:0:0:0:
256,192,159634,1,0,0:0:0:0:
256,192,159830,1,0,0:0:0:0:
256,192,159928,1,8,0:0:0:0:
256,192,160026,1,0,0:0:0:0:
256,192,160124,1,0,0:0:0:0:
256,192,160223,1,8,0:0:0:0:
256,192,160321,1,0,0:0:0:0:
256,192,160419,1,8,0:0:0:0:
256,192,160615,1,12,0:0:0:0:
256,192,161007,1,8,0:0:0:0:
256,192,161203,1,0,0:0:0:0:
256,192,161399,1,0,0:0:0:0:
256,192,161497,1,0,0:0:0:0:
256,192,161595,1,8,0:0:0:0:
256,192,161693,1,8,0:0:0:0:
256,192,161791,1,0,0:0:0:0:
256,192,161987,1,8,0:0:0:0:
256,192,162183,1,0,0:0:0:0:
256,192,162281,1,0,0:0:0:0:
256,192,162379,1,8,0:0:0:0:
256,192,162575,1,0,0:0:0:0:
256,192,162772,1,8,0:0:0:0:
256,192,162870,1,0,0:0:0:0:
256,192,162968,1,8,0:0:0:0:
256,192,163066,1,8,0:0:0:0:
256,192,163164,1,0,0:0:0:0:
256,192,163360,1,0,0:0:0:0:
256,192,163458,1,0,0:0:0:0:
256,192,163556,1,8,0:0:0:0:
256,192,163752,1,0,0:0:0:0:
256,192,163948,1,8,0:0:0:0:
256,192,164046,1,8,0:0:0:0:
256,192,164144,1,0,0:0:0:0:
256,192,164242,1,0,0:0:0:0:
256,192,164340,1,8,0:0:0:0:
256,192,164536,1,0,0:0:0:0:
256,192,164732,1,8,0:0:0:0:
256,192,164830,1,8,0:0:0:0:
256,192,164928,1,0,0:0:0:0:
256,192,165026,1,0,0:0:0:0:
256,192,165124,1,8,0:0:0:0:
256,192,165223,1,8,0:0:0:0:
256,192,165321,1,8,0:0:0:0:
256,192,165517,1,4,0:0:0:0:
256,192,165909,1,8,0:0:0:0:
256,192,166105,1,0,0:0:0:0:
256,192,166203,1,0,0:0:0:0:
256,192,166301,1,0,0:0:0:0:
256,192,166497,1,8,0:0:0:0:
256,192,166693,1,8,0:0:0:0:
256,192,166889,1,0,0:0:0:0:
256,192,166987,1,0,0:0:0:0:
256,192,167085,1,8,0:0:0:0:
256,192,167281,1,0,0:0:0:0:
256,192,167379,1,8,0:0:0:0:
256,192,167575,1,8,0:0:0:0:
256,192,167673,1,0,0:0:0:0:
256,192,168066,1,8,0:0:0:0:
256,192,168262,1,0,0:0:0:0:
256,192,168360,1,0,0:0:0:0:
256,192,168458,1,8,0:0:0:0:
256,192,168654,1,8,0:0:0:0:
256,192,168850,1,0,0:0:0:0:
256,192,168948,1,8,0:0:0:0:
256,192,169144,1,0,0:0:0:0:
256,192,169242,1,0,0:0:0:0:
256,192,169634,1,8,0:0:0:0:
256,192,169830,1,8,0:0:0:0:
256,192,170026,1,0,0:0:0:0:
256,192,170124,1,0,0:0:0:0:
256,192,170223,1,8,0:0:0:0:
256,192,170419,1,0,0:0:0:0:
256,192,170517,1,8,0:0:0:0:
256,192,170713,1,8,0:0:0:0:
256,192,170811,1,0,0:0:0:0:
256,192,171203,1,8,0:0:0:0:
256,192,171399,1,0,0:0:0:0:
256,192,171497,1,0,0:0:0:0:
256,192,171595,1,8,0:0:0:0:
256,192,171791,1,12,0:0:0:0:
256,192,172183,1,8,0:0:0:0:
256,192,172379,1,0,0:0:0:0:
256,192,172477,1,0,0:0:0:0:
256,192,172575,1,0,0:0:0:0:
256,192,172772,1,0,0:0:0:0:
256,192,172968,1,8,0:0:0:0:
256,192,173164,1,0,0:0:0:0:
256,192,173262,1,0,0:0:0:0:
256,192,173360,1,8,0:0:0:0:
256,192,173556,1,8,0:0:0:0:
256,192,173654,1,8,0:0:0:0:
256,192,173752,1,8,0:0:0:0:
256,192,173948,1,0,0:0:0:0:
256,192,174340,1,0,0:0:0:0:
256,192,174536,1,8,0:0:0:0:
256,192,174732,1,0,0:0:0:0:
256,192,174830,1,0,0:0:0:0:
256,192,174928,1,8,0:0:0:0:
256,192,175321,1,8,0:0:0:0:
256,192,175517,1,0,0:0:0:0:
256,192,175713,1,8,0:0:0:0:
256,192,175811,1,8,0:0:0:0:
256,192,175909,1,0,0:0:0:0:
256,192,176007,1,0,0:0:0:0:
256,192,176105,1,8,0:0:0:0:
256,192,176301,1,0,0:0:0:0:
256,192,176497,1,8,0:0:0:0:
256,192,176889,1,0,0:0:0:0:
256,192,177085,1,8,0:0:0:0:
256,192,177183,1,8,0:0:0:0:
256,192,177281,1,0,0:0:0:0:
256,192,177477,1,8,0:0:0:0:
256,192,177673,1,0,0:0:0:0:
256,192,177772,1,0,0:0:0:0:
256,192,177870,1,0,0:0:0:0:
256,192,177968,1,0,0:0:0:0:
256,192,178066,1,12,0:0:0:0:
256,192,178458,1,8,0:0:0:0:
256,192,178654,1,0,0:0:0:0:
256,192,178752,1,0,0:0:0:0:
256,192,178850,1,0,0:0:0:0:
256,192,179046,1,0,0:0:0:0:
256,192,179242,1,8,0:0:0:0:
256,192,179340,1,0,0:0:0:0:
256,192,179438,1,8,0:0:0:0:
256,192,179634,1,0,0:0:0:0:
256,192,179830,1,8,0:0:0:0:
256,192,179928,1,8,0:0:0:0:
256,192,180026,1,0,0:0:0:0:
256,192,180223,1,8,0:0:0:0:
256,192,180615,1,0,0:0:0:0:
256,192,180811,1,8,0:0:0:0:
256,192,180909,1,0,0:0:0:0:
256,192,181007,1,8,0:0:0:0:
256,192,181203,1,4,0:0:0:0:
256,192,181399,1,8,0:0:0:0:
256,192,181595,1,8,0:0:0:0:
256,192,181791,1,0,0:0:0:0:
256,192,182183,1,0,0:0:0:0:
256,192,182281,1,0,0:0:0:0:
256,192,182379,1,8,0:0:0:0:
256,192,182575,1,0,0:0:0:0:
256,192,182772,1,12,0:0:0:0:
256,192,182968,1,0,0:0:0:0:
256,192,183164,1,0,0:0:0:0:
256,192,183360,1,12,0:0:0:0:
256,192,183556,1,0,0:0:0:0:
256,192,183752,1,8,0:0:0:0:
256,192,183948,1,8,0:0:0:0:
256,192,184046,1,8,0:0:0:0:
256,192,184144,1,8,0:0:0:0:
256,192,184242,1,8,0:0:0:0:
256,192,184340,1,0,0:0:0:0:
256,192,184732,1,8,0:0:0:0:
256,192,184928,1,8,0:0:0:0:
256,192,185321,1,0,0:0:0:0:
256,192,185713,1,8,0:0:0:0:
256,192,185909,1,0,0:0:0:0:
256,192,186301,1,8,0:0:0:0:
256,192,186693,1,8,0:0:0:0:
256,192,187085,1,0,0:0:0:0:
256,192,187477,1,8,0:0:0:0:
256,192,188262,1,8,0:0:0:0:
256,192,188458,1,0,0:0:0:0:
256,192,188654,1,8,0:0:0:0:
256,192,188850,1,8,0:0:0:0:
256,192,189046,1,0,0:0:0:0:
256,192,189242,1,0,0:0:0:0:
256,192,189438,1,8,0:0:0:0:
256,192,189830,1,0,0:0:0:0:
256,192,190223,1,8,0:0:0:0:
256,192,190615,1,0,0:0:0:0:
256,192,191007,1,0,0:0:0:0:
256,192,191203,1,0,0:0:0:0:
256,192,191399,1,8,0:0:0:0:
256,192,191595,1,0,0:0:0:0:
256,192,191791,1,0,0:0:0:0:
256,192,191987,1,8,0:0:0:0:
256,192,192575,1,8,0:0:0:0:
256,192,192968,1,0,0:0:0:0:
256,192,193164,1,8,0:0:0:0:
256,192,193360,1,8,0:0:0:0:
256,192,193458,1,0,0:0:0:0:
256,192,193752,1,0,0:0:0:0:
256,192,194144,1,0,0:0:0:0:
256,192,194340,1,8,0:0:0:0:
256,192,194536,1,0,0:0:0:0:
256,192,194732,1,8,0:0:0:0:
256,192,195124,1,8,0:0:0:0:
256,192,195321,1,4,0:0:0:0:
256,192,195713,1,8,0:0:0:0:
256,192,196105,1,8,0:0:0:0:
256,192,196301,1,0,0:0:0:0:
256,192,196497,1,8,0:0:0:0:
256,192,196595,1,8,0:0:0:0:
256,192,196693,1,8,0:0:0:0:
256,192,196791,1,8,0:0:0:0:
256,192,196889,1,4,0:0:0:0:
256,192,197281,1,8,0:0:0:0:
256,192,197477,1,8,0:0:0:0:
256,192,197575,1,8,0:0:0:0:
256,192,197673,1,0,0:0:0:0:
256,192,197772,1,0,0:0:0:0:
256,192,197870,1,8,0:0:0:0:
256,192,198066,1,0,0:0:0:0:
256,192,198262,1,0,0:0:0:0:
256,192,198360,1,0,0:0:0:0:
256,192,198458,1,8,0:0:0:0:
256,192,198654,1,0,0:0:0:0:
256,192,198850,1,8,0:0:0:0:
256,192,198948,1,8,0:0:0:0:
256,192,199046,1,0,0:0:0:0:
256,192,199242,1,8,0:0:0:0:
256,192,199340,1,8,0:0:0:0:
256,192,199438,1,0,0:0:0:0:
256,192,199536,1,0,0:0:0:0:
256,192,199634,1,8,0:0:0:0:
256,192,199830,1,0,0:0:0:0:
256,192,200026,1,8,0:0:0:0:
256,192,200419,1,8,0:0:0:0:
256,192,200615,1,0,0:0:0:0:
256,192,200713,1,0,0:0:0:0:
256,192,200811,1,8,0:0:0:0:
256,192,201007,1,0,0:0:0:0:
256,192,201203,1,8,0:0:0:0:
256,192,201301,1,0,0:0:0:0:
256,192,201399,1,8,0:0:0:0:
256,192,201497,1,8,0:0:0:0:
256,192,201595,1,0,0:0:0:0:
256,192,201791,1,8,0:0:0:0:
256,192,201987,1,0,0:0:0:0:
256,192,202085,1,0,0:0:0:0:
256,192,202183,1,0,0:0:0:0:
256,192,202281,1,0,0:0:0:0:
256,192,202379,1,8,0:0:0:0:
256,192,202575,1,0,0:0:0:0:
256,192,202772,1,8,0:0:0:0:
256,192,202870,1,8,0:0:0:0:
256,192,202968,1,8,0:0:0:0:
256,192,203164,1,4,0:0:0:0:
256,192,203360,1,8,0:0:0:0:
256,192,203458,1,8,0:0:0:0:
256,192,203556,1,0,0:0:0:0:
256,192,203752,1,0,0:0:0:0:
256,192,203850,1,0,0:0:0:0:
256,192,203948,1,8,0:0:0:0:
256,192,204046,1,0,0:0:0:0:
256,192,204144,1,8,0:0:0:0:
256,192,204242,1,8,0:0:0:0:
256,192,204340,1,0,0:0:0:0:
256,192,204536,1,12,0:0:0:0:
256,192,204928,1,8,0:0:0:0:
256,192,205124,1,0,0:0:0:0:
256,192,205321,1,0,0:0:0:0:
256,192,205419,1,0,0:0:0:0:
256,192,205517,1,8,0:0:0:0:
256,192,205615,1,8,0:0:0:0:
256,192,205713,1,0,0:0:0:0:
256,192,205909,1,8,0:0:0:0:
256,192,206105,1,0,0:0:0:0:
256,192,206203,1,0,0:0:0:0:
256,192,206301,1,8,0:0:0:0:
256,192,206497,1,0,0:0:0:0:
256,192,206693,1,8,0:0:0:0:
256,192,206791,1,0,0:0:0:0:
256,192,206889,1,8,0:0:0:0:
256,192,207085,1,0,0:0:0:0:
256,192,207281,1,8,0:0:0:0:
256,192,207379,1,8,0:0:0:0:
256,192,207477,1,0,0:0:0:0:
256,192,207575,1,0,0:0:0:0:
256,192,207673,1,8,0:0:0:0:
256,192,207870,1,0,0:0:0:0:
256,192,208066,1,0,0:0:0:0:
256,192,208262,1,8,0:0:0:0:
256,192,208360,1,0,0:0:0:0:
256,192,208458,1,0,0:0:0:0:
256,192,208556,1,0,0:0:0:0:
256,192,208654,1,8,0:0:0:0:
256,192,208850,1,0,0:0:0:0:
256,192,209046,1,8,0:0:0:0:
256,192,209144,1,8,0:0:0:0:
256,192,209242,1,8,0:0:0:0:
256,192,209340,1,8,0:0:0:0:
256,192,209438,1,4,0:0:0:0:
256,192,209830,1,0,0:0:0:0:
256,192,210026,1,8,0:0:0:0:
256,192,210124,1,8,0:0:0:0:
256,192,210222,1,0,0:0:0:0:
256,192,210321,1,0,0:0:0:0:
256,192,210419,1,8,0:0:0:0:
256,192,210615,1,0,0:0:0:0:
256,192,210811,1,8,0:0:0:0:
256,192,210909,1,8,0:0:0:0:
256,192,211007,1,0,0:0:0:0:
256,192,211203,1,0,0:0:0:0:
256,192,211399,1,8,0:0:0:0:
256,192,211497,1,0,0:0:0:0:
256,192,211595,1,0,0:0:0:0:
256,192,211693,1,0,0:0:0:0:
256,192,211791,1,8,0:0:0:0:
256,192,211987,1,0,0:0:0:0:
256,192,212085,1,0,0:0:0:0:
256,192,212183,1,8,0:0:0:0:
256,192,212379,1,0,0:0:0:0:
256,192,212575,1,8,0:0:0:0:
256,192,212772,1,8,0:0:0:0:
256,192,212870,1,8,0:0:0:0:
256,192,212968,1,0,0:0:0:0:
256,192,213164,1,8,0:0:0:0:
256,192,213556,1,8,0:0:0:0:
256,192,213752,1,0,0:0:0:0:
256,192,213850,1,0,0:0:0:0:
256,192,213948,1,8,0:0:0:0:
256,192,214046,1,0,0:0:0:0:
256,192,214144,1,8,0:0:0:0:
256,192,214340,1,0,0:0:0:0:
256,192,214536,1,8,0:0:0:0:
256,192,214634,1,8,0:0:0:0:
256,192,214732,1,0,0:0:0:0:
256,192,214928,1,8,0:0:0:0:
256,192,215124,1,0,0:0:0:0:
256,192,215222,1,0,0:0:0:0:
256,192,215321,1,8,0:0:0:0:
256,192,215419,1,8,0:0:0:0:
256,192,215517,1,8,0:0:0:0:
256,192,215713,1,4,0:0:0:0:
256,192,215909,1,8,0:0:0:0:
256,192,216007,1,8,0:0:0:0:
256,192,216105,1,0,0:0:0:0:
256,192,216301,1,0,0:0:0:0:
256,192,216399,1,8,0:0:0:0:
256,192,216497,1,0,0:0:0:0:
256,192,216595,1,0,0:0:0:0:
256,192,216693,1,8,0:0:0:0:
256,192,216791,1,0,0:0:0:0:
256,192,216889,1,8,0:0:0:0:
256,192,217085,1,12,0:0:0:0:
256,192,217477,1,8,0:0:0:0:
256,192,217673,1,0,0:0:0:0:
256,192,217870,1,0,0:0:0:0:
256,192,217968,1,0,0:0:0:0:
256,192,218066,1,8,0:0:0:0:
256,192,218164,1,8,0:0:0:0:
256,192,218262,1,0,0:0:0:0:
256,192,218458,1,8,0:0:0:0:
256,192,218654,1,0,0:0:0:0:
256,192,218752,1,0,0:0:0:0:
256,192,218850,1,8,0:0:0:0:
256,192,219046,1,0,0:0:0:0:
256,192,219242,1,8,0:0:0:0:
256,192,219340,1,0,0:0:0:0:
256,192,219438,1,8,0:0:0:0:
256,192,219536,1,8,0:0:0:0:
256,192,219634,1,0,0:0:0:0:
256,192,219830,1,0,0:0:0:0:
256,192,219928,1,0,0:0:0:0:
256,192,220026,1,8,0:0:0:0:
256,192,220222,1,0,0:0:0:0:
256,192,220419,1,8,0:0:0:0:
256,192,220517,1,8,0:0:0:0:
256,192,220615,1,0,0:0:0:0:
256,192,220713,1,0,0:0:0:0:
256,192,220811,1,8,0:0:0:0:
256,192,221007,1,0,0:0:0:0:
256,192,221203,1,8,0:0:0:0:
256,192,221301,1,8,0:0:0:0:
256,192,221399,1,0,0:0:0:0:
256,192,221497,1,0,0:0:0:0:
256,192,221595,1,8,0:0:0:0:
256,192,221693,1,8,0:0:0:0:
256,192,221791,1,8,0:0:0:0:
256,192,221987,1,4,0:0:0:0:
256,192,222379,1,4,0:0:0:0:
256,192,222575,1,4,0:0:0:0:
256,192,222968,1,4,0:0:0:0:
256,192,223360,1,4,0:0:0:0:
256,192,223752,1,4,0:0:0:0:
256,192,224144,1,4,0:0:0:0:
256,192,224340,1,12,0:0:0:0:
256,192,224732,1,8,0:0:0:0:
256,192,224928,1,0,0:0:0:0:
256,192,225124,1,8,0:0:0:0:
256,192,225666,1,0,0:0:0:0:
256,192,225924,1,0,0:0:0:0:
256,192,226745,1,8,0:0:0:0:
256,192,227290,1,0,0:0:0:0:
256,192,227835,1,8,0:0:0:0:
256,192,228380,1,0,0:0:0:0:
256,192,228926,1,8,0:0:0:0:
256,192,229471,8,0,238199,0:0:0:0:
