osu file format v14

[General]
AudioFilename: audio.mp3
AudioLeadIn: 0
PreviewTime: 65026
Countdown: 0
SampleSet: Normal
StackLeniency: 0.7
Mode: 1
LetterboxInBreaks: 0
WidescreenStoryboard: 0

[Editor]
Bookmarks: 30615,55713,105909,131007,171791,184340
DistanceSpacing: 1
BeatDivisor: 2
GridSize: 32
TimelineZoom: 0.9

[Metadata]
Title:hot splash!
TitleUnicode:hot splash!
Artist:solfa feat. Chata
ArtistUnicode:solfa feat. 茶太
Creator:[R]
Version:kantan
Source:QUINTUPLE☆SPLASH
Tags:TaikOseania MTNTWarz ron クインタプルスプラッシュ Parasol chronicle -the sun- featured artist fa mappers' guild mpg mg osu op opening iyuna 天ヶ咲麗 amagasaki urara full ver version video game japanese visual novel vn eroge jpop j-pop pop
BeatmapID:3271081
BeatmapSetID:1601757

[Difficulty]
HPDrainRate:8
CircleSize:5
OverallDifficulty:3
ApproachRate:5
SliderMultiplier:1.4
SliderTickRate:1

[Events]
//Background and Video events
0,0,"BG.jpg",0,50
//Break Periods
//Storyboard Layer 0 (Background)
//Storyboard Layer 1 (Fail)
//Storyboard Layer 2 (Pass)
//Storyboard Layer 3 (Foreground)
//Storyboard Layer 4 (Overlay)
//Storyboard Sound Samples

[TimingPoints]
420,392.156862745098,4,1,0,50,1,0
9831,392.156862745098,4,1,0,50,1,8
10223,392.156862745098,4,1,0,70,1,0
11742,-100,4,1,0,80,0,0
30566,-100,4,1,0,70,0,0
55664,-100,4,1,0,80,0,0
65124,-100,4,1,0,90,0,1
90223,-100,4,1,0,90,0,0
93311,-100,4,1,0,70,0,0
130958,-100,4,1,0,80,0,0
140419,-100,4,1,0,90,0,1
165517,-100,4,1,0,90,0,0
165566,-100,4,1,0,80,0,0
184291,-100,4,1,0,70,0,0
195272,-100,4,1,0,80,0,0
196889,-100,4,1,0,90,0,1
221987,-100,4,1,0,90,0,0
224389,-100,4,1,0,70,0,0
225124,722.89156626506,4,1,0,70,1,0
225124,-54.3478260869565,4,1,0,70,0,0
225666,1034.48275862069,4,1,0,70,1,8
225666,-42.1940928270042,4,1,0,70,0,0
225924,821.917808219178,4,1,0,70,1,8
225924,-52.9100529100529,4,1,0,70,0,0
226745,1090.90909090909,4,1,0,70,1,8
226745,-45.045045045045,4,1,0,70,0,0
227290,1090.90909090909,4,1,0,70,1,0
227290,-48.0769230769231,4,1,0,70,0,0
227835,-51.5463917525773,4,1,0,70,0,0
228381,-55.5555555555556,4,1,0,70,0,0
228926,-60.2409638554217,4,1,0,70,0,0
229472,-60.2409638554217,4,1,0,60,0,0
233835,-60.2409638554217,4,1,0,50,0,0

[HitObjects]
256,192,420,5,0,0:0:0:0:
256,192,1008,1,0,0:0:0:0:
256,192,1988,1,8,0:0:0:0:
256,192,2576,1,8,0:0:0:0:
256,192,3557,1,0,0:0:0:0:
256,192,4145,1,0,0:0:0:0:
256,192,5125,1,8,0:0:0:0:
256,192,5714,1,8,0:0:0:0:
256,192,10223,1,0,0:0:0:0:
256,192,10615,1,8,0:0:0:0:
256,192,11399,1,8,0:0:0:0:
256,192,11791,1,4,0:0:0:0:
256,192,12183,1,8,0:0:0:0:
256,192,12575,1,8,0:0:0:0:
256,192,13360,1,8,0:0:0:0:
256,192,13752,1,0,0:0:0:0:
256,192,14536,1,0,0:0:0:0:
256,192,14928,1,8,0:0:0:0:
256,192,15321,1,0,0:0:0:0:
256,192,16497,1,8,0:0:0:0:
256,192,16889,1,8,0:0:0:0:
256,192,17281,1,8,0:0:0:0:
256,192,17673,1,8,0:0:0:0:
256,192,18066,1,0,0:0:0:0:
256,192,18850,1,8,0:0:0:0:
256,192,19634,1,0,0:0:0:0:
256,192,20026,1,0,0:0:0:0:
256,192,20419,1,8,0:0:0:0:
256,192,21203,1,0,0:0:0:0:
256,192,21987,1,8,0:0:0:0:
256,192,22379,1,8,0:0:0:0:
256,192,22772,1,0,0:0:0:0:
256,192,24340,1,0,0:0:0:0:
256,192,25124,1,0,0:0:0:0:
256,192,25909,1,8,0:0:0:0:
256,192,26693,1,8,0:0:0:0:
256,192,27477,1,4,0:0:0:0:
256,192,27870,1,4,0:0:0:0:
256,192,28458,1,4,0:0:0:0:
256,192,28850,1,4,0:0:0:0:
256,192,29242,1,4,0:0:0:0:
256,192,29830,1,12,0:0:0:0:
256,192,30615,1,4,0:0:0:0:
256,192,32183,1,0,0:0:0:0:
256,192,33752,1,0,0:0:0:0:
256,192,34536,1,0,0:0:0:0:
256,192,35321,1,8,0:0:0:0:
256,192,36889,1,0,0:0:0:0:
256,192,38458,1,8,0:0:0:0:
256,192,40026,1,8,0:0:0:0:
256,192,40811,1,8,0:0:0:0:
256,192,41595,1,0,0:0:0:0:
256,192,43164,1,0,0:0:0:0:
256,192,43948,1,8,0:0:0:0:
256,192,44732,1,0,0:0:0:0:
256,192,45909,1,8,0:0:0:0:
256,192,46301,1,0,0:0:0:0:
256,192,47085,1,0,0:0:0:0:
256,192,47870,1,8,0:0:0:0:
256,192,49438,1,0,0:0:0:0:
256,192,50223,1,0,0:0:0:0:
256,192,51007,1,8,0:0:0:0:
256,192,52183,1,0,0:0:0:0:
256,192,52575,1,8,0:0:0:0:
256,192,53360,1,8,0:0:0:0:
256,192,54144,1,0,0:0:0:0:
256,192,55713,1,4,0:0:0:0:
256,192,56497,1,8,0:0:0:0:
256,192,56889,1,8,0:0:0:0:
256,192,57281,1,0,0:0:0:0:
256,192,58066,1,8,0:0:0:0:
256,192,58850,1,0,0:0:0:0:
256,192,59242,1,0,0:0:0:0:
256,192,59634,1,8,0:0:0:0:
256,192,60026,1,8,0:0:0:0:
256,192,60419,1,0,0:0:0:0:
256,192,61203,1,8,0:0:0:0:
256,192,61987,1,0,0:0:0:0:
256,192,62379,1,0,0:0:0:0:
256,192,62772,1,8,0:0:0:0:
256,192,63556,1,0,0:0:0:0:
256,192,65124,1,4,0:0:0:0:
256,192,65517,1,8,0:0:0:0:
256,192,66301,1,8,0:0:0:0:
256,192,66693,1,0,0:0:0:0:
256,192,67477,1,0,0:0:0:0:
256,192,67870,1,8,0:0:0:0:
256,192,68262,1,0,0:0:0:0:
256,192,69438,1,0,0:0:0:0:
256,192,69830,1,8,0:0:0:0:
256,192,70615,1,8,0:0:0:0:
256,192,71007,1,8,0:0:0:0:
256,192,71399,1,0,0:0:0:0:
256,192,72183,1,8,0:0:0:0:
256,192,72772,1,12,0:0:0:0:
256,192,73752,1,0,0:0:0:0:
256,192,74144,1,8,0:0:0:0:
256,192,74536,1,0,0:0:0:0:
256,192,75517,1,8,0:0:0:0:
256,192,75909,1,8,0:0:0:0:
256,192,76889,1,8,0:0:0:0:
256,192,77673,1,4,0:0:0:0:
256,192,78066,1,8,0:0:0:0:
256,192,78850,1,8,0:0:0:0:
256,192,79242,1,0,0:0:0:0:
256,192,80026,1,0,0:0:0:0:
256,192,80419,1,8,0:0:0:0:
256,192,80811,1,0,0:0:0:0:
256,192,81987,1,0,0:0:0:0:
256,192,82379,1,8,0:0:0:0:
256,192,83164,1,8,0:0:0:0:
256,192,83556,1,8,0:0:0:0:
256,192,83948,1,0,0:0:0:0:
256,192,84732,1,8,0:0:0:0:
256,192,85321,1,12,0:0:0:0:
256,192,86301,1,0,0:0:0:0:
256,192,86693,1,8,0:0:0:0:
256,192,87085,1,0,0:0:0:0:
256,192,88262,1,8,0:0:0:0:
256,192,88654,1,0,0:0:0:0:
256,192,89438,1,8,0:0:0:0:
256,192,90223,1,4,0:0:0:0:
256,192,90615,1,4,0:0:0:0:
256,192,91203,1,4,0:0:0:0:
256,192,91595,1,4,0:0:0:0:
256,192,91987,1,4,0:0:0:0:
256,192,92575,1,12,0:0:0:0:
256,192,93360,1,12,0:0:0:0:
256,192,94928,1,0,0:0:0:0:
256,192,95713,1,8,0:0:0:0:
256,192,96105,1,8,0:0:0:0:
256,192,96497,1,0,0:0:0:0:
256,192,98066,1,8,0:0:0:0:
256,192,98654,1,8,0:0:0:0:
256,192,99242,1,0,0:0:0:0:
256,192,99634,1,8,0:0:0:0:
256,192,101203,1,0,0:0:0:0:
256,192,101987,1,8,0:0:0:0:
256,192,102379,1,0,0:0:0:0:
256,192,102772,1,8,0:0:0:0:
256,192,103360,1,8,0:0:0:0:
256,192,104340,1,8,0:0:0:0:
256,192,105517,1,8,0:0:0:0:
256,192,105909,1,4,0:0:0:0:
256,192,106693,1,8,0:0:0:0:
256,192,107477,1,0,0:0:0:0:
256,192,109046,1,0,0:0:0:0:
256,192,109830,1,8,0:0:0:0:
256,192,110222,1,8,0:0:0:0:
256,192,110615,1,0,0:0:0:0:
256,192,112183,1,8,0:0:0:0:
256,192,112968,1,0,0:0:0:0:
256,192,113752,1,8,0:0:0:0:
256,192,115321,1,8,0:0:0:0:
256,192,116105,1,0,0:0:0:0:
256,192,116497,1,0,0:0:0:0:
256,192,116889,1,8,0:0:0:0:
256,192,118066,1,8,0:0:0:0:
256,192,118458,1,4,0:0:0:0:
256,192,119242,1,8,0:0:0:0:
256,192,120026,1,0,0:0:0:0:
256,192,121203,1,0,0:0:0:0:
256,192,121595,1,8,0:0:0:0:
256,192,122379,1,8,0:0:0:0:
256,192,122772,1,8,0:0:0:0:
256,192,123164,1,0,0:0:0:0:
256,192,124732,1,8,0:0:0:0:
256,192,125517,1,0,0:0:0:0:
256,192,126301,1,8,0:0:0:0:
256,192,127477,1,8,0:0:0:0:
256,192,127870,1,0,0:0:0:0:
256,192,128654,1,0,0:0:0:0:
256,192,129046,1,0,0:0:0:0:
256,192,129438,1,8,0:0:0:0:
256,192,130615,1,8,0:0:0:0:
256,192,131007,1,4,0:0:0:0:
256,192,131791,1,8,0:0:0:0:
256,192,132183,1,8,0:0:0:0:
256,192,132575,1,0,0:0:0:0:
256,192,133360,1,8,0:0:0:0:
256,192,134144,1,0,0:0:0:0:
256,192,134536,1,0,0:0:0:0:
256,192,134928,1,8,0:0:0:0:
256,192,135321,1,8,0:0:0:0:
256,192,135713,1,0,0:0:0:0:
256,192,136497,1,8,0:0:0:0:
256,192,137281,1,0,0:0:0:0:
256,192,137673,1,0,0:0:0:0:
256,192,138066,1,8,0:0:0:0:
256,192,138850,1,0,0:0:0:0:
256,192,140419,1,4,0:0:0:0:
256,192,140811,1,8,0:0:0:0:
256,192,141595,1,8,0:0:0:0:
256,192,141987,1,0,0:0:0:0:
256,192,142772,1,0,0:0:0:0:
256,192,143164,1,8,0:0:0:0:
256,192,143556,1,0,0:0:0:0:
256,192,144732,1,0,0:0:0:0:
256,192,145124,1,8,0:0:0:0:
256,192,145909,1,8,0:0:0:0:
256,192,146301,1,8,0:0:0:0:
256,192,146693,1,0,0:0:0:0:
256,192,147477,1,8,0:0:0:0:
256,192,148066,1,12,0:0:0:0:
256,192,149046,1,0,0:0:0:0:
256,192,149438,1,8,0:0:0:0:
256,192,149830,1,0,0:0:0:0:
256,192,150811,1,8,0:0:0:0:
256,192,151203,1,8,0:0:0:0:
256,192,152183,1,8,0:0:0:0:
256,192,152968,1,4,0:0:0:0:
256,192,153360,1,8,0:0:0:0:
256,192,154144,1,8,0:0:0:0:
256,192,154536,1,0,0:0:0:0:
256,192,155321,1,0,0:0:0:0:
256,192,155713,1,8,0:0:0:0:
256,192,156105,1,0,0:0:0:0:
256,192,157281,1,0,0:0:0:0:
256,192,157673,1,8,0:0:0:0:
256,192,158458,1,8,0:0:0:0:
256,192,158850,1,8,0:0:0:0:
256,192,159242,1,0,0:0:0:0:
256,192,160026,1,8,0:0:0:0:
256,192,160615,1,12,0:0:0:0:
256,192,161595,1,0,0:0:0:0:
256,192,161987,1,8,0:0:0:0:
256,192,162379,1,0,0:0:0:0:
256,192,163556,1,8,0:0:0:0:
256,192,163948,1,0,0:0:0:0:
256,192,164732,1,8,0:0:0:0:
256,192,165517,1,4,0:0:0:0:
256,192,166693,1,8,0:0:0:0:
256,192,167085,1,8,0:0:0:0:
256,192,167673,1,0,0:0:0:0:
256,192,168654,1,8,0:0:0:0:
256,192,169830,1,8,0:0:0:0:
256,192,170223,1,8,0:0:0:0:
256,192,170811,1,0,0:0:0:0:
256,192,171791,1,12,0:0:0:0:
256,192,172968,1,0,0:0:0:0:
256,192,173360,1,8,0:0:0:0:
256,192,173948,1,0,0:0:0:0:
256,192,174928,1,8,0:0:0:0:
256,192,175713,1,0,0:0:0:0:
256,192,176105,1,0,0:0:0:0:
256,192,176497,1,8,0:0:0:0:
256,192,177281,1,0,0:0:0:0:
256,192,178066,1,12,0:0:0:0:
256,192,179242,1,8,0:0:0:0:
256,192,179634,1,0,0:0:0:0:
256,192,180223,1,8,0:0:0:0:
256,192,181203,1,0,0:0:0:0:
256,192,181595,1,8,0:0:0:0:
256,192,182379,1,8,0:0:0:0:
256,192,182772,1,0,0:0:0:0:
256,192,183360,1,8,0:0:0:0:
256,192,184340,1,0,0:0:0:0:
256,192,185909,1,0,0:0:0:0:
256,192,187477,1,8,0:0:0:0:
256,192,189046,1,8,0:0:0:0:
256,192,190615,1,0,0:0:0:0:
256,192,191987,1,8,0:0:0:0:
256,192,193752,1,0,0:0:0:0:
256,192,195321,1,12,0:0:0:0:
256,192,196889,1,4,0:0:0:0:
256,192,197281,1,8,0:0:0:0:
256,192,198066,1,8,0:0:0:0:
256,192,198458,1,0,0:0:0:0:
256,192,199242,1,0,0:0:0:0:
256,192,199634,1,8,0:0:0:0:
256,192,200026,1,0,0:0:0:0:
256,192,201203,1,0,0:0:0:0:
256,192,201595,1,8,0:0:0:0:
256,192,202379,1,8,0:0:0:0:
256,192,202772,1,8,0:0:0:0:
256,192,203164,1,0,0:0:0:0:
256,192,203948,1,8,0:0:0:0:
256,192,204536,1,12,0:0:0:0:
256,192,205517,1,0,0:0:0:0:
256,192,205909,1,8,0:0:0:0:
256,192,206301,1,0,0:0:0:0:
256,192,207477,1,8,0:0:0:0:
256,192,207870,1,0,0:0:0:0:
256,192,208654,1,8,0:0:0:0:
256,192,209438,1,4,0:0:0:0:
256,192,209830,1,8,0:0:0:0:
256,192,210615,1,8,0:0:0:0:
256,192,211007,1,0,0:0:0:0:
256,192,211791,1,0,0:0:0:0:
256,192,212183,1,8,0:0:0:0:
256,192,212575,1,0,0:0:0:0:
256,192,213752,1,0,0:0:0:0:
256,192,214144,1,8,0:0:0:0:
256,192,214928,1,8,0:0:0:0:
256,192,215321,1,8,0:0:0:0:
256,192,215713,1,0,0:0:0:0:
256,192,216497,1,8,0:0:0:0:
256,192,217085,1,12,0:0:0:0:
256,192,218066,1,0,0:0:0:0:
256,192,218458,1,8,0:0:0:0:
256,192,218850,1,0,0:0:0:0:
256,192,220026,1,8,0:0:0:0:
256,192,220419,1,0,0:0:0:0:
256,192,221203,1,8,0:0:0:0:
256,192,221987,1,4,0:0:0:0:
256,192,222379,1,4,0:0:0:0:
256,192,222968,1,4,0:0:0:0:
256,192,223360,1,4,0:0:0:0:
256,192,223752,1,4,0:0:0:0:
256,192,224340,1,12,0:0:0:0:
256,192,225124,1,8,0:0:0:0:
256,192,226745,1,8,0:0:0:0:
256,192,227835,1,8,0:0:0:0:
256,192,228926,1,8,0:0:0:0:
256,192,229471,12,0,238199,0:0:0:0:
