osu file format v14

[General]
AudioFilename: audio.mp3
AudioLeadIn: 0
PreviewTime: 206921
Countdown: 0
SampleSet: Soft
StackLeniency: 0.5
Mode: 0
LetterboxInBreaks: 0
WidescreenStoryboard: 0

[Editor]
DistanceSpacing: 1.4
BeatDivisor: 4
GridSize: 4
TimelineZoom: 1.7

[Metadata]
Title:Prism lovely day
TitleUnicode:プリズム lovely day
Artist:solfa feat. Chata
ArtistUnicode:solfa feat. 茶太
Creator:Respirte
Version:Special Days
Source:彼女と俺の恋愛日常
Tags:featured artist fa visual novel vn eroge lovelyday of girlfriends & me C99 japanese jpop jrock female vocalist op opening just parasol
BeatmapID:3386462
BeatmapSetID:1658950

[Difficulty]
HPDrainRate:5.2
CircleSize:4.2
OverallDifficulty:8.2
ApproachRate:9
SliderMultiplier:1.8
SliderTickRate:1

[Events]
//Background and Video events
0,0,"chestnut.jpg",0,0
//Break Periods
//Storyboard Layer 0 (Background)
//Storyboard Layer 1 (Fail)
//Storyboard Layer 2 (Pass)
//Storyboard Layer 3 (Foreground)
//Storyboard Layer 4 (Overlay)
//Storyboard Sound Samples

[TimingPoints]
298,333.333333333333,4,2,1,70,1,0
298,-125,4,2,1,70,0,0
964,-125,4,2,1,40,0,0
1631,-125,4,2,1,70,0,0
2297,-125,4,2,1,40,0,0
2964,-125,4,2,1,70,0,0
3631,-125,4,2,1,40,0,0
4297,-125,4,2,1,70,0,0
4631,-125,4,2,1,50,0,0
4964,-125,4,2,1,70,0,0
5631,-142.857142857143,4,2,1,60,0,0
6964,-125,4,2,1,65,0,0
8297,-125,4,2,1,75,0,0
10964,-83.3333333333333,4,2,5,90,0,0
26964,-100,4,2,5,80,0,0
32297,-142.857142857143,4,2,1,60,0,0
35631,-142.857142857143,4,2,11,60,0,0
35964,-142.857142857143,4,2,5,60,0,0
36297,-142.857142857143,4,2,12,60,0,0
36631,-142.857142857143,4,2,1,60,0,0
36964,-142.857142857143,4,2,13,60,0,0
37131,-142.857142857143,4,2,1,60,0,0
37631,-142.857142857143,4,2,14,60,0,0
37797,-142.857142857143,4,2,1,60,0,0
41964,-142.857142857143,4,2,15,60,0,0
42297,-142.857142857143,4,2,1,60,0,0
42464,-142.857142857143,4,2,5,60,0,0
42631,-142.857142857143,4,2,15,60,0,0
42797,-142.857142857143,4,2,5,60,0,0
42964,-142.857142857143,4,2,14,60,0,0
43131,-142.857142857143,4,2,3,60,0,0
46297,-142.857142857143,4,2,11,60,0,0
46464,-142.857142857143,4,2,3,60,0,0
46964,-142.857142857143,4,2,12,60,0,0
47131,-142.857142857143,4,2,3,60,0,0
47631,-142.857142857143,4,2,13,60,0,0
47797,-142.857142857143,4,2,3,60,0,0
48297,-142.857142857143,4,2,14,60,0,0
48464,-142.857142857143,4,2,3,60,0,0
51631,-142.857142857143,4,2,16,60,0,0
51797,-142.857142857143,4,2,3,60,0,0
52297,-142.857142857143,4,2,11,60,0,0
52464,-142.857142857143,4,2,3,60,0,0
52964,-142.857142857143,4,2,17,60,0,0
53131,-142.857142857143,4,2,3,60,0,0
53297,-142.857142857143,4,2,1,60,0,0
53631,333.333333333333,3,2,1,65,1,0
53631,-125,3,2,1,65,0,0
59630,333.333333333333,4,2,1,75,1,0
59630,-100,4,2,1,75,0,0
63629,-100,4,2,1,80,0,0
64963,-71.4285714285714,4,2,1,90,0,1
65880,-71.4285714285714,4,2,7,90,0,1
65963,-71.4285714285714,4,2,1,90,0,1
67213,-71.4285714285714,4,2,7,90,0,1
67296,-71.4285714285714,4,2,1,90,0,1
68213,-71.4285714285714,4,2,7,90,0,1
68296,-71.4285714285714,4,2,1,90,0,1
70879,-71.4285714285714,4,2,7,90,0,1
70963,-71.4285714285714,4,2,1,90,0,1
72213,-71.4285714285714,4,2,7,90,0,1
72296,-71.4285714285714,4,2,1,90,0,1
73546,-71.4285714285714,4,2,7,90,0,1
73629,-71.4285714285714,4,2,1,90,0,1
75546,-71.4285714285714,4,2,7,90,0,1
75629,-71.4285714285714,4,2,1,90,0,1
76546,-71.4285714285714,4,2,7,90,0,1
76629,-71.4285714285714,4,2,1,90,0,1
77879,-71.4285714285714,4,2,7,90,0,1
77963,-71.4285714285714,4,2,1,90,0,1
78879,-71.4285714285714,4,2,7,90,0,1
78963,-71.4285714285714,4,2,1,90,0,1
81546,-71.4285714285714,4,2,7,90,0,1
81629,-71.4285714285714,4,2,1,90,0,1
82879,-71.4285714285714,4,2,7,90,0,1
82963,-71.4285714285714,4,2,1,90,0,1
84213,-71.4285714285714,4,2,7,90,0,1
84296,-71.4285714285714,4,2,1,90,0,1
84963,-71.4285714285714,4,2,1,70,0,1
86296,-83.3333333333333,4,2,5,90,0,0
102296,-100,4,2,5,80,0,0
107629,-125,4,2,1,70,0,0
111963,-125,4,2,11,70,0,0
112129,-125,4,2,1,70,0,0
112296,-125,4,2,17,70,0,0
112463,-125,4,2,1,70,0,0
112629,-125,4,2,13,70,0,0
112796,-125,4,2,1,70,0,0
112963,-125,4,2,14,70,0,0
113129,-125,4,2,1,70,0,0
117796,-125,4,2,5,70,0,0
117963,-125,4,2,1,70,0,0
121629,-125,4,2,11,70,0,0
121796,-125,4,2,1,70,0,0
122296,-125,4,2,12,70,0,0
122463,-125,4,2,1,70,0,0
122879,-125,4,2,5,70,0,0
122963,-125,4,2,13,70,0,0
123129,-125,4,2,1,70,0,0
123629,-125,4,2,14,70,0,0
123796,-125,4,2,1,70,0,0
124296,-125,4,2,5,70,0,0
124463,-125,4,2,1,70,0,0
124546,-125,4,2,5,70,0,0
124796,-125,4,2,1,70,0,0
126963,-125,4,2,16,70,0,0
127046,-125,4,2,5,70,0,0
127129,-125,4,2,1,70,0,0
127213,-125,4,2,5,70,0,0
127463,-125,4,2,1,70,0,0
127629,-125,4,2,11,70,0,0
127796,-125,4,2,1,70,0,0
128296,-125,4,2,17,70,0,0
128463,-125,4,2,1,70,0,0
128963,333.333333333333,3,2,1,65,1,0
128963,-125,3,2,1,65,0,0
134963,333.333333333333,4,2,1,75,1,0
134963,-100,4,2,1,75,0,0
138963,-100,4,2,1,80,0,0
140296,-71.4285714285714,4,2,1,90,0,1
141213,-71.4285714285714,4,2,7,90,0,1
141296,-71.4285714285714,4,2,1,90,0,1
142546,-71.4285714285714,4,2,7,90,0,1
142629,-71.4285714285714,4,2,1,90,0,1
143546,-71.4285714285714,4,2,7,90,0,1
143629,-71.4285714285714,4,2,1,90,0,1
146213,-71.4285714285714,4,2,7,90,0,1
146296,-71.4285714285714,4,2,1,90,0,1
147546,-71.4285714285714,4,2,7,90,0,1
147629,-71.4285714285714,4,2,1,90,0,1
148879,-71.4285714285714,4,2,7,90,0,1
148963,-71.4285714285714,4,2,1,90,0,1
150879,-71.4285714285714,4,2,7,90,0,1
150962,-71.4285714285714,4,2,1,90,0,1
151879,-71.4285714285714,4,2,7,90,0,1
151962,-71.4285714285714,4,2,1,90,0,1
153212,-71.4285714285714,4,2,7,90,0,1
153296,-71.4285714285714,4,2,1,90,0,1
154212,-71.4285714285714,4,2,7,90,0,1
154296,-71.4285714285714,4,2,1,90,0,1
156879,-71.4285714285714,4,2,7,90,0,1
156962,-71.4285714285714,4,2,1,90,0,1
158212,-71.4285714285714,4,2,7,90,0,1
158296,-71.4285714285714,4,2,1,90,0,1
159546,-71.4285714285714,4,2,7,90,0,1
159629,-71.4285714285714,4,2,1,90,0,1
160296,-71.4285714285714,4,2,1,70,0,1
161629,333.333333333333,3,2,1,60,1,0
161629,-125,4,2,1,60,0,0
169295,-125,4,2,1,65,0,0
169629,333.333333333333,4,2,1,70,1,0
169629,-90.9090909090909,4,2,1,70,0,0
170962,-90.9090909090909,4,2,1,80,0,0
171629,-90.9090909090909,4,2,1,90,0,0
172295,-62.5,4,2,5,95,0,0
181629,-83.3333333333333,4,2,5,90,0,0
184295,-71.4285714285714,4,2,5,95,0,0
184628,-83.3333333333333,4,2,5,95,0,0
185628,-166.666666666667,4,2,1,45,0,0
196295,-111.111111111111,4,2,3,55,0,0
205628,-83.3333333333333,4,2,1,70,0,0
206962,-71.4285714285714,4,2,1,90,0,1
207878,-71.4285714285714,4,2,7,90,0,1
207962,-71.4285714285714,4,2,1,90,0,1
209212,-71.4285714285714,4,2,7,90,0,1
209295,-71.4285714285714,4,2,1,90,0,1
210212,-71.4285714285714,4,2,7,90,0,1
210295,-71.4285714285714,4,2,1,90,0,1
212878,-71.4285714285714,4,2,7,90,0,1
212962,-71.4285714285714,4,2,1,90,0,1
214212,-71.4285714285714,4,2,7,90,0,1
214295,-71.4285714285714,4,2,1,90,0,1
215545,-71.4285714285714,4,2,7,90,0,1
215628,-71.4285714285714,4,2,1,90,0,1
217545,-71.4285714285714,4,2,7,90,0,1
217628,-71.4285714285714,4,2,1,90,0,1
218545,-71.4285714285714,4,2,7,90,0,1
218628,-71.4285714285714,4,2,1,90,0,1
219878,-71.4285714285714,4,2,7,90,0,1
219962,-71.4285714285714,4,2,1,90,0,1
220878,-71.4285714285714,4,2,7,90,0,1
220962,-71.4285714285714,4,2,1,90,0,1
223545,-71.4285714285714,4,2,7,90,0,1
223628,-71.4285714285714,4,2,1,90,0,1
224878,-71.4285714285714,4,2,7,90,0,1
224962,-71.4285714285714,4,2,1,90,0,1
226212,-71.4285714285714,4,2,7,90,0,1
226295,-71.4285714285714,4,2,1,90,0,1
226962,-71.4285714285714,4,2,1,70,0,1
228295,-83.3333333333333,4,2,5,90,0,0
244295,-100,4,2,5,80,0,0
249628,-71.4285714285714,4,2,1,85,0,0

[Colours]
Combo1 : 235,148,210
Combo2 : 206,159,128
Combo3 : 19,81,155
Combo4 : 235,65,65

[HitObjects]
71,167,298,6,0,B|165:223|233:152|233:152|197:181|148:253|229:321|229:321|277:268,1,432,6|2,3:2|0:0,0:0:0:0:
414,377,1631,6,0,B|350:324|445:213|445:213|480:263|439:309|383:306|315:247|394:156,1,432,6|2,3:2|0:0,0:0:0:0:
505,73,2964,6,0,B|476:42|417:40|377:61|377:61|255:130|184:110|181:50|222:19|279:17|311:60,1,432,6|2,3:2|0:0,0:0:0:0:
170,156,4297,6,0,B|101:101|141:11,1,144,6|2,3:2|0:0,0:0:0:0:
53,134,4964,2,0,P|64:168|69:206,1,72,2|0,3:2|0:0,0:0:0:0:
49,340,5297,1,10,0:0:0:0:
71,311,5380,1,8,0:0:0:0:
105,301,5463,1,8,0:0:0:0:
139,312,5546,1,8,0:0:0:0:
159,336,5631,6,0,P|187:347|244:347,1,62.9999980773926,6|0,3:2|0:0,0:0:0:0:
324,295,5964,2,0,P|267:276|242:279,1,62.9999980773926,0|0,3:2|0:0,0:0:0:0:
418,355,6297,2,0,L|428:293,1,62.9999980773926,2|0,3:2|0:0,0:0:0:0:
332,142,6631,2,0,L|342:204,1,62.9999980773926,2|0,3:2|0:0,0:0:0:0:
451,81,6964,6,0,P|418:60|368:62,1,72,2|0,3:2|0:0,0:0:0:0:
358,65,7214,1,8,0:0:0:0:
358,73,7297,1,10,3:2:0:0:
446,255,7464,1,2,0:0:0:0:
447,246,7547,1,8,0:0:0:0:
449,237,7631,1,8,3:2:0:0:
231,136,7797,1,0,0:0:0:0:
227,142,7881,1,8,0:0:0:0:
223,148,7964,2,0,L|207:228,1,72,10|10,3:2|0:0,0:0:0:0:
62,366,8297,6,0,P|41:326|49:269,1,72,14|0,3:2|0:0,0:0:0:0:
46,272,8547,1,8,0:0:0:0:
54,272,8631,1,8,3:2:0:0:
258,357,8797,1,2,0:0:0:0:
266,360,8881,1,8,0:0:0:0:
274,363,8964,1,8,3:2:0:0:
109,155,9131,1,8,0:0:0:0:
94,116,9214,1,8,0:0:0:0:
101,75,9297,1,10,0:0:0:0:
128,43,9381,1,8,0:0:0:0:
167,30,9464,1,8,0:0:0:0:
208,39,9547,1,8,0:0:0:0:
238,68,9631,5,6,3:2:0:0:
238,68,10464,1,0,3:2:0:0:
361,282,10631,1,10,0:0:0:0:
367,246,10714,1,8,0:0:0:0:
373,211,10797,1,8,0:0:0:0:
379,175,10881,1,8,0:0:0:0:
385,140,10964,6,0,B|357:127|334:136|334:136|339:93|315:71|315:71|292:89|260:86,1,161.999995056153,6|0,3:2|0:0,0:0:0:0:
202,66,11297,2,0,B|234:40|268:47|268:47|229:63|217:98,1,107.999996704102,8|0,3:2|0:0,0:0:0:0:
203,147,11547,1,2,0:0:0:0:
203,147,11631,2,0,B|195:173|210:195|214:195|233:219|224:263,1,107.999996704102,2|0,3:2|0:0,0:0:0:0:
110,358,11964,2,0,B|124:334|115:309|112:307|100:279|121:240,1,107.999996704102,8|0,3:2|0:0,0:0:0:0:
313,368,12297,6,0,B|346:392|388:386|400:349|400:349|362:337|348:293,1,161.999995056153,2|0,3:2|0:0,0:0:0:0:
304,263,12631,2,0,B|321:233|316:211|316:211|335:238|369:241,1,107.999996704102,10|0,3:2|0:0,0:0:0:0:
489,154,12964,2,0,P|415:146|356:201,1,107.999996704102,2|0,3:2|0:0,0:0:0:0:
337,268,13297,1,10,3:2:0:0:
163,265,13464,1,0,0:0:0:0:
152,251,13547,1,2,0:0:0:0:
145,236,13631,6,0,B|117:193|109:138|145:111|181:134|172:162|138:159,1,161.999995056153,2|0,3:2|0:0,0:0:0:0:
216,66,13964,2,0,B|192:51|157:62|157:62|186:64|204:77,1,107.999996704102,8|0,3:2|0:0,0:0:0:0:
221,210,14214,1,2,0:0:0:0:
221,210,14297,2,0,B|296:199|296:199|320:206|320:206|245:219,1,161.999995056153,2|0,3:2|0:0,0:0:0:0:
234,293,14631,1,8,3:2:0:0:
438,224,14797,6,0,P|475:169|360:164,1,215.999993408203,2|0,0:0|0:0,0:0:0:0:
178,237,15297,2,0,P|234:200|270:251,1,107.999996704102,8|0,3:2|0:0,0:0:0:0:
419,321,15631,2,0,P|353:306|339:349,1,107.999996704102,0|0,3:2|0:0,0:0:0:0:
350,227,15964,1,10,3:2:0:0:
485,366,16131,1,2,0:0:0:0:
429,170,16297,6,0,B|414:130|433:95|433:95|397:121|353:109,1,161.999995056153,2|0,3:2|0:0,0:0:0:0:
374,34,16631,2,0,P|392:67|364:41,1,107.999996704102,8|0,3:2|0:0,0:0:0:0:
273,69,16881,1,2,0:0:0:0:
273,69,16964,2,0,B|212:43|220:79|146:49,1,107.999996704102,2|0,3:2|0:0,0:0:0:0:
44,99,17297,1,8,3:2:0:0:
216,190,17464,6,0,B|227:178|246:174|246:174|192:166|186:203|134:215|134:215|175:230|179:278,1,215.999993408203,2|0,0:0|0:0,0:0:0:0:
113,313,17881,1,2,0:0:0:0:
113,313,17964,2,0,B|126:289|156:284|156:284|130:276|117:249,1,107.999996704102,10|0,3:2|0:0,0:0:0:0:
271,330,18297,2,0,B|297:313|332:327|332:327|371:365|430:349,1,161.999995056153,2|0,3:2|0:0,0:0:0:0:
397,263,18631,1,10,3:2:0:0:
198,371,18797,1,0,0:0:0:0:
182,367,18881,1,2,0:0:0:0:
166,363,18964,6,0,B|117:353|68:367|68:367|92:334|94:274,1,161.999995056153,2|0,3:2|0:0,0:0:0:0:
46,235,19297,2,0,B|80:225|108:238|108:238|81:232|52:248,1,107.999996704102,10|0,3:2|0:0,0:0:0:0:
13,314,19547,1,2,0:0:0:0:
13,314,19631,1,2,3:2:0:0:
80,150,19797,2,0,B|90:130|74:98|74:98|48:122|51:145,1,107.999996704102,2|8,0:0|3:2,0:0:0:0:
208,251,20131,6,0,B|215:273|241:283|241:283|209:298|164:281|164:281|133:263|116:226,1,161.999995056153,2|0,3:2|0:0,0:0:0:0:
200,153,20464,2,0,B|215:144|234:149|234:149|215:150|207:159,1,53.9999983520508,2|0,3:2|0:0,0:0:0:0:
297,193,20631,2,0,B|312:202|331:197|331:197|312:196|304:187,1,53.9999983520508,10|0,3:2|0:0,0:0:0:0:
388,134,20797,2,0,B|410:129|436:141|436:141|435:113|397:93|397:93|366:92|336:118|336:118,1,161.999995056153,2|0,3:2|0:0,0:0:0:0:
331,197,21131,1,0,3:2:0:0:
444,12,21297,1,8,0:0:0:0:
405,0,21381,1,8,0:0:0:0:
364,0,21464,1,8,0:0:0:0:
325,10,21546,1,8,0:0:0:0:
292,32,21631,6,0,B|259:43|231:30|231:30|247:79|256:67|272:100|263:136,1,161.999995056153,6|0,3:2|0:0,0:0:0:0:
231,188,21964,2,0,B|240:153|225:118|225:118|230:148|222:171,1,107.999996704102,8|0,3:2|0:0,0:0:0:0:
148,152,22214,1,2,0:0:0:0:
148,152,22297,2,0,B|85:133|101:159|39:143,1,107.999996704102,2|0,3:2|0:0,0:0:0:0:
119,274,22631,2,0,B|181:255|165:281|227:265,1,107.999996704102,8|0,3:2|0:0,0:0:0:0:
380,166,22964,6,0,B|387:145|422:145|435:169|402:223|402:223|437:212|471:223,1,161.999995056153,2|0,3:2|0:0,0:0:0:0:
386,265,23297,2,0,B|418:248|453:255|453:255|427:256|403:268,1,107.999996704102,10|0,3:2|0:0,0:0:0:0:
366,347,23631,2,0,P|297:326|249:338,1,107.999996704102,2|0,3:2|0:0,0:0:0:0:
132,384,23964,1,10,3:2:0:0:
48,228,24131,1,0,0:0:0:0:
65,225,24214,1,2,0:0:0:0:
78,214,24297,6,0,B|95:187|106:152|93:106|57:106|42:136|68:158|108:148,1,161.999995056153,2|0,3:2|0:0,0:0:0:0:
101,81,24631,2,0,B|72:81|50:64|50:64|40:91|14:105,1,107.999996704102,8|0,3:2|0:0,0:0:0:0:
184,160,24881,1,2,0:0:0:0:
184,160,24964,2,0,B|234:166|234:166|287:149|287:149|259:161|241:180,1,161.999995056153,2|0,3:2|0:0,0:0:0:0:
209,255,25297,1,8,3:2:0:0:
338,81,25464,6,0,B|402:40|462:97|462:97|440:140|374:136,1,215.999993408203,2|0,0:0|0:0,0:0:0:0:
243,86,25964,2,0,P|204:55|198:-2,1,107.999996704102,8|0,3:2|0:0,0:0:0:0:
71,110,26297,2,0,P|100:69|91:13,1,107.999996704102,0|0,3:2|0:0,0:0:0:0:
186,168,26631,1,10,0:0:0:0:
193,199,26714,1,8,0:0:0:0:
200,230,26797,1,10,0:0:0:0:
207,261,26880,1,8,0:0:0:0:
214,294,26964,6,0,B|250:291|274:277|274:277|323:295|323:295|351:276|385:277,1,180,6|0,3:2|3:2,0:0:0:0:
455,332,27464,1,0,0:0:0:0:
342,191,27631,2,0,B|318:148|336:107|336:107|309:148|256:145,1,180,10|0,0:0|3:2,0:0:0:0:
97,61,28131,6,0,B|143:27|200:44|200:44|232:73|271:66,1,180,10|8,0:0|0:0,0:0:0:0:
344,23,28631,1,2,3:2:0:0:
257,145,28797,1,0,0:0:0:0:
161,114,28964,2,0,L|182:281,1,135,10|0,0:0|0:0,0:0:0:0:
137,313,29297,1,10,0:0:0:0:
157,296,29380,1,8,0:0:0:0:
180,285,29463,1,8,0:0:0:0:
207,287,29546,1,8,0:0:0:0:
232,297,29630,5,6,3:2:0:0:
39,197,29964,1,6,3:2:0:0:
196,373,30297,5,6,3:2:0:0:
296,171,30464,1,10,0:0:0:0:
0,357,30797,5,6,3:2:0:0:
512,31,31797,1,0,3:2:0:0:
404,82,31964,1,8,0:0:0:0:
408,115,32047,1,8,0:0:0:0:
413,148,32130,1,8,0:0:0:0:
418,182,32213,1,8,0:0:0:0:
422,215,32297,6,0,L|434:297,1,62.9999980773926,4|0,3:2|0:0,0:0:0:0:
292,349,32631,1,2,3:2:0:0:
292,349,32797,2,0,L|303:267,1,62.9999980773926,2|0,0:0|3:2,0:0:0:0:
317,199,33131,1,2,0:0:0:0:
191,285,33297,1,0,3:2:0:0:
215,197,33464,1,2,0:0:0:0:
215,197,33631,6,0,L|133:208,1,62.9999980773926,0|0,3:2|0:0,0:0:0:0:
104,107,33964,2,0,L|185:118,2,62.9999980773926,2|0|2,3:2|0:0|3:2,0:0:0:0:
22,96,34464,1,0,0:0:0:0:
123,22,34630,1,2,3:2:0:0:
240,67,34797,1,0,0:0:0:0:
248,193,34964,6,0,L|239:255,1,62.9999980773926,2|0,3:2|0:0,0:0:0:0:
322,121,35297,2,0,L|330:183,1,62.9999980773926,2|2,3:2|0:0,0:0:0:0:
449,78,35631,2,0,B|456:59|439:31|439:31|418:55|422:75,1,94.499997116089,2|0,3:2|0:0,0:0:0:0:
433,106,35964,2,0,B|427:150|427:150|431:152|431:152|426:197,1,94.499997116089,0|0,3:2|0:0,0:0:0:0:
446,218,36297,6,0,P|414:259|397:211,1,125.999996154785,2|0,3:2|3:2,0:0:0:0:
507,290,36797,1,0,0:0:0:0:
378,339,36964,1,2,3:2:0:0:
284,235,37131,1,0,0:0:0:0:
284,235,37297,2,0,L|296:141,1,94.499997116089,2|0,3:2|0:0,0:0:0:0:
240,97,37631,6,0,L|323:86,1,62.9999980773926,2|0,3:2|0:0,0:0:0:0:
196,181,37964,1,2,3:2:0:0:
196,181,38130,2,0,L|114:170,1,62.9999980773926,2|0,0:0|3:2,0:0:0:0:
43,158,38464,1,2,0:0:0:0:
134,268,38631,1,0,3:2:0:0:
40,256,38797,1,2,0:0:0:0:
40,256,38964,6,0,L|30:185,1,62.9999980773926,0|0,3:2|0:0,0:0:0:0:
142,111,39297,2,0,L|132:181,2,62.9999980773926,2|0|2,3:2|0:0|3:2,0:0:0:0:
154,23,39797,1,0,0:0:0:0:
45,98,39964,1,2,3:2:0:0:
130,200,40131,1,0,0:0:0:0:
259,113,40297,6,0,P|315:93|342:93,1,62.9999980773926,2|0,3:2|0:0,0:0:0:0:
416,44,40631,1,2,3:2:0:0:
416,44,40797,2,0,L|407:106,1,62.9999980773926,2|0,0:0|3:2,0:0:0:0:
319,180,41131,2,0,L|328:242,1,62.9999980773926,2|0,0:0|3:2,0:0:0:0:
429,325,41464,1,2,0:0:0:0:
429,325,41631,6,0,P|375:317|305:340,1,125.999996154785,0|2,3:2|3:2,0:0:0:0:
307,346,42297,1,2,3:2:0:0:
205,271,42464,1,2,0:0:0:0:
329,248,42631,1,2,3:2:0:0:
218,368,42797,1,2,0:0:0:0:
218,368,42881,1,2,0:0:0:0:
218,368,42964,6,0,L|209:306,1,62.9999980773926,6|8,3:2|0:0,0:0:0:0:
116,226,43297,1,2,3:2:0:0:
116,226,43464,2,0,L|107:288,1,62.9999980773926,10|0,0:0|3:2,0:0:0:0:
128,151,43797,1,10,0:0:0:0:
11,199,43964,1,0,3:2:0:0:
128,151,44131,1,10,0:0:0:0:
51,51,44297,6,0,L|44:113,1,62.9999980773926,0|8,3:2|0:0,0:0:0:0:
203,114,44631,2,0,L|196:51,1,62.9999980773926,2|8,3:2|0:0,0:0:0:0:
124,24,44964,1,2,3:2:0:0:
215,189,45131,1,8,0:0:0:0:
275,86,45297,1,2,3:2:0:0:
135,152,45464,1,8,0:0:0:0:
288,225,45631,5,2,3:2:0:0:
288,225,45797,2,0,L|350:218,1,62.9999980773926,8|2,0:0|3:2,0:0:0:0:
433,321,46131,1,10,0:0:0:0:
433,321,46297,2,0,L|350:311,1,62.9999980773926,2|0,3:2|0:0,0:0:0:0:
281,305,46631,1,0,3:2:0:0:
294,384,46797,1,8,0:0:0:0:
436,220,46964,6,0,P|416:206|345:222,1,94.499997116089,2|0,3:2|0:0,0:0:0:0:
343,233,47297,1,0,3:2:0:0:
320,309,47464,1,8,0:0:0:0:
294,384,47631,1,2,3:2:0:0:
129,294,47797,1,8,0:0:0:0:
129,294,47964,2,0,L|191:300,1,62.9999980773926,2|8,3:2|0:0,0:0:0:0:
166,181,48297,5,2,3:2:0:0:
166,181,48464,2,0,L|159:118,1,62.9999980773926,8|2,0:0|3:2,0:0:0:0:
259,41,48797,2,0,L|252:103,1,62.9999980773926,10|0,0:0|3:2,0:0:0:0:
235,229,49131,1,10,0:0:0:0:
160,128,49297,1,0,3:2:0:0:
235,229,49464,1,10,0:0:0:0:
333,131,49631,6,0,L|395:124,1,62.9999980773926,0|8,3:2|0:0,0:0:0:0:
470,226,49964,2,0,L|407:219,1,62.9999980773926,2|8,3:2|0:0,0:0:0:0:
313,209,50297,1,2,3:2:0:0:
379,331,50464,1,8,0:0:0:0:
470,226,50631,1,2,3:2:0:0:
307,292,50797,1,8,0:0:0:0:
228,166,50964,5,2,3:2:0:0:
228,166,51131,2,0,L|234:228,1,62.9999980773926,8|2,0:0|3:2,0:0:0:0:
130,156,51464,2,0,L|136:93,1,62.9999980773926,10|2,0:0|3:2,0:0:0:0:
37,15,51797,2,0,L|43:77,1,62.9999980773926,10|0,0:0|3:2,0:0:0:0:
55,191,52131,1,10,0:0:0:0:
139,59,52297,6,0,L|201:53,1,62.9999980773926,2|8,3:2|0:0,0:0:0:0:
287,94,52631,1,0,3:2:0:0:
229,180,52797,1,8,0:0:0:0:
278,260,52964,1,2,3:2:0:0:
148,181,53131,1,0,0:0:0:0:
339,181,53297,1,8,3:2:0:0:
171,289,53464,1,8,0:0:0:0:
171,289,53547,1,8,0:0:0:0:
171,289,53631,6,0,P|140:331|145:394,1,96,6|0,3:2|0:0,0:0:0:0:
233,361,53964,1,2,0:0:0:0:
82,250,54186,1,0,3:2:0:0:
82,250,54297,2,0,P|114:209|177:198,1,96,10|0,0:0|0:0,0:0:0:0:
241,244,54631,6,0,P|273:285|336:296,1,96,2|0,3:2|3:2,0:0:0:0:
402,263,54964,2,0,P|370:222|307:211,1,96,2|0,0:0|0:0,0:0:0:0:
314,299,55297,1,10,0:0:0:0:
249,123,55519,1,2,3:2:0:0:
249,123,55631,6,0,P|292:94|355:106,1,96,2|0,3:2|0:0,0:0:0:0:
409,156,55964,2,0,P|416:104|465:63,1,96,2|0,0:0|3:2,0:0:0:0:
502,148,56297,1,10,0:0:0:0:
368,17,56519,1,2,3:2:0:0:
368,17,56631,5,2,3:2:0:0:
321,205,56853,1,2,3:2:0:0:
321,205,56964,2,0,P|272:224|212:202,1,96,2|0,0:0|3:2,0:0:0:0:
167,143,57297,1,10,0:0:0:0:
30,277,57519,1,0,0:0:0:0:
30,277,57630,6,0,P|81:284|122:333,1,96,6|0,3:2|3:2,0:0:0:0:
193,365,57964,2,0,P|244:357|285:308,1,96,2|0,0:0|3:2,0:0:0:0:
201,266,58297,1,10,0:0:0:0:
35,359,58519,1,0,3:2:0:0:
35,359,58630,6,0,P|3:317|9:253,1,96,2|0,3:2|3:2,0:0:0:0:
54,194,58964,2,0,P|85:152|79:88,1,96,2|0,0:0|3:2,0:0:0:0:
25,36,59297,1,8,0:1:0:0:
195,133,59519,1,2,0:0:0:0:
195,133,59630,6,0,B|247:124|247:124|308:165|308:165|374:159,1,180,6|8,3:2|0:0,0:0:0:0:
334,74,60130,1,0,0:0:0:0:
227,218,60296,2,0,L|241:306,1,90,8|0,0:0|3:2,0:0:0:0:
449,369,60630,2,0,L|434:280,1,90,8|0,0:0|3:2,0:0:0:0:
414,150,60963,5,8,3:2:0:0:
338,297,61130,1,0,3:2:0:0:
216,141,61296,2,0,P|170:121|107:127,1,90,8|0,0:0|0:0,0:0:0:0:
33,238,61630,1,8,0:0:0:0:
12,73,61796,1,2,3:2:0:0:
152,249,61963,1,10,0:0:0:0:
182,260,62046,1,8,0:0:0:0:
216,263,62129,1,10,0:0:0:0:
248,258,62213,1,8,0:0:0:0:
280,246,62296,6,0,B|296:214|296:214|284:151,1,90,6|0,3:2|0:0,0:0:0:0:
112,29,62630,2,0,L|129:117,1,90,0|0,3:2|0:0,0:0:0:0:
236,20,62963,1,0,3:2:0:0:
51,149,63130,1,0,0:0:0:0:
299,309,63296,1,0,3:2:0:0:
284,93,63463,1,0,0:0:0:0:
173,370,63629,5,0,3:2:0:0:
203,77,63796,1,8,0:0:0:0:
351,332,63963,1,8,0:0:0:0:
81,212,64129,1,8,0:0:0:0:
370,151,64296,1,8,0:0:0:0:
447,340,64629,5,8,0:0:0:0:
451,299,64712,1,8,0:0:0:0:
456,259,64795,1,8,0:0:0:0:
461,219,64879,1,8,0:0:0:0:
465,179,64963,6,0,B|414:202|346:196|313:148|352:100|417:132|385:162,1,188.999994232178,6|0,3:2|0:0,0:0:0:0:
296,210,65296,2,0,B|309:239|345:251|345:251|308:241|269:254,1,125.999996154785,8|0,3:2|0:0,0:0:0:0:
129,365,65630,2,0,P|82:305|87:232,1,125.999996154785,2|0,3:2|0:0,0:0:0:0:
135,181,65880,1,2,0:0:0:0:
135,181,65963,2,0,B|159:171|195:193|195:193|164:220|138:215,1,125.999996154785,10|0,3:2|0:0,0:0:0:0:
14,74,66296,6,0,B|55:53|114:75|86:89|144:121|228:77,1,188.999994232178,2|0,3:2|0:0,0:0:0:0:
97,30,66630,2,0,B|59:19|29:33|29:33|58:26|90:44,1,125.999996154785,8|0,3:2|0:0,0:0:0:0:
209,183,66963,2,0,P|274:151|353:155,1,125.999996154785,2|0,3:2|0:0,0:0:0:0:
323,253,67213,1,2,0:0:0:0:
323,253,67296,2,0,P|277:269|302:227,1,125.999996154785,10|0,3:2|0:0,0:0:0:0:
408,114,67629,6,0,B|426:102|451:103|451:103|385:75|365:120|294:117|294:117|323:135|333:162,1,251.999992309571,2|10,3:2|3:2,0:0:0:0:
431,318,68129,1,2,0:0:0:0:
431,318,68213,1,2,0:0:0:0:
431,318,68296,2,0,B|437:257|437:257|442:252|442:252|448:194,1,125.999996154785,0|0,3:2|0:0,0:0:0:0:
325,42,68629,2,0,B|307:1|259:2|242:35|242:35|229:64|190:85|141:50,1,188.999994232178,10|0,3:2|0:0,0:0:0:0:
98,208,68963,6,0,B|65:202|48:132|48:132|119:124|146:158,1,188.999994232178,2|0,3:2|0:0,0:0:0:0:
243,217,69296,2,0,B|254:247|202:297|202:297|159:239|176:200,1,188.999994232178,10|0,3:2|0:0,0:0:0:0:
177,87,69629,2,0,B|197:61|267:81|267:81|238:147|195:153,1,188.999994232178,2|0,3:2|0:0,0:0:0:0:
100,239,69963,2,0,B|79:263|10:243|10:243|39:177|70:174,1,188.999994232178,10|0,3:2|0:0,0:0:0:0:
209,246,70296,6,0,B|255:235|295:266|284:275|337:310|398:289,1,188.999994232178,6|0,3:2|0:0,0:0:0:0:
465,373,70629,2,0,B|420:384|390:369|390:369|425:366|440:349,1,125.999996154785,8|0,3:2|0:0,0:0:0:0:
461,257,70879,1,2,0:0:0:0:
461,257,70963,2,0,P|449:199|396:240,1,125.999996154785,2|0,3:2|0:0,0:0:0:0:
260,344,71296,2,0,P|258:272|255:202,1,125.999996154785,8|0,3:2|0:0,0:0:0:0:
123,82,71629,6,0,B|144:74|162:106|130:138|64:100|77:54|122:29|184:17|199:56,1,188.999994232178,2|0,3:2|0:0,0:0:0:0:
182,159,71963,2,0,B|159:182|122:178|122:178|150:196|152:233,1,125.999996154785,8|0,3:2|0:0,0:0:0:0:
44,260,72213,1,2,0:0:0:0:
44,260,72296,2,0,P|19:184|24:127,1,125.999996154785,2|0,3:2|0:0,0:0:0:0:
176,249,72629,2,0,B|230:291|296:272|296:272|281:244|264:211,1,188.999994232178,10|0,3:2|0:0,0:0:0:0:
301,106,72963,6,0,B|273:114|241:95|241:95|280:68|335:95|335:95|391:122|447:74,1,251.999992309571,2|10,3:2|3:2,0:0:0:0:
186,26,73463,1,2,0:0:0:0:
186,26,73546,1,2,0:0:0:0:
186,26,73629,2,0,B|161:59|161:59|173:155,1,125.999996154785,0|0,3:2|0:0,0:0:0:0:
80,324,73963,2,0,L|62:185,1,125.999996154785,10|0,3:2|0:0,0:0:0:0:
263,231,74296,6,0,P|328:251|394:219,1,125.999996154785,2|0,3:2|0:0,0:0:0:0:
241,103,74629,2,0,P|173:117|132:178,1,125.999996154785,10|0,3:2|0:0,0:0:0:0:
321,163,74963,2,0,P|341:97|309:31,1,125.999996154785,2|0,3:2|0:0,0:0:0:0:
164,88,75296,1,10,3:2:0:0:
348,328,75463,1,8,0:0:0:0:
383,340,75546,1,10,0:0:0:0:
420,335,75629,6,0,B|452:293|452:293|475:261|467:214|414:217|399:236|399:236|384:256,1,188.999994232178,6|0,3:2|0:0,0:0:0:0:
461,154,75963,2,0,B|446:107|390:132|390:132|439:167|428:128,1,125.999996154785,8|0,3:2|0:0,0:0:0:0:
273,261,76296,2,0,P|244:213|238:130,1,125.999996154785,2|0,3:2|0:0,0:0:0:0:
292,61,76546,1,2,0:0:0:0:
292,61,76629,2,0,B|240:48|240:48|220:62|220:62|277:76,1,125.999996154785,10|0,3:2|0:0,0:0:0:0:
61,138,76963,6,0,B|105:102|156:128|156:128|113:95|120:22,1,188.999994232178,2|0,3:2|0:0,0:0:0:0:
56,122,77296,2,0,P|32:149|68:125,1,125.999996154785,8|0,3:2|0:0,0:0:0:0:
160,333,77629,2,0,P|165:234|163:170,1,125.999996154785,2|0,3:2|0:0,0:0:0:0:
79,249,77879,1,2,0:0:0:0:
79,249,77963,2,0,B|47:249|54:257|19:256|19:256|32:208|74:208,1,125.999996154785,10|0,3:2|0:0,0:0:0:0:
255,258,78296,6,0,B|273:265|290:286|290:286|331:275|348:234|348:234|382:231|405:253|394:254|424:282|468:276,1,251.999992309571,2|10,3:2|3:2,0:0:0:0:
307,382,78796,1,2,0:0:0:0:
307,382,78879,1,2,0:0:0:0:
307,382,78963,2,0,P|232:362|135:366,1,125.999996154785,0|0,3:2|0:0,0:0:0:0:
167,165,79296,2,0,P|254:140|232:224,1,188.999994232178,10|0,3:2|0:0,0:0:0:0:
146,324,79629,6,0,B|185:303|240:314|240:314|187:300|158:254,1,188.999994232178,2|0,3:2|0:0,0:2:0:0:
72,310,79963,2,0,B|47:347|-5:365|-5:365|48:351|95:376,1,188.999994232178,10|0,3:2|0:0,0:0:0:0:
94,238,80296,2,0,B|58:210|45:156|45:156|54:210|25:255,1,188.999994232178,2|0,3:2|0:0,0:0:0:0:
141,143,80629,1,10,3:2:0:0:
178,114,80712,1,8,0:0:0:0:
224,103,80795,1,8,0:0:0:0:
270,113,80878,1,8,0:0:0:0:
307,141,80963,6,0,B|315:203|315:203|294:231|294:231|304:282|304:282|335:237,1,188.999994232178,6|0,3:2|0:0,0:0:0:0:
393,349,81296,2,0,B|416:317|416:317|365:322|365:322|343:350|343:350,1,125.999996154785,8|0,3:2|0:0,0:0:0:0:
185,324,81546,1,2,0:0:0:0:
185,324,81629,2,0,B|154:270|154:270|155:232|206:263|167:283,1,125.999996154785,2|0,3:2|0:0,0:0:0:0:
29,384,81963,2,0,P|24:313|24:238,1,125.999996154785,8|0,3:2|0:0,0:0:0:0:
91,93,82296,6,0,B|64:106|29:107|29:107|76:154|153:134,1,188.999994232178,2|0,3:2|0:0,0:0:0:0:
79,43,82629,2,0,B|47:28|20:54|20:54|55:67|79:43,1,125.999996154785,8|0,3:2|0:0,0:0:0:0:
190,27,82879,1,2,0:0:0:0:
190,27,82963,2,0,B|224:36|268:23|268:23|246:51|246:81,1,125.999996154785,2|0,3:2|0:0,0:0:0:0:
353,221,83296,2,0,B|346:155|339:93|339:93|371:114|413:112,1,188.999994232178,10|0,3:2|0:0,0:0:0:0:
498,65,83629,6,0,B|493:49|496:28|496:28|451:58|508:135|504:189|504:189|489:166|461:154,1,251.999992309571,6|10,3:2|3:2,0:0:0:0:
444,358,84129,1,2,0:0:0:0:
444,358,84213,1,2,0:0:0:0:
444,358,84296,2,0,P|437:290|436:229,1,125.999996154785,0|0,3:2|0:0,0:0:0:0:
300,82,84629,2,0,P|368:67|339:166,1,188.999994232178,10|0,3:2|0:0,0:0:0:0:
244,196,84963,5,14,3:2:0:0:
70,97,85296,5,14,3:2:0:0:
62,324,85629,5,14,3:2:0:0:
309,269,85963,5,10,3:2:0:0:
313,231,86046,1,8,0:0:0:0:
316,193,86129,1,8,3:2:0:0:
320,156,86213,1,8,0:0:0:0:
323,118,86296,6,0,B|346:160|316:201|316:201|283:167|235:171,1,161.999995056153,6|0,3:2|0:0,0:0:0:0:
177,203,86629,2,0,B|205:191|240:209|240:209|209:206|187:216,1,107.999996704102,8|0,3:2|0:0,0:0:0:0:
143,272,86879,1,2,0:0:0:0:
143,272,86963,2,0,B|84:241|81:283|20:246,1,107.999996704102,2|0,3:2|0:0,0:0:0:0:
110,110,87296,2,0,B|169:79|172:121|233:84,1,107.999996704102,8|0,3:2|0:0,0:0:0:0:
356,14,87629,6,0,B|324:40|280:29|280:29|314:63|305:122,1,161.999995056153,2|0,3:2|0:0,0:0:0:0:
246,208,87963,2,0,B|268:215|296:194|296:194|269:172|246:179,1,107.999996704102,10|0,3:2|0:0,0:0:0:0:
385,205,88296,2,0,P|396:140|399:79,1,107.999996704102,2|0,3:2|0:0,0:0:0:0:
480,250,88629,1,10,3:2:0:0:
294,168,88796,1,0,0:0:0:0:
294,168,88879,1,2,0:0:0:0:
294,168,88963,6,0,B|260:160|234:175|234:175|205:160|205:160|193:185|167:196|135:187,1,161.999995056153,2|0,3:2|0:0,0:0:0:0:
128,117,89296,2,0,P|163:107|127:126,1,107.999996704102,8|0,3:2|0:0,0:0:0:0:
23,213,89546,1,2,0:0:0:0:
23,213,89629,2,0,B|54:205|54:205|102:232|93:269|93:269|67:236|29:237,1,161.999995056153,2|0,3:2|0:0,0:0:0:0:
25,318,89963,1,8,3:2:0:0:
213,363,90129,6,0,B|238:335|228:296|228:296|268:346|340:314|340:314|294:285,1,215.999993408203,2|0,0:0|0:0,0:0:0:0:
428,179,90629,2,0,B|435:153|435:153|392:164|387:231,1,107.999996704102,8|0,3:2|0:0,0:0:0:0:
449,365,90963,2,0,B|467:384|467:384|479:341|423:303,1,107.999996704102,0|0,3:2|0:0,0:0:0:0:
333,279,91296,1,10,3:2:0:0:
510,250,91463,1,2,0:0:0:0:
378,95,91629,6,0,B|351:77|339:54|339:54|313:70|312:98|312:98|283:96|252:112,1,161.999995056153,2|0,3:2|0:0,0:0:0:0:
223,205,91963,2,0,B|242:205|278:186|278:186|252:190|224:180,1,107.999996704102,8|0,3:2|0:0,0:0:0:0:
163,141,92213,1,2,0:0:0:0:
163,141,92296,2,0,B|151:191|151:191|145:193|145:193|135:244,1,107.999996704102,2|0,3:2|0:0,0:0:0:0:
192,359,92629,1,8,3:2:0:0:
37,259,92796,6,0,B|5:203|19:132|19:132|32:159|64:170|64:170|31:168|9:189,1,215.999993408203,2|0,0:0|0:0,0:0:0:0:
135,142,93213,1,2,0:0:0:0:
135,142,93296,2,0,B|124:116|140:90|140:90|117:105|88:97,1,107.999996704102,10|0,3:2|0:0,0:0:0:0:
247,132,93629,2,0,B|283:110|325:125|325:142|371:159|411:132,1,161.999995056153,2|0,3:2|0:0,0:0:0:0:
367,56,93963,1,10,3:2:0:0:
268,209,94129,1,2,0:0:0:0:
260,222,94213,1,2,0:0:0:0:
251,235,94296,6,0,B|235:264|235:264|249:353|249:353|271:307,1,161.999995056153,2|0,3:2|0:0,0:0:0:0:
330,270,94629,2,0,B|358:255|395:267|395:267|361:265|335:282,1,107.999996704102,10|0,3:2|0:0,0:0:0:0:
388,352,94879,1,2,0:0:0:0:
388,352,94963,1,2,3:2:0:0:
479,219,95129,2,0,P|464:166|419:215,1,107.999996704102,2|8,0:0|3:2,0:0:0:0:
284,112,95463,6,0,B|224:121|177:77|177:77|210:70|238:99,1,161.999995056153,2|0,3:2|0:0,0:0:0:0:
353,64,95796,2,0,B|362:79|361:98|361:98|357:86|350:77,1,53.9999983520508,2|0,3:2|0:0,0:0:0:0:
336,172,95963,2,0,B|327:187|328:206|328:206|332:194|339:185,1,53.9999983520508,10|0,3:2|0:0,0:0:0:0:
250,254,96129,2,0,B|231:258|217:251|217:251|203:270|167:275|143:248|130:214|162:192|185:210,1,161.999995056153,2|0,3:2|0:0,0:0:0:0:
255,134,96463,1,0,3:2:0:0:
136,326,96629,1,8,3:2:0:0:
103,342,96712,1,8,0:0:0:0:
67,339,96795,1,8,0:0:0:0:
37,319,96878,1,8,0:0:0:0:
20,288,96963,6,0,B|31:226|31:226|28:220|28:220|35:177|35:177|17:149|36:109,1,161.999995056153,6|0,3:2|0:0,0:0:0:0:
81,68,97296,2,0,P|53:86|92:75,1,107.999996704102,8|0,3:2|0:0,0:0:0:0:
157,150,97546,1,2,0:0:0:0:
157,150,97629,2,0,B|212:125|205:159|280:126,1,107.999996704102,2|0,3:2|0:0,0:0:0:0:
411,67,97963,2,0,B|356:42|363:76|288:43,1,107.999996704102,8|0,3:2|0:0,0:0:0:0:
423,162,98296,6,0,B|451:184|469:238|426:286|368:241|380:218,1,161.999995056153,2|0,3:2|0:0,0:0:0:0:
439,279,98629,2,0,B|459:255|482:248|482:248|453:241|425:268,1,107.999996704102,10|0,3:2|0:0,0:0:0:0:
318,380,98963,2,0,P|263:353|253:276,1,107.999996704102,2|0,3:2|0:0,0:0:0:0:
296,157,99296,1,10,3:2:0:0:
127,253,99463,1,0,0:0:0:0:
96,264,99546,1,2,0:0:0:0:
63,264,99629,6,0,B|30:255|10:208|10:208|47:162|116:187,1,161.999995056153,2|0,3:2|0:0,0:0:0:0:
150,131,99963,2,0,B|98:132|98:132|85:143|85:143|141:142,1,107.999996704102,8|0,3:2|0:0,0:0:0:0:
281,201,100213,1,2,0:0:0:0:
281,201,100296,2,0,B|314:155|300:110|300:110|321:150|377:151,1,161.999995056153,2|0,3:2|0:0,0:0:0:0:
372,69,100629,1,8,3:2:0:0:
356,284,100796,6,0,B|295:267|249:301|249:301|229:247|175:233,1,215.999993408203,2|0,0:0|0:0,0:0:0:0:
48,334,101296,2,0,P|129:337|160:312,1,107.999996704102,8|0,3:2|0:0,0:0:0:0:
423,376,101629,2,0,P|342:379|311:354,1,107.999996704102,0|0,3:2|0:0,0:0:0:0:
277,156,101963,1,10,3:2:0:0:
270,187,102046,1,8,0:0:0:0:
263,218,102129,1,10,0:0:0:0:
256,249,102212,1,8,0:0:0:0:
249,282,102296,6,0,B|218:222|211:134|259:130|267:208|189:209,1,180,6|0,3:2|3:2,0:0:0:0:
134,244,102796,1,0,0:0:0:0:
37,91,102963,2,0,B|66:59|117:69|117:69|155:108|217:82,1,180,10|0,3:2|3:2,0:0:0:0:
382,68,103463,6,0,B|369:26|312:24|278:64|301:102|301:102|342:116,1,180,10|8,0:0|0:0,0:0:0:0:
417,144,103963,1,2,3:2:0:0:
276,224,104129,1,0,0:0:0:0:
360,291,104296,2,0,L|342:150,1,135,10|0,3:2|0:0,0:0:0:0:
296,80,104629,1,10,3:2:0:0:
317,85,104712,1,8,0:0:0:0:
339,82,104795,1,8,0:0:0:0:
359,71,104878,1,8,0:0:0:0:
372,53,104962,5,6,3:2:0:0:
177,147,105296,1,6,3:2:0:0:
273,2,105629,5,6,3:2:0:0:
355,211,105796,1,10,0:0:0:0:
0,27,106129,5,6,3:2:0:0:
512,353,107129,1,0,3:2:0:0:
404,302,107296,1,8,3:2:0:0:
408,269,107379,1,8,0:0:0:0:
413,236,107462,1,8,0:0:0:0:
418,202,107545,1,8,0:0:0:0:
422,169,107629,6,0,L|434:87,1,72,4|0,3:2|0:0,0:0:0:0:
499,232,107963,1,10,0:0:0:0:
321,147,108129,2,0,L|333:229,1,72,2|0,3:2|0:0,0:0:0:0:
351,325,108463,1,2,3:2:0:0:
418,202,108629,1,8,0:0:0:0:
249,264,108796,6,0,B|193:258|193:258|165:233|165:233|84:225,1,144,2|0,3:2|3:2,0:0:0:0:
188,335,109296,1,10,0:0:0:0:
331,239,109463,2,0,L|320:310,1,72,0|2,0:0|0:2,0:0:0:0:
267,176,109796,1,0,3:2:0:0:
394,154,109963,1,10,3:2:0:0:
328,257,110129,1,0,0:0:0:0:
351,86,110296,6,0,P|388:76|442:90,1,72,2|0,3:2|0:0,0:0:0:0:
485,177,110629,1,10,0:0:0:0:
485,177,110796,2,0,L|474:248,1,72,2|0,3:2|0:0,0:0:0:0:
318,328,111129,2,0,L|328:256,1,72,0|8,3:2|0:0,0:0:0:0:
255,88,111463,6,0,L|265:159,1,72,0|0,3:2|0:0,0:0:0:0:
149,267,111796,1,0,3:2:0:0:
149,267,111963,2,0,L|159:195,1,72,10|0,0:2|0:0,0:0:0:0:
182,53,112296,1,2,0:2:0:0:
274,207,112463,1,0,3:2:0:0:
64,156,112629,2,0,L|74:227,1,72,10|0,3:2|0:0,0:0:0:0:
211,322,112963,6,0,P|250:305|312:312,1,72,2|0,3:2|0:0,0:0:0:0:
349,355,113296,1,10,0:0:0:0:
149,267,113463,2,0,L|159:195,1,72,2|0,3:2|0:0,0:0:0:0:
175,89,113796,1,2,3:2:0:0:
325,187,113963,1,8,0:0:0:0:
400,121,114129,6,0,L|390:49,1,72,2|0,3:2|0:0,0:0:0:0:
487,146,114463,1,8,0:0:0:0:
309,90,114629,1,2,3:2:0:0:
250,172,114796,1,0,3:2:0:0:
390,49,114963,1,10,0:0:0:0:
419,262,115129,1,0,3:2:0:0:
209,80,115296,1,10,0:0:0:0:
180,293,115462,1,0,3:2:0:0:
354,202,115629,5,14,0:0:0:0:
154,182,117796,1,2,0:0:0:0:
236,59,117963,1,8,0:0:0:0:
240,92,118046,1,8,0:0:0:0:
245,125,118129,1,8,0:0:0:0:
250,159,118212,1,8,0:0:0:0:
254,192,118296,6,0,L|266:274,1,72,4|0,3:2|0:0,0:0:0:0:
132,338,118629,2,0,L|144:256,1,72,10|2,3:2|0:0,0:0:0:0:
254,335,118963,1,0,3:2:0:0:
259,299,119046,1,2,0:0:0:0:
264,263,119129,1,2,0:0:0:0:
376,332,119296,1,8,3:2:0:0:
356,188,119463,1,2,0:0:0:0:
506,256,119629,6,0,L|424:244,1,72,0|0,3:2|0:0,0:0:0:0:
306,118,119963,2,0,L|388:106,1,72,10|0,3:2|0:0,0:0:0:0:
279,223,120296,1,2,3:2:0:0:
204,58,120463,1,0,0:0:0:0:
209,94,120546,1,2,0:0:0:0:
214,130,120629,1,10,3:2:0:0:
97,71,120796,1,0,0:0:0:0:
102,107,120879,1,2,0:0:0:0:
107,143,120963,6,0,L|117:214,1,72,2|0,3:2|0:0,0:0:0:0:
63,332,121296,2,0,P|95:309|148:309,1,72,10|2,3:2|0:0,0:0:0:0:
198,337,121546,1,0,0:0:0:0:
198,337,121629,2,0,P|233:355|285:346,1,72,2|0,3:2|0:0,0:0:0:0:
340,256,121963,1,8,3:2:0:0:
472,341,122129,1,0,0:0:0:0:
436,346,122213,1,0,0:0:0:0:
400,351,122295,5,2,3:2:0:0:
469,257,122463,2,0,L|424:264,2,36,0|0|8,0:0|0:0|3:2,0:0:0:0:
504,169,122797,1,0,0:0:0:0:
468,174,122880,1,2,0:0:0:0:
432,179,122963,1,2,3:2:0:0:
492,44,123129,1,0,0:0:0:0:
354,149,123296,1,10,3:2:0:0:
260,48,123463,1,0,0:0:0:0:
265,84,123546,1,2,0:0:0:0:
270,120,123629,6,0,L|280:191,1,72,2|0,3:2|0:0,0:0:0:0:
177,264,123879,1,0,0:0:0:0:
177,264,123963,2,0,L|187:192,1,72,10|2,3:2|0:0,0:0:0:0:
86,268,124296,1,2,3:2:0:0:
91,304,124379,1,2,0:0:0:0:
96,340,124462,1,2,0:0:0:0:
207,357,124629,2,0,P|239:339|285:335,1,72,10|2,3:2|0:0,0:0:0:0:
363,365,124879,1,0,0:0:0:0:
363,365,124963,6,0,L|352:293,1,72,0|0,3:2|0:0,0:0:0:0:
264,163,125296,2,0,L|253:234,1,72,10|0,3:2|0:0,0:0:0:0:
345,142,125629,1,2,3:2:0:0:
183,184,125796,1,0,0:0:0:0:
81,36,125963,1,10,3:2:0:0:
39,204,126129,1,0,0:0:0:0:
75,199,126212,1,2,0:0:0:0:
111,194,126296,6,0,L|182:183,1,72,2|0,3:2|0:0,0:0:0:0:
243,280,126546,1,0,0:0:0:0:
243,280,126630,2,0,L|171:269,1,72,10|2,3:2|0:0,0:0:0:0:
345,142,126963,1,2,3:2:0:0:
350,177,127046,1,2,0:0:0:0:
355,213,127129,1,2,0:0:0:0:
334,61,127296,1,10,3:2:0:0:
488,162,127463,1,2,0:0:0:0:
452,157,127546,1,2,0:0:0:0:
416,152,127630,6,0,L|344:141,1,72,2|0,3:2|0:0,0:0:0:0:
244,75,127879,1,0,0:0:0:0:
244,75,127963,2,0,L|316:64,1,72,8|0,3:2|0:0,0:0:0:0:
172,85,128296,1,2,3:2:0:0:
386,53,128463,1,0,0:0:0:0:
154,201,128629,1,8,0:0:0:0:
116,176,128712,1,8,0:0:0:0:
90,140,128795,1,8,0:0:0:0:
81,96,128878,1,8,0:0:0:0:
91,53,128963,6,0,P|123:12|185:0,1,96,6|2,3:2|0:2,0:0:0:0:
172,85,129296,1,2,3:2:0:0:
17,0,129518,1,0,3:2:0:0:
17,0,129629,2,0,P|-2:48|19:108,1,96,10|0,0:0|3:2,0:0:0:0:
42,179,129963,6,0,P|90:159|150:181,1,96,2|0,3:2|3:2,0:0:0:0:
190,243,130296,2,0,P|141:262|81:240,1,96,2|0,0:0|0:2,0:0:0:0:
132,169,130629,1,10,3:2:0:0:
255,322,130851,1,2,3:2:0:0:
255,322,130963,6,0,P|303:342|363:320,1,96,2|0,3:2|0:0,0:0:0:0:
398,231,131296,2,0,P|382:186|344:158,1,96,2|0,0:0|3:2,0:0:0:0:
306,246,131629,1,10,3:2:0:0:
477,342,131851,1,2,3:2:0:0:
477,342,131963,5,2,3:2:0:0:
272,380,132185,1,2,3:2:0:0:
272,380,132296,2,0,P|221:373|180:324,1,96,2|0,0:0|3:2,0:0:0:0:
259,297,132629,1,10,0:0:0:0:
81,364,132851,1,8,0:0:0:0:
81,364,132962,6,0,P|49:322|55:259,1,96,6|0,3:2|0:0,0:0:0:0:
123,219,133296,2,0,P|174:211|215:162,1,96,2|0,0:0|3:2,0:0:0:0:
128,124,133629,1,10,0:0:0:0:
287,239,133851,1,0,3:2:0:0:
287,239,133962,6,0,P|319:197|313:133,1,96,2|0,3:2|0:0,0:0:0:0:
414,130,134296,2,0,P|383:88|389:24,1,96,2|0,0:0|3:2,0:0:0:0:
476,56,134629,1,8,1:0:0:0:
228,18,134851,1,2,0:2:0:0:
228,18,134963,6,0,B|202:62|202:62|228:204,1,180,6|8,3:2|0:0,0:0:0:0:
298,98,135463,1,0,0:0:0:0:
134,250,135629,2,0,B|114:143,1,90,8|0,0:0|3:2,0:0:0:0:
323,234,135963,2,0,B|339:322,1,90,8|0,0:0|3:2,0:0:0:0:
232,276,136296,5,8,0:0:0:0:
432,306,136463,1,0,3:2:0:0:
226,366,136629,2,0,P|175:347|148:311,1,90,8|0,0:0|3:2,0:0:0:0:
176,141,136963,1,8,0:0:0:0:
75,310,137129,1,2,3:2:0:0:
253,188,137296,1,10,0:0:0:0:
283,174,137379,1,8,0:0:0:0:
317,170,137462,1,8,0:0:0:0:
350,174,137546,1,8,0:0:0:0:
381,186,137629,6,0,B|390:221|390:221|379:279,1,90,6|0,3:2|0:0,0:0:0:0:
165,308,137963,2,0,B|148:219,1,90,0|0,3:2|3:2,0:0:0:0:
306,300,138296,1,0,3:2:0:0:
389,81,138463,1,0,3:2:0:0:
132,146,138629,1,0,3:2:0:0:
444,137,138796,1,0,3:2:0:0:
339,370,138963,5,0,3:2:0:0:
309,77,139130,1,8,0:2:0:0:
161,332,139296,1,8,0:2:0:0:
431,212,139463,1,8,0:2:0:0:
142,151,139630,1,8,0:2:0:0:
64,340,139963,5,8,3:2:0:0:
60,299,140046,1,8,0:0:0:0:
55,259,140129,1,8,0:0:0:0:
50,219,140213,1,8,0:0:0:0:
46,179,140297,6,0,B|112:123|145:200|206:165|174:104|100:139|117:167,1,188.999994232178,6|0,3:2|0:0,0:0:0:0:
206,224,140629,2,0,B|243:237|281:220|281:220|253:218|215:192,1,125.999996154785,8|0,3:2|0:0,0:0:0:0:
330,32,140963,2,0,P|286:59|284:133,1,125.999996154785,2|0,3:2|0:0,0:0:0:0:
378,112,141213,1,2,0:0:0:0:
378,112,141296,2,0,B|409:112|439:96|439:96|410:116|395:153,1,125.999996154785,10|0,3:2|0:0,0:0:0:0:
319,314,141629,6,0,B|356:302|356:302|385:324|385:324|448:285|518:328,1,188.999994232178,2|0,3:2|0:0,0:0:0:0:
427,220,141963,2,0,B|396:212|365:228|365:228|396:237|429:222,1,125.999996154785,8|0,3:2|0:0,0:0:0:0:
256,375,142296,2,0,P|231:318|250:260,1,125.999996154785,2|0,3:2|0:0,0:0:0:0:
203,182,142546,1,2,0:0:0:0:
203,182,142629,2,0,B|170:209|123:189|123:189|123:166|123:166|147:192,1,125.999996154785,10|0,3:2|0:0,0:0:0:0:
38,15,142963,6,0,B|20:-12|20:-12|6:37|6:37|26:84|26:84|-17:126|-1:194,1,251.999992309571,2|10,3:2|3:2,0:0:0:0:
151,320,143463,1,2,0:0:0:0:
151,320,143546,1,2,0:0:0:0:
151,320,143629,2,0,B|161:258|161:258|156:251|156:251|165:181,1,125.999996154785,0|0,3:2|0:0,0:0:0:0:
332,63,143963,2,0,B|290:13|222:47|222:47|215:96|287:132,1,188.999994232178,10|0,3:2|0:0,0:0:0:0:
402,130,144296,6,0,B|323:145|323:145|311:176|311:176|223:197,1,188.999994232178,2|0,3:2|0:0,0:0:0:0:
82,212,144629,2,0,B|160:227|160:227|172:258|172:258|260:279,1,188.999994232178,10|0,3:2|0:0,0:0:0:0:
387,351,144963,2,0,B|371:272|371:272|340:260|340:260|319:172,1,188.999994232178,2|0,3:2|0:0,0:0:0:0:
305,31,145296,2,0,B|289:109|289:109|258:121|258:121|237:209,1,188.999994232178,10|0,3:2|0:0,0:0:0:0:
287,344,145629,6,0,B|174:324|216:389|97:367,1,188.999994232178,6|0,3:2|0:0,0:0:0:0:
150,262,145963,2,0,B|195:251|225:266|225:266|190:269|172:283,1,125.999996154785,8|0,3:2|0:0,0:0:0:0:
75,227,146213,1,2,0:0:0:0:
75,227,146296,2,0,B|97:193|85:163|85:163|110:189|162:180,1,125.999996154785,2|0,3:2|0:0,0:0:0:0:
275,51,146629,2,0,P|212:38|138:58,1,125.999996154785,8|0,3:2|0:0,0:0:0:0:
306,155,146963,6,0,B|292:149|269:155|269:155|295:127|348:129|377:169|377:169|369:189|374:223,1,188.999994232178,2|0,3:2|0:0,0:0:0:0:
407,282,147296,2,0,B|392:258|407:210|407:210|414:243|442:284,1,125.999996154785,8|0,3:2|0:0,0:0:0:0:
483,340,147546,1,2,0:0:0:0:
483,340,147629,2,0,P|431:370|345:353,1,125.999996154785,2|0,3:2|0:0,0:0:0:0:
201,271,147963,2,0,B|246:242|291:284|260:327|260:327|219:315|180:348,1,188.999994232178,10|0,3:2|0:0,0:0:0:0:
95,341,148296,6,0,B|80:355|67:383|67:383|63:295|59:238|59:238|86:209|77:161,1,251.999992309571,2|10,3:2|3:2,0:0:0:0:
194,37,148796,1,2,0:0:0:0:
194,37,148879,1,2,0:0:0:0:
194,37,148963,2,0,B|201:93|201:93|198:99|198:99|209:180,1,125.999996154785,0|0,3:2|0:0,0:0:0:0:
330,304,149296,2,0,B|353:273|353:273|344:186|344:186,1,125.999996154785,10|0,3:2|0:0,0:0:0:0:
219,259,149629,6,0,P|154:279|88:247,1,125.999996154785,2|0,3:2|0:0,0:0:0:0:
241,131,149962,2,0,P|309:145|350:206,1,125.999996154785,10|0,3:2|0:0,0:0:0:0:
161,191,150296,2,0,P|141:125|173:59,1,125.999996154785,2|0,3:2|0:0,0:0:0:0:
318,116,150629,1,10,3:2:0:0:
134,356,150796,1,8,0:0:0:0:
99,368,150879,1,10,0:0:0:0:
62,363,150962,6,0,B|34:362|14:338|14:338|10:301|42:274|42:274|33:255|33:255|49:234|46:199,1,188.999994232178,6|0,3:2|0:0,0:0:0:0:
64,124,151296,2,0,B|91:145|87:186|87:186|56:162|16:168,1,125.999996154785,8|0,3:2|0:0,0:0:0:0:
189,275,151629,2,0,B|258:258|242:291|321:277,1,125.999996154785,2|0,3:2|0:0,0:0:0:0:
404,355,151879,1,2,0:0:0:0:
404,355,151962,2,0,B|364:328|381:280|427:281|427:281|412:306,1,125.999996154785,10|0,3:2|0:0,0:0:0:0:
505,125,152296,6,0,B|466:108|427:123|428:133|385:148|349:127|349:127|366:96,1,188.999994232178,2|0,3:2|0:0,0:0:0:0:
293,13,152629,2,0,B|332:-4|368:12|368:12|340:12|310:24,1,125.999996154785,8|0,3:2|0:0,0:0:0:0:
224,180,152962,2,0,B|190:147|206:98|206:98|244:119,1,125.999996154785,2|0,3:2|0:0,0:0:0:0:
309,206,153212,1,2,0:0:0:0:
309,206,153296,2,0,B|335:244|335:244|327:260|310:255|310:255|306:205,1,125.999996154785,10|0,3:2|0:0,0:0:0:0:
170,329,153629,6,0,B|188:318|207:318|207:318|167:295|89:333|89:333|119:280|91:233,1,251.999992309571,2|10,3:2|3:2,0:0:0:0:
32,81,154129,1,2,0:0:0:0:
32,81,154212,1,2,0:0:0:0:
32,81,154296,2,0,B|1:106|1:106|23:190,1,125.999996154785,0|0,3:2|0:0,0:0:0:0:
241,126,154629,2,0,B|183:131|183:131|178:135|178:135|116:141|116:141|154:143|179:188,1,188.999994232178,10|0,3:2|0:0,0:0:0:0:
307,246,154962,6,0,B|358:231|369:178|355:166|361:116|415:100,1,188.999994232178,2|0,3:2|0:0,0:0:0:0:
434,327,155296,2,0,B|395:289|344:306|341:325|294:345|253:305,1,188.999994232178,10|0,3:2|0:0,0:0:0:0:
440,176,155629,2,0,B|426:227|466:263|484:257|525:287|511:342,1,188.999994232178,2|0,3:2|0:0,0:0:0:0:
337,236,155962,1,10,3:2:0:0:
294,214,156045,1,8,0:0:0:0:
247,210,156128,1,8,0:0:0:0:
203,226,156211,1,8,0:0:0:0:
166,255,156296,6,0,B|174:311|174:311|74:290|74:290|120:248,1,188.999994232178,6|0,3:2|0:0,0:0:0:0:
13,193,156629,2,0,B|20:215|9:236|9:236|73:178,1,125.999996154785,8|0,3:2|0:0,0:0:0:0:
38,72,156879,1,2,0:0:0:0:
38,72,156962,2,0,B|6:86|6:86|45:118|96:92,1,125.999996154785,2|0,3:2|0:0,0:0:0:0:
259,4,157296,2,0,P|248:75|247:153,1,125.999996154785,8|0,3:2|0:0,0:0:0:0:
355,266,157629,6,0,B|420:245|428:179|388:153|345:159|335:202,1,188.999994232178,2|0,3:2|0:0,0:0:0:0:
258,282,157962,2,0,B|226:291|189:276|189:276|223:274|255:260,1,125.999996154785,8|0,3:2|0:0,0:0:0:0:
325,350,158212,1,2,0:0:0:0:
325,350,158296,2,0,B|392:336|383:371|463:351,1,125.999996154785,2|0,3:2|0:0,0:0:0:0:
497,170,158629,2,0,B|456:151|420:169|420:169|385:157|385:157|427:146|445:111,1,188.999994232178,10|0,3:2|0:0,0:0:0:0:
351,61,158962,6,0,B|370:37|398:28|398:28|334:34|263:16|263:16|298:13|325:-7,1,251.999992309571,6|10,3:2|3:2,0:0:0:0:
160,102,159462,1,2,0:0:0:0:
160,102,159546,1,2,0:0:0:0:
160,102,159629,2,0,P|180:159|186:238,1,125.999996154785,0|0,3:2|0:0,0:0:0:0:
37,340,159962,2,0,P|37:250|116:303,1,188.999994232178,10|0,3:2|0:0,0:0:0:0:
180,373,160296,5,14,3:2:0:0:
372,313,160629,5,14,3:2:0:0:
399,88,160962,5,14,3:2:0:0:
183,263,161296,5,10,3:2:0:0:
187,225,161379,1,8,0:0:0:0:
190,187,161462,1,8,0:0:0:0:
194,150,161545,1,8,0:0:0:0:
197,112,161629,6,0,B|226:87|266:97|266:97|274:137|241:160,1,144,6|0,3:2|0:0,0:0:0:0:
114,52,162184,1,0,3:2:0:0:
114,52,162295,2,0,P|154:18|202:2,1,96,8|0,3:2|3:0,0:0:0:0:
314,18,162629,6,0,P|280:58|264:106,1,96,0|0,3:2|3:2,0:0:0:0:
288,192,162962,1,0,0:0:0:0:
468,99,163184,1,0,3:2:0:0:
468,99,163295,2,0,P|416:89|366:100,1,96,8|0,0:2|3:2,0:0:0:0:
411,277,163629,6,0,L|419:182,1,96,0|0,3:2|3:2,0:0:0:0:
305,142,163962,2,0,L|312:237,1,96,0|0,0:2|3:2,0:0:0:0:
320,333,164295,1,8,0:0:0:0:
176,205,164517,1,0,3:2:0:0:
176,205,164629,6,0,P|120:196|72:229,1,96,0|0,3:2|3:2,0:0:0:0:
96,356,164962,2,0,P|131:311|127:253,1,96,0|0,3:2|3:2,0:0:0:0:
39,146,165295,2,0,P|26:129|22:95,2,48,8|0|0,0:0|0:0|3:2,0:0:0:0:
116,88,165629,6,0,P|155:73|225:75,1,96,4|0,3:2|0:2,0:0:0:0:
275,141,165962,2,0,P|311:161|380:172,1,96,0|0,3:2|3:2,0:0:0:0:
444,121,166295,1,8,0:0:0:0:
448,192,166406,1,0,0:0:0:0:
449,263,166517,1,0,3:2:0:0:
486,325,166629,6,0,P|452:308|393:311,1,96,0|0,3:2|3:2,0:0:0:0:
317,366,166962,1,0,0:0:0:0:
182,229,167184,1,0,3:2:0:0:
182,229,167295,2,0,P|165:262|168:321,1,96,8|0,0:0|3:2,0:0:0:0:
85,231,167629,6,0,B|124:155|67:156|118:62,1,144,4|0,3:2|0:0,0:0:0:0:
283,18,168184,1,0,3:2:0:0:
283,18,168295,1,8,0:0:0:0:
333,69,168406,1,0,3:2:0:0:
335,140,168517,1,0,3:2:0:0:
287,195,168629,6,0,P|232:179|189:191,1,96,0|0,3:2|3:2,0:0:0:0:
235,263,168962,2,0,P|290:279|333:267,1,96,0|0,0:0|3:2,0:0:0:0:
438,202,169295,1,8,0:2:0:0:
438,202,169379,1,8,0:0:0:0:
438,202,169462,1,8,0:0:0:0:
438,202,169545,1,8,0:0:0:0:
438,202,169629,6,0,L|426:330,1,99.0000030212403,4|0,3:2|0:0,0:0:0:0:
246,377,169962,2,0,L|234:249,1,99.0000030212403,0|0,3:2|0:0,0:0:0:0:
322,102,170295,1,0,3:2:0:0:
147,175,170462,1,0,0:0:0:0:
338,256,170629,1,0,3:2:0:0:
203,85,170795,1,0,0:0:0:0:
175,318,170962,5,0,3:2:0:0:
269,49,171129,1,8,3:2:0:0:
386,351,171295,1,8,3:2:0:0:
322,102,171462,1,8,3:2:0:0:
112,254,171629,1,8,3:2:0:0:
405,257,171795,1,8,3:2:0:0:
203,85,171962,1,8,3:2:0:0:
88,341,172129,1,8,3:2:0:0:
297,192,172295,6,0,B|344:157|400:171|405:193|465:203|505:161,1,216,6|0,3:2|0:0,0:0:0:0:
437,102,172629,2,0,P|413:177|521:253,1,216,10|0,3:2|0:0,0:0:0:0:
448,365,172962,1,2,3:2:0:0:
263,281,173129,2,0,B|224:270|183:285|191:299|154:315|112:301,1,144,2|8,0:0|3:2,0:0:0:0:
117,170,173462,1,2,0:0:0:0:
239,365,173629,5,2,3:2:0:0:
353,237,173795,2,0,B|379:188|331:144|331:144|279:181|279:181,1,144,2|8,0:0|3:2,0:0:0:0:
263,281,174129,1,2,0:0:0:0:
471,184,174295,1,0,3:2:0:0:
336,33,174462,2,0,B|310:42|300:62|300:62|331:62,1,72,2|0,0:0|0:0,0:0:0:0:
223,54,174629,2,0,B|200:69|195:91|195:91|225:83,1,72,10|0,3:2|0:0,0:0:0:0:
119,100,174795,6,0,B|86:135|83:179|83:179|159:148|144:198|228:162,1,216,2|0,0:0|0:0,0:0:0:0:
279,128,175129,1,2,0:0:0:0:
127,262,175295,1,8,3:2:0:0:
293,366,175462,2,0,B|329:352|341:311|341:311|265:269|207:329,1,216,2|0,0:0|0:0,0:0:0:0:
47,303,175795,2,0,B|10:289|-1:248|-1:248|74:206|132:266,1,216,2|0,0:0|0:0,0:0:0:0:
293,366,176129,6,0,B|329:352|341:311|341:311|311:277|325:232,1,144,2|0,0:0|3:2,0:0:0:0:
383,117,176462,1,2,0:0:0:0:
451,307,176629,1,10,3:2:0:0:
321,248,176795,1,2,0:0:0:0:
512,176,176962,2,0,B|493:115|444:76|370:106|371:178|451:192,1,216,2|0,3:2|0:0,0:0:0:0:
495,34,177295,1,8,3:2:0:0:
452,21,177379,1,8,0:0:0:0:
407,24,177462,1,10,0:0:0:0:
366,42,177545,1,8,0:0:0:0:
334,73,177629,5,6,3:2:0:0:
274,205,177795,2,0,L|246:21,1,144,2|8,0:0|3:2,0:0:0:0:
96,154,178129,1,2,0:0:0:0:
156,285,178296,2,0,L|184:101,1,144,2|0,3:2|0:0,0:0:0:0:
356,216,178629,1,10,3:2:0:0:
295,347,178796,6,0,L|267:163,1,144,2|0,0:0|3:2,0:0:0:0:
142,374,179129,1,2,0:0:0:0:
167,207,179295,1,10,3:2:0:0:
284,276,179462,1,2,0:0:0:0:
24,293,179629,1,2,3:2:0:0:
49,126,179796,1,2,0:0:0:0:
155,291,179962,1,8,3:2:0:0:
180,124,180129,1,2,0:0:0:0:
41,210,180295,5,6,3:2:0:0:
265,263,180462,2,0,B|322:278|359:238|359:238|399:259|399:259|405:210|440:196,1,216,2|0,0:0|0:0,0:0:0:0:
463,88,180795,2,0,B|407:37|407:37|338:82|365:210,1,216,2|0,0:0|0:0,0:0:0:0:
476,267,181129,2,0,B|503:308|480:353|480:353|436:344|436:344|410:352|410:352|356:341,1,216,2|0,0:0|0:0,0:0:0:0:
265,263,181462,1,0,0:0:0:0:
89,363,181629,6,0,B|91:339|91:339|87:334|87:334|90:310,3,53.9999983520508,2|0|0|0,3:2|0:0|0:0|0:0,0:0:0:0:
100,204,181962,2,0,B|115:190|115:190|128:188|128:188|107:206,1,53.9999983520508,8|0,3:2|0:0,0:0:0:0:
216,304,182129,6,0,B|213:280|213:280|217:275|217:275|214:251,3,53.9999983520508,2|0|0|0,0:0|0:0|3:2|0:0,0:0:0:0:
212,132,182462,2,0,B|196:118|196:118|182:116|182:116|204:134,1,53.9999983520508
318,240,182629,5,10,3:2:0:0:
306,202,182712,1,8,0:0:0:0:
313,162,182796,1,8,0:0:0:0:
338,131,182879,1,8,0:0:0:0:
375,115,182962,1,4,3:2:0:0:
147,40,183129,6,0,L|206:27,1,53.9999983520508,2|0,0:0|0:0,0:0:0:0:
297,60,183295,2,0,B|294:36|294:36|298:31|298:31|295:7,3,53.9999983520508,8|0|0|0,3:2|0:0|0:0|0:0,0:0:0:0:
451,160,183629,2,0,B|454:136|454:136|450:131|450:131|453:107,3,53.9999983520508,2|0|0|0,3:2|0:0|0:0|0:0,0:0:0:0:
439,268,183962,2,0,B|423:281|423:281|409:283|409:283|431:265,1,53.9999983520508,8|0,3:2|0:0,0:0:0:0:
300,326,184128,2,0,B|316:312|316:312|329:310|329:310|308:328,1,53.9999983520508,2|0,0:0|0:0,0:0:0:0:
183,286,184295,6,0,L|198:188,2,83.9999974365235,2|2|2,3:2|0:0|0:0,0:0:0:0:
54,332,184628,2,0,L|43:268,1,53.9999983520508,10|0,3:2|0:0,0:0:0:0:
8,212,184795,1,2,0:0:0:0:
4,182,184878,1,0,0:0:0:0:
0,151,184962,1,2,3:2:0:0:
35,170,185045,1,0,0:0:0:0:
75,176,185128,1,2,0:0:0:0:
115,169,185212,1,0,0:0:0:0:
154,145,185295,1,10,3:2:0:0:
170,96,185378,1,8,0:0:0:0:
154,46,185462,1,10,0:0:0:0:
108,23,185545,1,8,0:0:0:0:
59,37,185628,6,0,L|79:106,1,53.9999983520508,6|0,3:2|0:0,0:0:0:0:
104,173,185962,1,0,3:2:0:0:
125,244,186295,1,2,3:2:0:0:
146,314,186628,1,2,3:2:0:0:
275,196,186962,5,2,3:2:0:0:
205,217,187295,1,0,3:2:0:0:
226,287,187628,1,2,3:2:0:0:
296,266,187962,1,2,3:2:0:0:
385,49,188295,5,2,3:2:0:0:
314,70,188628,1,2,3:2:0:0:
244,91,188961,1,2,3:2:0:0:
265,161,189295,1,2,3:2:0:0:
447,359,189628,6,0,B|491:356|506:306|491:285|456:289|463:324,1,107.999996704102,2|2,3:2|3:2,0:0:0:0:
214,214,190295,2,0,B|193:253|230:291|255:288|269:256|235:245,1,107.999996704102,2|2,3:2|3:2,0:0:0:0:
456,84,190962,6,0,L|446:145,1,53.9999983520508,2|0,3:2|0:0,0:0:0:0:
350,232,191295,2,0,L|360:293,1,53.9999983520508,0|0,3:2|0:0,0:0:0:0:
476,353,191628,1,2,3:2:0:0:
487,281,191961,1,2,3:2:0:0:
225,350,192295,5,2,3:2:0:0:
153,361,192628,1,2,3:2:0:0:
142,289,192962,1,2,3:2:0:0:
214,278,193295,1,2,3:2:0:0:
220,314,193462,1,2,0:0:0:0:
225,350,193628,5,2,3:2:0:0:
214,278,193962,2,0,L|205:224,1,53.9999983520508,0|2,3:2|0:0,0:0:0:0:
186,102,194295,1,0,3:2:0:0:
175,30,194628,1,2,3:2:0:0:
69,267,194962,6,0,P|47:252|21:252,1,53.9999983520508,2|0,3:2|0:0,0:0:0:0:
155,321,195295,2,0,P|182:320|204:305,1,53.9999983520508,2|0,3:2|0:0,0:0:0:0:
339,267,195628,2,0,P|317:252|291:252,1,53.9999983520508,2|0,3:2|0:0,0:0:0:0:
425,321,195962,2,0,P|467:319|502:295,1,80.9999975280763,2|0,3:2|0:0,0:0:0:0:
431,223,196295,6,0,B|410:175|426:123|426:123|400:146|361:142,1,161.999995056153,6|0,3:2|3:2,0:0:0:0:
275,62,196795,1,8,0:0:0:0:
275,62,196962,2,0,P|313:36|360:40,1,80.9999975280763,2|8,3:2|0:0,0:0:0:0:
244,150,197295,2,0,P|202:129|182:86,1,80.9999975280763,2|8,3:2|0:0,0:0:0:0:
21,117,197628,6,0,B|41:105|56:74|56:74|47:117|45:181,1,161.999995056153,2|0,3:2|3:2,0:0:0:0:
135,281,198128,1,8,0:0:0:0:
135,281,198295,2,0,P|141:228|143:168,1,80.9999975280763,2|8,3:2|0:0,0:0:0:0:
38,276,198628,2,0,P|35:316|35:356,1,80.9999975280763,2|8,3:2|0:0,0:0:0:0:
198,346,198962,6,0,B|241:311|304:340|304:340|286:318|291:285,1,161.999995056153,2|2,3:2|3:2,0:0:0:0:
371,183,199462,1,10,0:0:0:0:
371,183,199628,2,0,P|391:236|388:285,1,80.9999975280763,0|8,3:2|0:0,0:0:0:0:
484,125,199962,2,0,P|464:178|467:227,1,80.9999975280763,2|8,3:2|0:0,0:0:0:0:
370,68,200295,6,0,B|293:46|293:46|246:56|246:56|222:52|222:52|265:43,1,161.999995056153,2|2,3:2|3:2,0:0:0:0:
109,156,200795,1,8,0:0:0:0:
109,156,200962,2,0,B|186:134|186:134|233:144|233:144|257:140|257:140|214:131,1,161.999995056153,2|2,3:2|3:2,0:0:0:0:
247,344,201462,1,8,0:0:0:0:
245,354,201545,1,2,0:0:0:0:
243,364,201628,6,0,B|195:374|174:329|174:329|184:233,1,161.999995056153,6|0,3:2|3:2,0:0:0:0:
82,151,202128,1,8,0:0:0:0:
82,151,202295,2,0,P|167:174|191:100,1,161.999995056153,2|0,3:2|3:2,0:0:0:0:
266,253,202795,1,8,0:0:0:0:
266,253,202962,6,0,L|273:166,2,80.9999975280763,2|8|0,3:2|0:0|3:2,0:0:0:0:
329,347,203462,1,8,0:0:0:0:
329,347,203628,2,0,P|378:328|427:328,1,80.9999975280763,2|8,3:2|0:0,0:0:0:0:
491,250,203962,2,0,P|441:231|392:231,1,80.9999975280763,2|8,3:2|0:0,0:0:0:0:
272,172,204295,6,0,B|307:149|307:102|307:102|258:65|212:107,1,161.999995056153,6|2,3:2|3:2,0:0:0:0:
146,222,204795,1,10,0:0:0:0:
146,222,204962,2,0,P|168:277|167:329,1,80.9999975280763,0|8,3:2|0:0,0:0:0:0:
272,172,205295,2,0,P|250:227|251:279,1,80.9999975280763,2|8,3:2|0:0,0:0:0:0:
177,84,205628,5,10,0:2:0:0:
343,336,205962,5,10,0:2:0:0:
392,39,206295,5,10,0:2:0:0:
75,196,206628,6,0,P|104:198|134:216,1,53.9999983520508,10|8,3:2|0:0,0:0:0:0:
199,273,206795,2,0,P|172:274|147:285,1,53.9999983520508,8|8,3:2|0:0,0:0:0:0:
275,342,206962,6,0,B|314:322|350:255|330:207|274:217|269:264|344:300,1,188.999994232178,6|0,3:2|0:0,0:0:0:0:
285,160,207295,2,0,B|323:154|354:172|354:172|342:145|306:144,1,125.999996154785,8|0,3:2|0:0,0:0:0:0:
450,17,207628,2,0,P|441:49|435:149,1,125.999996154785,2|0,3:2|0:0,0:0:0:0:
356,64,207878,1,2,0:0:0:0:
356,64,207962,2,0,B|329:44|295:56|295:56|315:80|351:78,1,125.999996154785,10|0,3:2|0:0,0:0:0:0:
201,195,208295,6,0,B|165:165|165:165|171:128|171:128|177:122|177:122|185:89|185:89|182:82|182:82|196:56|192:17,1,188.999994232178,2|0,3:2|0:0,0:0:0:0:
99,36,208628,2,0,B|81:62|44:65|44:65|74:78|82:110,1,125.999996154785,8|0,3:2|0:0,0:0:0:0:
3,284,208962,2,0,P|0:211|-1:138,1,125.999996154785,2|0,3:2|0:0,0:0:0:0:
86,247,209212,1,2,0:0:0:0:
86,247,209295,2,0,B|120:248|120:265|160:263|160:263|132:246|119:217,1,125.999996154785,10|0,3:2|0:0,0:0:0:0:
306,288,209628,6,0,B|288:317|253:317|229:299|229:299|201:269|171:279|146:290|136:343|157:374|221:367,1,251.999992309571,2|10,3:2|3:2,0:0:0:0:
377,338,210128,1,2,0:0:0:0:
377,338,210212,1,2,0:0:0:0:
377,338,210295,2,0,B|401:291|401:291|382:201,1,125.999996154785,0|0,3:2|0:0,0:0:0:0:
490,45,210628,2,0,B|477:105|477:105|485:124|485:124|474:169|474:169|432:154|432:154|442:118,1,188.999994232178,10|0,3:2|0:0,0:0:0:0:
308,40,210962,6,0,B|257:17|189:23|156:71|195:119|260:87|228:57,1,188.999994232178,2|0,3:2|0:0,0:0:0:0:
296,239,211295,2,0,B|341:206|370:144|345:91|284:101|279:173|321:161,1,188.999994232178,10|0,3:2|0:0,0:0:0:0:
129,129,211628,2,0,B|134:184|173:240|231:245|253:187|193:147|183:189,1,188.999994232178,2|0,3:2|0:0,0:0:0:0:
137,344,211962,2,0,B|131:288|92:232|34:227|12:285|72:325|82:283,1,188.999994232178,10|0,3:2|0:0,0:0:0:0:
231,286,212295,6,0,B|274:259|319:281|318:298|368:325|428:293,1,188.999994232178,6|0,3:2|0:0,0:0:0:0:
396,206,212628,2,0,P|363:176|386:213,1,125.999996154785,8|0,3:2|0:0,0:0:0:0:
285,135,212878,1,2,0:0:0:0:
285,135,212962,2,0,B|292:119|311:103|311:103|267:114|217:101,1,125.999996154785,2|0,3:2|0:0,0:0:0:0:
60,13,213295,2,0,B|53:29|34:45|34:45|78:34|128:47,1,125.999996154785,8|0,3:2|0:0,0:0:0:0:
82,237,213628,6,0,B|71:191|71:191|38:170|48:129|48:129|97:103|126:160,1,188.999994232178,2|0,3:2|0:0,0:0:0:0:
183,242,213962,2,0,B|169:269|186:305|186:305|223:284|223:250,1,125.999996154785,8|0,3:2|0:0,0:0:0:0:
293,355,214212,1,2,0:0:0:0:
293,355,214295,2,0,B|361:335|335:368|421:351,1,125.999996154785,2|0,3:2|0:0,0:0:0:0:
503,184,214628,2,0,B|428:182|454:216|385:212|385:212|373:185|373:185|391:167|408:139,1,188.999994232178,10|0,3:2|0:0,0:0:0:0:
317,74,214962,6,0,B|297:69|268:82|268:82|301:34|374:29|421:60|421:60|393:64|380:79,1,251.999992309571,2|10,3:2|3:2,0:0:0:0:
238,181,215462,1,2,0:0:0:0:
238,181,215545,1,2,0:0:0:0:
238,181,215628,2,0,B|215:201|215:201|226:305,1,125.999996154785,0|0,3:2|0:0,0:0:0:0:
46,366,215962,2,0,L|59:240,1,125.999996154785,10|0,3:2|0:0,0:0:0:0:
281,104,216295,6,0,P|317:161|303:233,1,125.999996154785,2|0,3:2|0:0,0:0:0:0:
151,115,216628,2,0,P|146:45|195:-9,1,125.999996154785,10|0,3:2|0:0,0:0:0:0:
229,176,216962,2,0,P|170:212|98:198,1,125.999996154785,2|0,3:2|0:0,0:0:0:0:
116,44,217295,1,10,3:2:0:0:
396,160,217462,1,8,0:0:0:0:
417,191,217545,1,10,0:0:0:0:
421,228,217628,6,0,B|426:265|393:286|393:286|326:277|326:277|355:246|345:211,1,188.999994232178,6|0,3:2|0:0,0:0:0:0:
367,358,217962,2,0,B|429:367|429:367|443:388|443:388|377:378,1,125.999996154785,8|0,3:2|0:0,0:0:0:0:
221,338,218295,2,0,P|204:290|225:190,1,125.999996154785,2|0,3:2|0:0,0:0:0:0:
156,120,218545,1,2,0:0:0:0:
156,120,218628,2,0,B|119:134|78:117|78:117|94:130|104:157,1,125.999996154785,10|0,3:2|0:0,0:0:0:0:
109,326,218962,6,0,B|151:321|152:377|94:384|87:334|79:280|18:279|18:342|52:338,1,188.999994232178,2|0,3:2|0:0,0:0:0:0:
83,234,219295,2,0,B|36:224|59:211|0:195|0:195|11:211|12:231,1,125.999996154785,8|0,3:2|0:0,0:0:0:0:
211,216,219628,2,0,P|242:154|242:77,1,125.999996154785,2|0,3:2|0:0,0:0:0:0:
339,31,219878,1,2,0:0:0:0:
339,31,219962,2,0,B|315:77|334:115|334:115|339:90|347:72,1,125.999996154785,10|0,3:2|0:0,0:0:0:0:
473,218,220295,6,0,B|509:210|509:210|462:183|396:184|389:250|389:250|373:285|333:289,1,251.999992309571,2|10,3:2|3:2,0:0:0:0:
168,209,220795,1,2,0:0:0:0:
168,209,220878,1,2,0:0:0:0:
168,209,220962,2,0,P|249:195|322:195,1,125.999996154785,0|0,3:2|0:0,0:0:0:0:
410,356,221295,2,0,P|320:378|251:303,1,188.999994232178,10|0,3:2|0:0,0:0:0:0:
355,163,221628,6,0,B|345:137|377:129|411:138|426:198|375:227|311:204|274:162,1,188.999994232178,2|0,3:2|0:0,0:0:0:0:
206,45,221962,2,0,B|188:66|166:42|156:8|200:-34|251:-5|263:62|245:114,1,188.999994232178,10|0,3:2|0:0,0:0:0:0:
178,232,222295,2,0,B|204:236|195:267|171:293|111:276|111:217|164:173|218:162,1,188.999994232178,2|0,3:2|0:0,0:0:0:0:
64,307,222628,1,10,3:2:0:0:
58,260,222712,1,8,0:0:0:0:
53,213,222795,1,8,0:0:0:0:
48,166,222878,1,8,0:0:0:0:
42,119,222962,6,0,B|37:75|37:75|102:21|178:64,1,188.999994232178,6|0,3:2|0:0,0:0:0:0:
297,44,223295,2,0,B|264:49|253:87|253:87|278:119|315:116,1,125.999996154785,8|0,3:2|0:0,0:0:0:0:
384,34,223545,1,2,0:0:0:0:
384,34,223628,2,0,B|457:20|437:53|512:40,1,125.999996154785,2|0,3:2|0:0,0:0:0:0:
397,180,223962,2,0,P|376:249|391:362,1,125.999996154785,8|0,3:2|0:0,0:0:0:0:
204,383,224295,6,0,B|191:315|257:320|199:247|199:247|151:297,1,188.999994232178,2|0,3:2|0:0,0:0:0:0:
122,175,224628,2,0,B|158:155|204:170|204:170|173:169|148:190,1,125.999996154785,8|0,3:2|0:0,0:0:0:0:
44,211,224878,1,2,0:0:0:0:
44,211,224962,2,0,B|32:178|40:151|40:151|34:146|34:146|48:119|32:73,1,125.999996154785,2|0,3:2|0:0,0:0:0:0:
208,10,225295,2,0,B|187:51|135:66|135:66|189:53|244:74,1,188.999994232178,10|0,3:2|0:0,0:0:0:0:
294,160,225628,6,0,B|340:142|327:87|327:87|268:67|207:109|217:185,1,251.999992309571,6|10,3:2|3:2,0:0:0:0:
377,286,226128,1,2,0:0:0:0:
377,286,226212,1,2,0:0:0:0:
377,286,226295,2,0,B|404:252|404:252|397:157,1,125.999996154785,0|0,3:2|0:0,0:0:0:0:
228,254,226628,2,0,P|225:176|292:230,1,188.999994232178,10|0,3:2|0:0,0:0:0:0:
301,339,226962,5,14,3:2:0:0:
90,122,227295,5,14,3:2:0:0:
389,81,227628,5,14,3:2:0:0:
99,291,227962,5,10,3:2:0:0:
137,287,228045,1,8,0:0:0:0:
175,284,228128,1,8,0:0:0:0:
212,280,228211,1,8,0:0:0:0:
249,277,228295,6,0,B|288:265|323:294|323:294|314:241|354:214,1,161.999995056153,6|0,3:2|0:0,0:0:0:0:
427,208,228628,2,0,B|396:211|375:244|375:244|400:226|424:224,1,107.999996704102,8|0,3:2|0:0,0:0:0:0:
501,298,228878,1,2,0:0:0:0:
501,298,228962,2,0,B|515:274|506:249|503:247|491:219|512:180,1,107.999996704102,2|0,3:2|0:0,0:0:0:0:
406,64,229295,2,0,B|420:88|411:113|408:115|396:143|417:182,1,107.999996704102,8|0,3:2|0:0,0:0:0:0:
267,74,229628,6,0,B|235:66|235:66|184:139|184:139|144:130,1,161.999995056153,2|0,3:2|0:0,0:0:0:0:
223,152,229962,2,0,B|299:170|299:170|260:196,1,107.999996704102,10|0,3:2|0:0,0:0:0:0:
79,191,230295,2,0,P|61:140|67:87,1,107.999996704102,2|0,3:2|0:0,0:0:0:0:
160,16,230628,1,10,3:2:0:0:
25,145,230795,1,0,0:0:0:0:
25,145,230878,1,2,0:0:0:0:
25,145,230962,6,0,B|-3:191|22:249|22:249|81:213,1,161.999995056153,2|0,3:2|0:0,0:0:0:0:
140,226,231295,2,0,B|87:259|87:259|74:257|74:257|121:226,1,107.999996704102,8|0,3:2|0:0,0:0:0:0:
191,347,231545,1,2,0:0:0:0:
191,347,231628,2,0,B|248:352|278:316|278:316|309:280|372:303,1,161.999995056153,2|0,3:2|0:0,0:0:0:0:
333,377,231962,1,8,3:2:0:0:
250,178,232128,6,0,B|232:177|207:190|207:190|213:170|260:132|260:132|312:144|325:194,1,215.999993408203,2|0,0:0|0:0,0:0:0:0:
400,333,232628,2,0,B|373:281|373:281|402:219,1,107.999996704102,8|0,3:2|0:0,0:0:0:0:
468,91,232962,2,0,B|441:143|441:143|470:205,1,107.999996704102,0|0,3:2|0:0,0:0:0:0:
512,284,233295,1,10,3:2:0:0:
359,162,233462,1,2,0:0:0:0:
213,256,233628,6,0,B|168:291|168:291|84:284|100:202,1,161.999995056153,2|0,3:2|0:0,0:0:0:0:
139,159,233962,2,0,P|118:191|127:153,1,107.999996704102,8|0,3:2|0:0,0:0:0:0:
148,61,234212,1,2,0:0:0:0:
148,61,234295,2,0,B|200:52|200:94|270:79,1,107.999996704102,2|0,3:2|0:0,0:0:0:0:
370,27,234628,1,8,3:2:0:0:
271,195,234795,6,0,B|222:246|241:324|241:324|213:283|168:279,1,215.999993408203,2|0,0:0|0:0,0:0:0:0:
108,317,235212,1,2,0:0:0:0:
108,317,235295,2,0,B|143:300|170:317|170:317|143:311|118:324,1,107.999996704102,10|0,3:2|0:0,0:0:0:0:
0,217,235628,2,0,B|35:192|80:199|81:209|132:217|164:185,1,161.999995056153,2|0,3:2|0:0,0:0:0:0:
104,127,235962,1,10,3:2:0:0:
266,268,236128,1,0,0:0:0:0:
280,272,236212,1,2,0:0:0:0:
295,277,236295,6,0,B|327:284|327:284|373:273|385:232|385:232|332:221,1,161.999995056153,2|0,3:2|0:0,0:0:0:0:
277,168,236628,2,0,B|342:183|342:183|320:164|315:126,1,107.999996704102,10|0,3:2|0:0,0:0:0:0:
401,127,236878,1,2,0:0:0:0:
401,127,236962,1,2,3:2:0:0:
290,9,237128,2,0,P|240:5|222:56,1,107.999996704102,2|8,0:0|3:2,0:0:0:0:
130,174,237462,6,0,B|138:109|138:109|145:55|99:50|89:91|125:97|128:69,1,161.999995056153,2|0,3:2|0:0,0:0:0:0:
47,178,237795,2,0,B|45:195|57:210|57:210|50:192|55:181,1,53.9999983520508,2|0,3:2|0:0,0:0:0:0:
127,254,237962,2,0,B|129:270|119:286|119:286|125:268|119:258,1,53.9999983520508,10|0,3:2|0:0,0:0:0:0:
58,367,238128,2,0,B|97:354|155:386|155:386|187:396|214:378,1,161.999995056153,2|0,3:2|0:0,0:0:0:0:
268,304,238462,1,0,3:2:0:0:
469,384,238628,1,8,3:2:0:0:
492,355,238711,1,8,0:0:0:0:
498,320,238794,1,8,0:0:0:0:
487,285,238877,1,8,0:0:0:0:
462,261,238962,6,0,B|417:216|417:216|416:209|416:209|442:183|442:183|474:184|498:157,1,161.999995056153,6|0,3:2|0:0,0:0:0:0:
438,102,239295,2,0,B|418:120|377:104|377:104|404:100|421:77,1,107.999996704102,8|0,3:2|0:0,0:0:0:0:
351,9,239545,1,2,0:0:0:0:
351,9,239628,2,0,B|320:0|297:18|303:31|270:50|227:32,1,107.999996704102,2|0,3:2|0:0,0:0:0:0:
97,92,239962,2,0,B|128:83|151:101|145:114|178:133|221:115,1,107.999996704102,8|0,3:2|0:0,0:0:0:0:
348,184,240295,6,0,P|279:235|280:311,1,161.999995056153,2|0,3:2|0:0,0:0:0:0:
346,348,240628,2,0,P|320:313|332:353,1,107.999996704102,10|0,3:2|0:0,0:0:0:0:
184,256,240962,2,0,B|121:244|138:284|59:267,1,107.999996704102,2|0,3:2|0:0,0:0:0:0:
0,196,241295,1,10,3:2:0:0:
159,342,241462,1,0,0:0:0:0:
190,348,241545,1,2,0:0:0:0:
221,343,241628,6,0,B|267:335|283:293|283:293|320:257|369:268,1,161.999995056153,2|0,3:2|0:0,0:0:0:0:
419,315,241962,2,0,B|450:335|487:318|487:318|457:324|438:307,1,107.999996704102,8|0,3:2|0:0,0:0:0:0:
498,190,242212,1,2,0:0:0:0:
498,190,242295,2,0,B|481:130|422:121|397:156|401:195|439:205,1,161.999995056153,2|0,3:2|0:0,0:0:0:0:
511,285,242628,1,8,3:2:0:0:
489,69,242795,6,0,B|437:48|391:63|359:94|359:94|332:41|368:1,1,215.999993408203,2|0,0:0|0:0,0:0:0:0:
229,160,243295,2,0,P|265:211|276:282,1,107.999996704102,8|0,3:2|0:0,0:0:0:0:
62,290,243628,2,0,P|58:226|87:160,1,107.999996704102,0|0,3:2|0:0,0:0:0:0:
188,369,243962,1,10,3:2:0:0:
181,338,244045,1,8,0:0:0:0:
174,307,244128,1,10,0:0:0:0:
167,276,244211,1,8,0:0:0:0:
160,243,244295,6,0,B|149:190|149:190|181:130|181:130|169:67,1,180,6|0,3:2|3:2,0:0:0:0:
91,116,244795,1,0,0:0:0:0:
247,205,244962,2,0,B|282:195|296:171|296:171|340:210|394:198|394:198|381:168,1,180,10|0,3:2|3:2,0:0:0:0:
485,33,245462,6,0,P|478:122|476:212,1,180,10|8,0:0|0:0,0:0:0:0:
503,299,245962,1,2,3:2:0:0:
388,186,246128,1,0,0:0:0:0:
298,239,246295,2,0,L|319:72,1,135,10|0,3:2|0:0,0:0:0:0:
286,0,246628,1,10,3:2:0:0:
306,17,246711,1,8,0:0:0:0:
329,28,246794,1,8,0:0:0:0:
356,26,246877,1,8,0:0:0:0:
381,16,246961,5,6,3:2:0:0:
132,46,247295,1,6,3:2:0:0:
288,320,247628,5,6,3:2:0:0:
314,105,247795,1,10,0:0:0:0:
512,384,248128,5,6,3:2:0:0:
0,0,249128,1,0,3:2:0:0:
108,63,249295,1,8,3:2:0:0:
104,96,249378,1,8,0:0:0:0:
99,129,249461,1,8,0:0:0:0:
94,163,249544,1,8,0:0:0:0:
90,196,249628,5,12,3:2:0:0:
366,171,249795,1,8,3:2:0:0:
218,242,249962,1,0,3:2:0:0:
393,62,250128,1,12,3:2:0:0:
386,142,250462,1,8,0:0:0:0:
379,115,250545,1,8,0:0:0:0:
372,88,250628,5,12,3:2:0:0:
432,330,250795,1,8,3:2:0:0:
