osu file format v14

[General]
AudioFilename: audio.mp3
AudioLeadIn: 0
PreviewTime: 206921
Countdown: 0
SampleSet: Soft
StackLeniency: 0.7
Mode: 0
LetterboxInBreaks: 0
WidescreenStoryboard: 1

[Editor]
DistanceSpacing: 1
BeatDivisor: 2
GridSize: 4
TimelineZoom: 1.7

[Metadata]
Title:Prism lovely day
TitleUnicode:プリズム lovely day
Artist:solfa feat. Chata
ArtistUnicode:solfa feat. 茶太
Creator:Respirte
Version:Normal
Source:彼女と俺の恋愛日常
Tags:featured artist fa visual novel vn eroge lovelyday of girlfriends & me C99 japanese jpop jrock female vocalist op opening just parasol
BeatmapID:3386466
BeatmapSetID:1658950

[Difficulty]
HPDrainRate:3.2
CircleSize:3.2
OverallDifficulty:4.2
ApproachRate:5.2
SliderMultiplier:0.999999999999999
SliderTickRate:1

[Events]
//Background and Video events
0,0,"red.jpg",0,0
//Break Periods
2,185828,195125
//Storyboard Layer 0 (Background)
//Storyboard Layer 1 (Fail)
//Storyboard Layer 2 (Pass)
//Storyboard Layer 3 (Foreground)
//Storyboard Layer 4 (Overlay)
//Storyboard Sound Samples

[TimingPoints]
298,333.333333333333,4,2,1,70,1,0
298,-100,4,2,1,70,0,0
964,-100,4,2,1,40,0,0
1631,-100,4,2,1,70,0,0
2297,-100,4,2,1,40,0,0
2964,-100,4,2,1,70,0,0
3631,-100,4,2,1,40,0,0
4297,-100,4,2,1,70,0,0
4631,-100,4,2,1,50,0,0
4964,-100,4,2,1,70,0,0
5631,-100,4,2,1,60,0,0
6964,-100,4,2,1,65,0,0
8297,-100,4,2,1,75,0,0
10964,-100,4,2,5,90,0,0
26964,-100,4,2,5,80,0,0
32297,-100,4,2,1,60,0,0
35631,-100,4,2,11,60,0,0
35964,-100,4,2,5,60,0,0
36297,-100,4,2,12,60,0,0
36631,-100,4,2,1,60,0,0
36964,-100,4,2,13,60,0,0
37131,-100,4,2,1,60,0,0
37631,-100,4,2,14,60,0,0
37797,-100,4,2,1,60,0,0
41964,-100,4,2,15,60,0,0
42297,-100,4,2,1,60,0,0
42464,-100,4,2,5,60,0,0
42631,-100,4,2,15,60,0,0
42797,-100,4,2,5,60,0,0
42964,-100,4,2,14,60,0,0
43131,-100,4,2,3,60,0,0
46297,-100,4,2,11,60,0,0
46464,-100,4,2,3,60,0,0
46964,-100,4,2,12,60,0,0
47131,-100,4,2,3,60,0,0
47631,-100,4,2,13,60,0,0
47797,-100,4,2,3,60,0,0
48297,-100,4,2,14,60,0,0
48464,-100,4,2,3,60,0,0
51631,-100,4,2,16,60,0,0
51797,-100,4,2,3,60,0,0
52297,-100,4,2,11,60,0,0
52464,-100,4,2,3,60,0,0
52964,-100,4,2,17,60,0,0
53131,-100,4,2,3,60,0,0
53297,-100,4,2,1,60,0,0
53631,333.333333333333,3,2,1,65,1,0
53631,-100,3,2,1,65,0,0
59630,333.333333333333,4,2,1,75,1,0
59630,-100,4,2,1,75,0,0
63629,-100,4,2,1,80,0,0
64963,-100,4,2,1,90,0,1
65880,-100,4,2,5,90,0,1
65963,-100,4,2,1,90,0,1
67213,-100,4,2,5,90,0,1
67296,-100,4,2,1,90,0,1
68213,-100,4,2,5,90,0,1
68296,-100,4,2,1,90,0,1
70879,-100,4,2,5,90,0,1
70963,-100,4,2,1,90,0,1
72213,-100,4,2,5,90,0,1
72296,-100,4,2,1,90,0,1
73546,-100,4,2,5,90,0,1
73629,-100,4,2,1,90,0,1
75546,-100,4,2,5,90,0,1
75629,-100,4,2,1,90,0,1
76546,-100,4,2,5,90,0,1
76629,-100,4,2,1,90,0,1
77879,-100,4,2,5,90,0,1
77963,-100,4,2,1,90,0,1
78879,-100,4,2,5,90,0,1
78963,-100,4,2,1,90,0,1
81546,-100,4,2,5,90,0,1
81629,-100,4,2,1,90,0,1
82879,-100,4,2,5,90,0,1
82963,-100,4,2,1,90,0,1
84213,-100,4,2,5,90,0,1
84296,-100,4,2,1,90,0,1
84963,-100,4,2,1,70,0,1
86296,-100,4,2,5,90,0,0
102296,-100,4,2,5,80,0,0
107629,-100,4,2,1,70,0,0
111963,-100,4,2,11,70,0,0
112129,-100,4,2,1,70,0,0
112296,-100,4,2,17,70,0,0
112463,-100,4,2,1,70,0,0
112629,-100,4,2,13,70,0,0
112796,-100,4,2,1,70,0,0
112963,-100,4,2,14,70,0,0
113129,-100,4,2,1,70,0,0
117796,-100,4,2,5,70,0,0
117963,-100,4,2,1,70,0,0
121629,-100,4,2,11,70,0,0
121796,-100,4,2,1,70,0,0
122296,-100,4,2,12,70,0,0
122463,-100,4,2,1,70,0,0
122879,-100,4,2,5,70,0,0
122963,-100,4,2,13,70,0,0
123129,-100,4,2,1,70,0,0
123629,-100,4,2,14,70,0,0
123796,-100,4,2,1,70,0,0
124296,-100,4,2,5,70,0,0
124463,-100,4,2,1,70,0,0
124546,-100,4,2,5,70,0,0
124796,-100,4,2,1,70,0,0
126963,-100,4,2,16,70,0,0
127046,-100,4,2,5,70,0,0
127129,-100,4,2,1,70,0,0
127213,-100,4,2,5,70,0,0
127463,-100,4,2,1,70,0,0
127629,-100,4,2,11,70,0,0
127796,-100,4,2,1,70,0,0
128296,-100,4,2,17,70,0,0
128463,-100,4,2,1,70,0,0
128963,333.333333333333,3,2,1,65,1,0
128963,-100,3,2,1,65,0,0
134963,333.333333333333,4,2,1,75,1,0
134963,-100,4,2,1,75,0,0
138963,-100,4,2,1,80,0,0
140296,-100,4,2,1,90,0,1
141213,-100,4,2,5,90,0,1
141296,-100,4,2,1,90,0,1
142546,-100,4,2,5,90,0,1
142629,-100,4,2,1,90,0,1
143546,-100,4,2,5,90,0,1
143629,-100,4,2,1,90,0,1
146213,-100,4,2,5,90,0,1
146296,-100,4,2,1,90,0,1
147546,-100,4,2,5,90,0,1
147629,-100,4,2,1,90,0,1
148879,-100,4,2,5,90,0,1
148963,-100,4,2,1,90,0,1
150879,-100,4,2,5,90,0,1
150962,-100,4,2,1,90,0,1
151879,-100,4,2,5,90,0,1
151962,-100,4,2,1,90,0,1
153212,-100,4,2,5,90,0,1
153296,-100,4,2,1,90,0,1
154212,-100,4,2,5,90,0,1
154296,-100,4,2,1,90,0,1
156879,-100,4,2,5,90,0,1
156962,-100,4,2,1,90,0,1
158212,-100,4,2,5,90,0,1
158296,-100,4,2,1,90,0,1
159546,-100,4,2,5,90,0,1
159629,-100,4,2,1,90,0,1
160296,-100,4,2,1,70,0,1
161629,333.333333333333,3,2,1,60,1,0
161629,-100,4,2,1,60,0,0
169295,-100,4,2,1,65,0,0
169629,333.333333333333,4,2,1,70,1,0
169629,-100,4,2,1,70,0,0
170962,-100,4,2,1,80,0,0
171629,-100,4,2,1,90,0,0
172295,-100,4,2,5,95,0,0
181629,-100,4,2,5,90,0,0
184295,-100,4,2,5,95,0,0
184628,-100,4,2,5,95,0,0
185628,-100,4,2,1,45,0,0
196295,-100,4,2,3,55,0,0
205628,-100,4,2,1,70,0,0
206962,-100,4,2,1,90,0,1
207878,-100,4,2,5,90,0,1
207962,-100,4,2,1,90,0,1
209212,-100,4,2,5,90,0,1
209295,-100,4,2,1,90,0,1
210212,-100,4,2,5,90,0,1
210295,-100,4,2,1,90,0,1
212878,-100,4,2,5,90,0,1
212962,-100,4,2,1,90,0,1
214212,-100,4,2,5,90,0,1
214295,-100,4,2,1,90,0,1
215545,-100,4,2,5,90,0,1
215628,-100,4,2,1,90,0,1
217545,-100,4,2,5,90,0,1
217628,-100,4,2,1,90,0,1
218545,-100,4,2,5,90,0,1
218628,-100,4,2,1,90,0,1
219878,-100,4,2,5,90,0,1
219962,-100,4,2,1,90,0,1
220878,-100,4,2,5,90,0,1
220962,-100,4,2,1,90,0,1
223545,-100,4,2,5,90,0,1
223628,-100,4,2,1,90,0,1
224878,-100,4,2,5,90,0,1
224962,-100,4,2,1,90,0,1
226212,-100,4,2,5,90,0,1
226295,-100,4,2,1,90,0,1
226962,-100,4,2,1,70,0,1
228295,-100,4,2,5,90,0,0
244295,-100,4,2,5,80,0,0
249628,-100,4,2,1,85,0,0

[Colours]
Combo1 : 164,227,227
Combo2 : 196,139,102
Combo3 : 79,73,139
Combo4 : 241,67,189

[HitObjects]
468,169,298,6,0,B|370:103|276:175|276:175|326:195|352:252,1,300,6|2,3:2|0:0,0:0:0:0:
406,314,1631,2,0,B|325:364|256:307|279:296|194:249|124:301,1,300,6|2,3:2|0:0,0:0:0:0:
65,379,2964,2,0,B|-19:307|53:202|53:202|118:211|178:162,1,300,6|2,3:2|0:0,0:0:0:0:
214,105,4297,2,0,P|274:108|328:154,1,99.9999999999999,6|2,3:2|0:0,0:0:0:0:
334,226,4964,1,2,3:2:0:0:
257,291,5297,1,10,0:0:0:0:
181,227,5631,6,0,P|132:214|85:222,1,99.9999999999999,6|0,3:2|3:2,0:0:0:0:
45,254,6131,1,0,0:0:0:0:
45,254,6297,2,0,L|65:354,1,99.9999999999999,2|2,3:2|3:2,0:0:0:0:
162,329,6964,2,0,P|223:317|284:321,1,99.9999999999999,2|10,3:2|3:2,0:0:0:0:
313,334,7464,1,2,0:0:0:0:
313,334,7631,1,8,3:2:0:0:
406,368,7964,2,0,L|426:303,1,50,10|10,3:2|0:0,0:0:0:0:
465,298,8297,6,0,P|432:256|437:165,1,99.9999999999999,14|8,3:2|3:2,0:0:0:0:
452,170,8797,1,2,0:0:0:0:
452,170,8964,2,0,P|480:117|481:65,1,99.9999999999999,8|10,3:2|0:0,0:0:0:0:
421,0,9631,1,6,3:2:0:0:
318,227,10464,1,0,3:2:0:0:
318,227,10631,2,0,L|239:240,1,50,10|8,0:0|0:0,0:0:0:0:
232,270,10964,6,0,P|202:218|107:256,1,150,6|0,3:2|0:0,0:0:0:0:
97,272,11631,2,0,B|47:282|47:282|1:247,1,99.9999999999999,2|8,3:2|3:2,0:0:0:0:
41,158,12297,2,0,L|60:53,2,99.9999999999999,2|10|2,3:2|3:2|3:2,0:0:0:0:
85,247,13297,1,10,3:2:0:0:
54,341,13631,6,0,P|108:297|177:334,1,150,2|0,3:2|0:0,0:0:0:0:
185,377,14297,1,2,3:2:0:0:
280,340,14631,1,8,3:2:0:0:
280,340,14797,2,0,B|375:320|326:376|457:348,1,150,2|8,0:0|3:2,0:0:0:0:
499,285,15631,1,0,3:2:0:0:
428,213,15964,2,0,L|423:155,1,50,10|2,3:2|0:0,0:0:0:0:
437,114,16297,6,0,P|365:131|332:72,1,150,2|0,3:2|0:0,0:0:0:0:
351,28,16964,2,0,B|302:22|302:22|285:30|285:30|229:24,1,99.9999999999999,2|8,3:2|3:2,0:0:0:0:
203,21,17464,1,2,0:0:0:0:
124,81,17797,1,0,0:0:0:0:
124,81,17964,2,0,P|79:62|1:59,2,99.9999999999999,10|2|10,3:2|3:2|3:2,0:0:0:0:
185,159,18964,6,0,L|186:271,1,99.9999999999999,2|10,3:2|3:2,0:0:0:0:
194,363,19631,1,2,3:2:0:0:
194,363,19797,1,2,0:0:0:0:
288,328,20131,2,0,P|350:307|406:319,1,99.9999999999999,2|2,3:2|3:2,0:0:0:0:
434,331,20631,1,10,3:2:0:0:
434,331,20797,2,0,B|481:291|465:239|465:239|412:226,1,150,2|8,3:2|0:0,0:0:0:0:
344,163,21631,6,0,P|289:214|216:180,1,150,6|0,3:2|0:0,0:0:0:0:
189,156,22297,2,0,P|141:153|89:188,1,99.9999999999999,2|8,3:2|3:2,0:0:0:0:
62,272,22964,2,0,L|77:384,2,99.9999999999999,2|10|2,3:2|3:2|3:2,0:0:0:0:
0,195,23964,1,10,3:2:0:0:
14,95,24297,6,0,P|92:120|98:47,1,150,2|0,3:2|0:0,0:0:0:0:
95,26,24964,1,2,3:2:0:0:
194,58,25297,1,8,3:2:0:0:
194,58,25464,2,0,B|253:51|253:51|271:38|271:38|350:30,1,150,2|8,0:0|3:2,0:0:0:0:
438,19,26297,1,0,3:2:0:0:
403,112,26631,2,0,L|396:176,1,50,10|10,0:0|0:0,0:0:0:0:
428,201,26964,6,0,P|355:226|335:279,1,99.9999999999999,6|0,3:2|3:2,0:0:0:0:
293,328,27631,2,0,P|234:277|178:286,1,99.9999999999999,10|0,0:0|3:2,0:0:0:0:
167,289,28131,1,10,0:0:0:0:
88,348,28464,1,8,0:0:0:0:
88,348,28631,1,2,3:2:0:0:
7,289,28964,1,10,0:0:0:0:
49,198,29297,2,0,L|60:133,1,50,10|8,0:0|0:0,0:0:0:0:
47,99,29631,6,0,L|150:129,1,99.9999999999999,6|6,3:2|3:2,0:0:0:0:
224,185,30297,2,0,L|297:166,1,50,6|10,3:2|0:0,0:0:0:0:
370,190,30797,1,6,3:2:0:0:
455,13,31797,1,0,3:2:0:0:
455,13,31964,2,0,L|406:25,1,50,8|8,0:0|0:0,0:0:0:0:
358,39,32297,5,4,3:2:0:0:
272,87,32631,1,2,3:2:0:0:
272,87,32797,2,0,P|221:70|150:82,2,99.9999999999999,2|2|2,0:0|0:0|0:0,0:0:0:0:
305,233,33964,1,2,3:2:0:0:
213,192,34297,2,0,B|162:179|107:180,1,99.9999999999999,2|2,3:2|3:2,0:0:0:0:
52,260,34964,6,0,P|108:279|145:327,1,99.9999999999999,2|2,3:2|3:2,0:0:0:0:
141,357,35464,2,0,P|192:312|277:323,1,150,2|0,0:0|3:2,0:0:0:0:
357,367,36297,2,0,L|378:256,1,99.9999999999999,2|0,3:2|3:2,0:0:0:0:
461,216,36964,2,0,L|439:105,1,99.9999999999999,2|2,3:2|3:2,0:0:0:0:
495,33,37631,5,2,3:2:0:0:
404,4,37964,1,2,3:2:0:0:
404,4,38131,2,0,P|333:13|284:54,1,99.9999999999999,2|2,0:0|0:0,0:0:0:0:
275,121,38797,2,0,P|208:142|118:119,1,150,2|2,0:0|3:2,0:0:0:0:
75,43,39631,1,2,3:2:0:0:
3,112,39964,1,2,3:2:0:0:
44,202,40297,6,0,L|73:337,1,99.9999999999999,2|2,3:2|3:2,0:0:0:0:
77,348,40797,1,2,0:0:0:0:
168,306,41131,1,2,0:0:0:0:
259,345,41464,2,0,P|341:357|401:317,1,150,2|2,0:0|3:2,0:0:0:0:
477,265,42297,2,0,P|441:216|437:161,1,99.9999999999999,2|2,3:2|3:2,0:0:0:0:
477,87,42964,6,0,L|364:76,1,99.9999999999999,6|2,3:2|3:2,0:0:0:0:
334,102,43464,2,0,L|278:96,1,50,10|0,0:0|3:2,0:0:0:0:
241,70,43797,1,10,0:0:0:0:
164,136,44131,2,0,B|100:129|126:114|60:107,1,99.9999999999999,10|8,0:0|0:0,0:0:0:0:
18,110,44631,1,2,3:2:0:0:
56,202,44964,2,0,L|69:317,1,99.9999999999999,2|2,3:2|3:2,0:0:0:0:
153,352,45631,6,0,B|190:369|190:369|264:351,1,99.9999999999999,2|2,3:2|3:2,0:0:0:0:
289,326,46131,1,10,0:0:0:0:
289,326,46297,2,0,P|270:275|259:210,1,99.9999999999999,2|0,3:2|3:2,0:0:0:0:
255,130,46964,2,0,P|298:146|373:150,1,99.9999999999999,2|0,3:2|3:2,0:0:0:0:
397,127,47464,1,8,0:0:0:0:
397,127,47631,2,0,P|415:177|426:242,1,99.9999999999999,2|2,3:2|3:2,0:0:0:0:
473,310,48297,6,0,P|435:325|339:315,1,99.9999999999999,2|2,3:2|3:2,0:0:0:0:
331,306,48797,1,10,0:0:0:0:
245,358,49131,1,10,0:0:0:0:
184,278,49464,2,0,P|138:245|75:249,1,99.9999999999999,10|8,0:0|0:0,0:0:0:0:
50,262,49964,1,2,3:2:0:0:
11,169,50297,2,0,L|29:61,1,99.9999999999999,2|2,3:2|3:2,0:0:0:0:
114,20,50964,6,0,L|125:126,1,99.9999999999999,2|2,3:2|3:2,0:0:0:0:
132,168,51464,1,10,0:0:0:0:
145,266,51797,1,10,0:0:0:0:
234,221,52131,2,0,B|315:222|285:257|381:255,1,150,10|0,0:0|3:2,0:0:0:0:
430,170,52964,1,2,3:2:0:0:
342,120,53297,2,0,L|280:106,1,50,8|8,3:2|0:0,0:0:0:0:
259,71,53631,6,0,P|217:41|157:55,1,99.9999999999999,6|2,3:2|0:0,0:0:0:0:
103,118,54297,1,10,0:0:0:0:
143,209,54631,2,0,P|144:260|113:317,2,99.9999999999999,2|2|10,3:2|0:0|0:0,0:0:0:0:
215,139,55631,2,0,P|272:135|305:169,1,99.9999999999999,2|2,3:2|0:0,0:0:0:0:
308,261,56297,1,10,0:0:0:0:
391,317,56631,1,2,3:2:0:0:
481,272,56964,2,0,P|504:232|499:175,1,99.9999999999999,2|10,0:0|0:0,0:0:0:0:
436,102,57630,6,0,P|384:124|335:108,1,99.9999999999999,6|2,3:2|0:0,0:0:0:0:
289,29,58297,1,10,0:0:0:0:
215,96,58630,2,0,P|162:70|105:75,1,99.9999999999999,2|2,3:2|0:0,0:0:0:0:
33,115,59297,1,8,0:1:0:0:
85,200,59630,6,0,L|99:315,2,99.9999999999999,6|8|8,3:2|0:0|0:0,0:0:0:0:
150,123,60630,1,8,0:0:0:0:
206,206,60963,2,0,P|250:183|306:177,2,99.9999999999999,8|8|8,3:2|0:0|0:0,0:0:0:0:
185,251,61796,1,2,3:2:0:0:
185,251,61963,2,0,L|192:308,1,50,10|10,0:0|0:0,0:0:0:0:
196,350,62296,6,0,P|249:364|310:337,1,99.9999999999999,6|0,3:2|3:2,0:0:0:0:
354,273,62963,2,0,P|407:259|468:286,1,99.9999999999999,0|0,3:2|3:2,0:0:0:0:
484,365,63629,2,0,L|424:374,1,50,0|8,3:2|0:0,0:0:0:0:
389,350,63963,2,0,L|329:359,1,50,8|8,0:0|0:0,0:0:0:0:
292,340,64296,1,8,0:0:0:0:
236,147,64963,6,0,B|212:138|176:147|193:156|159:166|123:153,1,99.9999999999999,6|8,3:2|3:2,0:0:0:0:
102,133,65463,1,0,0:0:0:0:
102,133,65630,2,0,L|112:233,1,99.9999999999999,2|10,3:2|3:2,0:0:0:0:
164,317,66296,2,0,P|128:341|68:343,1,99.9999999999999,2|8,3:2|3:2,0:0:0:0:
27,321,66796,1,0,0:0:0:0:
27,321,66963,2,0,L|17:221,1,99.9999999999999,2|10,3:2|3:2,0:0:0:0:
17,121,67629,6,0,P|68:131|129:118,1,99.9999999999999,2|10,3:2|3:2,0:0:0:0:
149,86,68129,2,0,P|200:76|261:89,1,99.9999999999999,2|0,0:0|0:0,0:0:0:0:
290,109,68629,1,10,3:2:0:0:
236,192,68963,2,0,B|220:230|220:230|235:317,1,99.9999999999999,2|10,3:2|3:2,0:0:0:0:
298,361,69629,1,2,3:2:0:0:
390,351,69963,1,10,3:2:0:0:
465,284,70296,6,0,P|485:228|469:171,1,99.9999999999999,6|8,3:2|3:2,0:0:0:0:
449,150,70796,1,0,0:0:0:0:
449,150,70963,2,0,P|411:195|354:209,1,99.9999999999999,2|8,3:2|3:2,0:0:0:0:
280,176,71629,2,0,P|242:130|185:116,1,99.9999999999999,2|8,3:2|3:2,0:0:0:0:
156,124,72129,1,0,0:0:0:0:
156,124,72296,1,2,3:2:0:0:
76,182,72629,1,10,3:2:0:0:
6,110,72963,6,0,P|23:57|53:22,1,99.9999999999999,2|10,3:2|3:2,0:0:0:0:
101,14,73463,2,0,P|160:33|212:24,1,99.9999999999999,2|0,0:0|0:0,0:0:0:0:
243,7,73963,1,10,3:2:0:0:
325,64,74296,2,0,B|370:45|370:45|424:62,1,99.9999999999999,2|10,3:2|3:2,0:0:0:0:
484,137,74963,1,2,3:2:0:0:
436,224,75296,2,0,L|432:295,1,50,10|8,3:2|0:0,0:0:0:0:
448,322,75629,6,0,P|391:299|315:317,1,99.9999999999999,6|8,3:2|3:2,0:0:0:0:
304,324,76129,1,0,0:0:0:0:
304,324,76296,2,0,L|312:189,1,99.9999999999999,2|10,3:2|3:2,0:0:0:0:
278,129,76963,2,0,P|221:152|145:134,1,99.9999999999999,2|8,3:2|3:2,0:0:0:0:
134,127,77463,1,0,0:0:0:0:
134,127,77630,2,0,L|127:261,1,99.9999999999999,2|10,3:2|3:2,0:0:0:0:
71,308,78296,6,0,P|41:277|29:215,1,99.9999999999999,2|10,3:2|3:2,0:0:0:0:
2,180,78796,2,0,P|20:131|20:80,1,99.9999999999999,2|0,0:0|0:0,0:0:0:0:
15,33,79296,1,10,3:2:0:0:
108,70,79629,2,0,B|151:65|151:65|163:55|163:55|207:51,1,99.9999999999999,2|10,3:2|3:2,0:2:0:0:
283,111,80296,1,2,3:2:0:0:
365,168,80629,2,0,L|415:171,1,50,10|8,3:2|0:0,0:0:0:0:
462,190,80963,6,0,P|505:142|502:91,1,99.9999999999999,6|8,3:2|3:2,0:0:0:0:
500,62,81463,1,0,0:0:0:0:
500,62,81629,2,0,P|445:83|375:75,1,99.9999999999999,2|8,3:2|3:2,0:0:0:0:
325,22,82296,2,0,P|262:5|218:11,1,99.9999999999999,2|8,3:2|3:2,0:0:0:0:
185,32,82796,1,0,0:0:0:0:
185,32,82963,1,2,3:2:0:0:
205,129,83296,1,10,3:2:0:0:
302,149,83629,6,0,B|323:192|323:192|306:269,1,99.9999999999999,6|10,3:2|3:2,0:0:0:0:
317,296,84129,1,2,0:0:0:0:
317,296,84296,2,0,P|266:277|196:284,1,99.9999999999999,0|10,3:2|3:2,0:0:0:0:
138,334,84963,1,14,3:2:0:0:
57,274,85296,1,14,3:2:0:0:
98,182,85629,1,14,3:2:0:0:
197,193,85963,2,0,L|256:196,1,50,10|8,3:2|3:2,0:0:0:0:
289,221,86296,6,0,P|316:276|415:252,1,150,6|0,3:2|0:0,0:0:0:0:
435,243,86963,2,0,P|409:196|405:142,1,99.9999999999999,2|8,3:2|3:2,0:0:0:0:
418,52,87629,2,0,B|482:45|456:30|522:23,2,99.9999999999999,2|10|2,3:2|3:2|3:2,0:0:0:0:
321,29,88629,1,10,3:2:0:0:
287,122,88963,6,0,P|235:99|163:173,1,150,2|0,3:2|0:0,0:0:0:0:
167,199,89629,1,2,3:2:0:0:
70,175,89963,1,8,3:2:0:0:
70,175,90129,2,0,B|32:216|32:216|63:340,1,150,2|8,0:0|3:2,0:0:0:0:
128,377,90963,1,0,3:2:0:0:
217,330,91296,2,0,L|274:347,1,50,10|2,3:2|0:0,0:0:0:0:
306,373,91629,6,0,P|333:313|419:330,1,150,2|0,3:2|0:0,0:0:0:0:
450,345,92296,2,0,P|432:290|434:228,1,99.9999999999999,2|8,3:2|3:2,0:0:0:0:
442,199,92796,1,2,0:0:0:0:
473,109,93129,1,0,0:0:0:0:
473,109,93296,2,0,B|493:62|493:62|478:13,2,99.9999999999999,10|2|10,3:2|3:2|3:2,0:0:0:0:
377,137,94296,6,0,P|310:133|247:134,1,99.9999999999999,2|10,3:2|3:2,0:0:0:0:
190,192,94963,1,2,3:2:0:0:
190,192,95129,1,2,0:0:0:0:
91,190,95463,2,0,P|62:239|66:302,1,99.9999999999999,2|2,3:2|3:2,0:0:0:0:
81,328,95963,1,10,3:2:0:0:
81,328,96129,2,0,B|142:320|122:359|197:353|197:353|228:314,1,150,2|8,3:2|3:2,0:0:0:0:
278,254,96963,6,0,P|312:291|418:259,1,150,6|0,3:2|0:0,0:0:0:0:
445,253,97629,2,0,P|408:206|400:161,1,99.9999999999999,2|8,3:2|3:2,0:0:0:0:
356,78,98296,2,0,P|412:61|463:29,2,99.9999999999999,2|10|2,3:2|3:2|3:2,0:0:0:0:
257,62,99296,1,10,3:2:0:0:
160,36,99629,6,0,P|176:91|99:143,1,150,2|0,3:2|0:0,0:0:0:0:
66,124,100296,1,2,3:2:0:0:
17,213,100629,1,8,3:2:0:0:
17,213,100796,2,0,B|52:238|59:277|59:277|93:251|134:256,1,150,2|8,0:0|3:2,0:0:0:0:
221,284,101629,1,0,3:2:0:0:
294,216,101963,2,0,L|287:145,1,50,10|10,3:2|0:0,0:0:0:0:
270,120,102296,6,0,P|336:129|372:89,1,99.9999999999999,6|0,3:2|3:2,0:0:0:0:
429,38,102963,2,0,L|455:157,1,99.9999999999999,10|0,3:2|3:2,0:0:0:0:
463,184,103463,1,10,0:0:0:0:
419,276,103796,1,8,0:0:0:0:
419,276,103963,1,2,3:2:0:0:
444,372,104296,1,10,3:2:0:0:
344,381,104629,2,0,P|317:377|284:356,1,50,10|8,3:2|0:0,0:0:0:0:
270,323,104963,6,0,L|288:216,1,99.9999999999999,6|6,3:2|3:2,0:0:0:0:
347,145,105629,2,0,L|335:70,1,50,6|10,3:2|0:0,0:0:0:0:
364,0,106129,1,6,3:2:0:0:
214,243,107129,1,0,3:2:0:0:
214,243,107296,2,0,L|205:194,1,50,8|8,3:2|0:0,0:0:0:0:
198,143,107629,5,4,3:2:0:0:
129,79,107963,1,10,0:0:0:0:
129,79,108129,2,0,P|47:77|23:110,1,99.9999999999999,2|2,3:2|3:2,0:0:0:0:
1,178,108796,1,2,3:2:0:0:
105,179,109129,1,0,3:2:0:0:
105,179,109296,2,0,B|121:218|121:218|112:293,1,99.9999999999999,10|2,0:0|0:2,0:0:0:0:
99,374,109963,1,10,3:2:0:0:
195,347,110296,6,0,P|262:318|328:328,1,99.9999999999999,2|10,3:2|0:0,0:0:0:0:
337,327,110796,1,2,3:2:0:0:
431,360,111129,1,0,3:2:0:0:
489,277,111463,2,0,P|501:218|481:167,1,99.9999999999999,0|0,3:2|3:2,0:0:0:0:
462,138,111963,1,10,0:2:0:0:
376,189,112296,2,0,P|323:192|273:195,1,99.9999999999999,2|10,0:2|3:2,0:0:0:0:
211,120,112963,6,0,P|180:158|174:218,1,99.9999999999999,2|10,3:2|0:0,0:0:0:0:
181,257,113463,2,0,P|196:305|181:363,1,99.9999999999999,2|2,3:2|3:2,0:0:0:0:
92,382,114129,1,2,3:2:0:0:
13,328,114463,1,8,0:0:0:0:
13,328,114629,2,0,L|29:275,1,50,2|0,3:2|3:2,0:0:0:0:
71,255,114963,2,0,B|60:186|60:186|72:140,1,99.9999999999999,10|10,0:0|0:0,0:0:0:0:
154,104,115629,5,14,0:0:0:0:
154,104,117796,2,0,L|144:38,2,50,2|8|8,0:0|0:0|0:0,0:0:0:0:
167,152,118296,6,0,P|213:115|264:122,1,99.9999999999999,4|10,3:2|3:2,0:0:0:0:
289,150,118796,2,0,P|279:198|274:256,1,99.9999999999999,2|2,0:0|0:0,0:0:0:0:
281,348,119463,1,2,0:0:0:0:
383,370,119796,1,0,0:0:0:0:
383,370,119963,2,0,P|438:366|483:336,1,99.9999999999999,10|2,3:2|3:2,0:0:0:0:
502,247,120629,1,10,3:2:0:0:
445,163,120963,6,0,L|333:155,1,99.9999999999999,2|10,3:2|3:2,0:0:0:0:
302,177,121463,1,2,0:0:0:0:
302,177,121629,2,0,P|248:192|198:181,1,99.9999999999999,2|8,3:2|3:2,0:0:0:0:
144,104,122296,2,0,P|90:89|40:100,1,99.9999999999999,2|8,3:2|3:2,0:0:0:0:
0,185,122963,2,0,L|6:236,1,50,2|0,3:2|0:0,0:0:0:0:
13,283,123296,1,10,3:2:0:0:
91,345,123629,6,0,P|135:325|197:320,1,99.9999999999999,2|10,3:2|3:2,0:0:0:0:
233,336,124129,1,2,0:0:0:0:
276,248,124463,2,0,L|260:172,1,50,2|10,0:0|3:2,0:0:0:0:
276,151,124796,2,0,P|231:168|170:153,1,99.9999999999999,2|0,0:0|0:0,0:0:0:0:
154,116,125296,1,10,3:2:0:0:
215,37,125629,2,0,P|269:22|319:33,1,99.9999999999999,2|10,3:2|3:2,0:0:0:0:
356,119,126296,6,0,P|402:83|458:70,1,99.9999999999999,2|10,3:2|3:2,0:0:0:0:
493,80,126796,1,2,0:0:0:0:
480,179,127129,1,2,0:0:0:0:
397,233,127463,1,2,0:0:0:0:
397,233,127629,2,0,L|372:353,1,99.9999999999999,2|8,3:2|3:2,0:0:0:0:
283,369,128296,1,2,3:2:0:0:
190,331,128629,2,0,L|129:344,1,50,8|8,0:0|0:0,0:0:0:0:
93,359,128963,6,0,P|115:306|101:244,1,99.9999999999999,6|2,3:2|3:2,0:0:0:0:
50,184,129629,1,10,0:0:0:0:
108,102,129963,2,0,P|88:39|120:-11,2,99.9999999999999,2|2|10,3:2|0:0|3:2,0:0:0:0:
182,169,130963,2,0,P|230:142|301:149,1,99.9999999999999,2|2,3:2|0:0,0:0:0:0:
356,199,131629,1,10,3:2:0:0:
418,120,131963,1,2,3:2:0:0:
373,30,132296,2,0,P|332:4|281:0,1,99.9999999999999,2|10,0:0|0:0,0:0:0:0:
204,62,132963,6,0,P|228:115|223:173,1,99.9999999999999,6|2,3:2|0:0,0:0:0:0:
202,252,133629,1,10,0:0:0:0:
285,307,133963,2,0,P|344:305|394:275,1,99.9999999999999,2|2,3:2|0:0,0:0:0:0:
428,200,134629,1,8,1:0:0:0:
404,102,134963,6,0,B|392:53|392:53|422:-4,2,99.9999999999999,6|8|8,3:2|0:0|0:0,0:0:0:0:
428,199,135963,1,8,0:0:0:0:
330,221,136296,2,0,P|285:201|229:199,2,99.9999999999999,8|8|8,0:0|0:0|0:0,0:0:0:0:
355,270,137129,1,2,3:2:0:0:
355,270,137296,2,0,L|348:327,1,50,10|8,0:0|0:0,0:0:0:0:
320,360,137629,6,0,B|296:367|261:355|278:348|245:335|208:346,1,99.9999999999999,6|0,3:2|3:2,0:0:0:0:
124,335,138296,2,0,B|99:329|65:343|83:349|51:364|13:356,1,99.9999999999999,0|0,3:2|3:2,0:0:0:0:
25,257,138963,2,0,L|12:197,1,50,0|8,3:2|0:2,0:0:0:0:
35,162,139297,2,0,L|22:102,1,50,8|8,0:2|0:2,0:0:0:0:
39,64,139630,1,8,0:2:0:0:
177,211,140296,6,0,P|227:227|286:201,1,99.9999999999999,6|8,3:2|3:2,0:0:0:0:
304,175,140796,1,0,0:0:0:0:
304,175,140963,2,0,L|297:57,1,99.9999999999999,2|10,3:2|3:2,0:0:0:0:
374,10,141629,2,0,P|421:-8|472:18,1,99.9999999999999,2|8,3:2|3:2,0:0:0:0:
488,56,142129,1,0,0:0:0:0:
488,56,142296,2,0,L|495:174,1,99.9999999999999,2|10,3:2|3:2,0:0:0:0:
467,252,142963,6,0,P|415:224|351:235,1,99.9999999999999,2|10,3:2|3:2,0:0:0:0:
342,262,143463,2,0,P|290:290|226:279,1,99.9999999999999,2|0,0:0|0:0,0:0:0:0:
204,270,143963,1,10,3:2:0:0:
114,311,144296,2,0,B|97:279|97:279|115:189,1,99.9999999999999,2|10,3:2|3:2,0:0:0:0:
127,117,144963,1,2,3:2:0:0:
212,170,145296,1,10,3:2:0:0:
296,115,145629,6,0,P|333:98|400:103,1,99.9999999999999,6|8,3:2|3:2,0:0:0:0:
433,125,146129,1,0,0:0:0:0:
433,125,146296,2,0,P|406:165|399:215,1,99.9999999999999,2|8,3:2|3:2,0:0:0:0:
441,305,146963,2,0,P|386:335|322:313,1,99.9999999999999,2|8,3:2|3:2,0:0:0:0:
317,296,147463,1,0,0:0:0:0:
317,296,147629,1,2,3:2:0:0:
238,357,147963,1,10,3:2:0:0:
162,293,148296,6,0,P|120:288|62:313,1,99.9999999999999,2|10,3:2|3:2,0:0:0:0:
18,311,148796,2,0,P|38:251|26:196,1,99.9999999999999,2|0,0:0|0:0,0:0:0:0:
9,171,149296,1,10,3:2:0:0:
68,90,149629,2,0,B|97:76|97:76|178:102,1,99.9999999999999,2|10,3:2|3:2,0:0:0:0:
226,173,150296,1,2,3:2:0:0:
313,122,150629,2,0,L|306:61,1,50,10|8,3:2|0:0,0:0:0:0:
286,27,150962,6,0,P|330:6|389:27,1,99.9999999999999,6|8,3:2|3:2,0:0:0:0:
401,64,151462,1,0,0:0:0:0:
401,64,151629,2,0,L|413:163,1,99.9999999999999,2|10,3:2|3:2,0:0:0:0:
359,247,152296,2,0,P|315:226|256:247,1,99.9999999999999,2|8,3:2|3:2,0:0:0:0:
244,284,152796,1,0,0:0:0:0:
244,284,152963,2,0,L|256:383,1,99.9999999999999,2|10,3:2|3:2,0:0:0:0:
346,339,153629,6,0,B|408:319|396:348|470:326,1,99.9999999999999,2|10,3:2|3:2,0:0:0:0:
477,308,154129,2,0,L|466:246,1,50,2|0,0:0|3:2,0:0:0:0:
448,160,154629,1,10,3:2:0:0:
356,197,154962,2,0,P|293:210|242:195,1,99.9999999999999,2|10,3:2|3:2,0:0:0:0:
197,125,155629,1,2,3:2:0:0:
113,178,155962,2,0,L|107:248,1,50,10|8,3:2|0:0,0:0:0:0:
145,263,156296,6,0,P|109:311|119:365,1,99.9999999999999,6|8,3:2|3:2,0:0:0:0:
147,383,156796,1,0,0:0:0:0:
147,383,156962,2,0,P|211:367|256:365,1,99.9999999999999,2|8,3:2|3:2,0:0:0:0:
328,309,157629,2,0,P|392:325|437:327,1,99.9999999999999,2|8,3:2|3:2,0:0:0:0:
475,313,158129,1,0,0:0:0:0:
475,313,158296,1,2,3:2:0:0:
507,218,158629,1,10,3:2:0:0:
467,126,158962,6,0,B|444:119|415:131|415:138|393:142|362:133,1,99.9999999999999,6|10,3:2|3:2,0:0:0:0:
323,113,159462,1,2,0:0:0:0:
323,113,159629,2,0,P|271:97|202:109,1,99.9999999999999,0|10,3:2|3:2,0:0:0:0:
141,153,160296,1,14,3:2:0:0:
63,89,160629,1,14,3:2:0:0:
108,0,160962,1,14,3:2:0:0:
206,15,161296,2,0,L|257:18,1,50,10|8,3:2|0:0,0:0:0:0:
296,47,161629,6,0,P|333:25|392:29,1,99.9999999999999,6|0,3:2|0:0,0:0:0:0:
452,105,162295,1,8,3:2:0:0:
370,161,162629,2,0,P|344:194|341:254,1,99.9999999999999,0|0,3:2|0:0,0:0:0:0:
402,328,163295,1,8,0:2:0:0:
313,374,163629,6,0,P|257:370|213:333,2,99.9999999999999,0|0|8,3:2|0:2|0:0,0:0:0:0:
294,275,164629,2,0,P|350:263|389:221,2,99.9999999999999,0|0|8,3:2|3:2|0:0,0:0:0:0:
210,221,165629,6,0,P|157:192|104:207,1,99.9999999999999,4|0,3:2|3:2,0:0:0:0:
40,257,166295,1,8,0:0:0:0:
4,163,166629,2,0,P|-2:102|33:58,1,99.9999999999999,0|0,3:2|0:0,0:0:0:0:
112,37,167295,1,8,0:0:0:0:
192,97,167629,6,0,P|244:115|310:88,2,99.9999999999999,4|0|8,3:2|0:0|0:0,0:0:0:0:
97,126,168629,1,0,3:2:0:0:
154,208,168962,1,0,0:0:0:0:
246,247,169295,2,0,L|313:229,1,50,8|8,0:2|0:0,0:0:0:0:
332,199,169629,6,0,P|368:238|375:303,1,99.9999999999999,4|0,3:2|3:2,0:0:0:0:
364,335,170129,1,0,0:0:0:0:
364,335,170295,2,0,P|307:319|256:331,1,99.9999999999999,0|0,3:2|3:2,0:0:0:0:
177,366,170962,2,0,P|141:327|134:262,1,99.9999999999999,0|8,3:2|3:2,0:0:0:0:
146,240,171462,1,8,3:2:0:0:
146,240,171629,2,0,L|206:246,1,50,8|8,3:2|3:2,0:0:0:0:
246,247,171962,1,8,3:2:0:0:
317,176,172295,6,0,B|329:136|329:136|304:71,1,99.9999999999999,6|10,3:2|3:2,0:0:0:0:
227,22,172962,1,2,3:2:0:0:
227,22,173129,2,0,B|180:44|180:44|115:33,1,99.9999999999999,2|2,0:0|0:0,0:0:0:0:
86,19,173629,2,0,L|74:77,1,50,2|2,3:2|0:0,0:0:0:0:
61,116,173962,1,2,0:0:0:0:
127,190,174295,1,0,3:2:0:0:
127,190,174462,2,0,L|115:248,1,50,2|10,0:0|3:2,0:0:0:0:
89,280,174795,6,0,B|143:276|143:276|203:318,1,99.9999999999999,2|2,0:0|0:0,0:0:0:0:
262,362,175462,2,0,B|316:366|316:366|376:324,1,99.9999999999999,2|2,0:0|0:0,0:0:0:0:
454,327,176129,2,0,L|430:226,1,99.9999999999999,2|2,0:0|0:0,0:0:0:0:
460,188,176629,2,0,L|449:133,1,50,10|2,3:2|0:0,0:0:0:0:
443,89,176962,1,2,3:2:0:0:
353,134,177295,2,0,L|277:149,1,50,8|10,3:2|0:0,0:0:0:0:
258,124,177629,5,6,3:2:0:0:
258,124,177795,2,0,B|206:111|206:111|146:138,1,99.9999999999999,2|2,0:0|0:0,0:0:0:0:
136,171,178295,2,0,B|174:209|174:209|180:274,1,99.9999999999999,2|10,3:2|3:2,0:0:0:0:
182,305,178795,1,2,0:0:0:0:
273,348,179129,1,2,0:0:0:0:
273,348,179295,2,0,L|327:335,1,50,10|2,3:2|0:0,0:0:0:0:
363,366,179629,2,0,B|416:352|416:352|430:297,1,99.9999999999999,2|8,3:2|3:2,0:0:0:0:
412,260,180129,6,0,L|423:201,1,50,2|6,0:0|3:2,0:0:0:0:
411,161,180462,2,0,B|461:141|461:141|533:167,2,99.9999999999999,2|2|2,0:0|0:0|0:0,0:0:0:0:
310,49,181629,6,0,L|192:63,1,99.9999999999999,2|8,3:2|3:2,0:0:0:0:
164,81,182129,2,0,L|42:71,1,99.9999999999999,2|0,0:0|0:0,0:0:0:0:
15,68,182629,1,10,3:2:0:0:
54,165,182962,1,4,3:2:0:0:
54,165,183129,2,0,L|68:275,1,99.9999999999999,2|0,0:0|0:0,0:0:0:0:
112,284,183629,2,0,L|98:394,1,99.9999999999999,2|8,3:2|3:2,0:0:0:0:
195,356,184295,6,0,L|272:347,1,50,2|0,3:2|0:0,0:0:0:0:
277,313,184628,1,10,3:2:0:0:
277,313,184795,2,0,L|346:324,2,50,2|2|2,0:0|3:2|0:0,0:0:0:0:
261,265,185295,2,0,L|247:205,1,50,10|10,3:2|0:0,0:0:0:0:
237,167,185628,5,6,3:2:0:0:
163,267,196295,6,0,P|175:209|180:130,1,99.9999999999999,6|0,3:2|3:2,0:0:0:0:
129,82,196962,1,2,3:2:0:0:
217,34,197295,1,2,3:2:0:0:
307,77,197628,2,0,P|319:135|324:214,1,99.9999999999999,2|0,3:2|3:2,0:0:0:0:
294,272,198295,1,2,3:2:0:0:
378,326,198628,1,2,3:2:0:0:
479,316,198962,6,0,P|498:267|488:178,1,99.9999999999999,2|2,3:2|3:2,0:0:0:0:
479,174,199462,2,0,P|469:143|470:95,1,50,10|0,0:0|3:2,0:0:0:0:
480,26,199962,1,2,3:2:0:0:
387,62,200295,2,0,P|322:74|265:64,1,99.9999999999999,2|2,3:2|3:2,0:0:0:0:
199,116,200962,2,0,P|134:104|77:114,1,99.9999999999999,2|2,3:2|3:2,0:0:0:0:
29,177,201628,6,0,P|64:221|64:284,1,99.9999999999999,6|0,3:2|3:2,0:0:0:0:
61,363,202295,2,0,P|125:354|186:350,1,99.9999999999999,2|0,3:2|3:2,0:0:0:0:
261,353,202962,2,0,P|334:366|392:361,1,99.9999999999999,2|0,3:2|3:2,0:0:0:0:
454,336,203628,1,2,3:2:0:0:
512,254,203962,1,2,3:2:0:0:
491,156,204295,6,0,P|442:175|395:173,1,99.9999999999999,6|2,3:2|3:2,0:0:0:0:
351,151,204795,2,0,B|273:157|286:107|201:119,1,150,10|2,0:0|3:2,0:0:0:0:
129,180,205628,1,10,0:2:0:0:
45,125,205961,1,10,0:2:0:0:
89,35,206294,1,10,0:2:0:0:
188,28,206628,2,0,L|242:37,1,50,10|8,3:2|3:2,0:0:0:0:
277,66,206962,6,0,P|329:42|389:60,1,99.9999999999999,6|8,3:2|3:2,0:0:0:0:
406,82,207462,1,0,0:0:0:0:
406,82,207628,2,0,P|377:154|386:186,1,99.9999999999999,2|10,3:2|3:2,0:0:0:0:
471,216,208295,2,0,P|495:268|477:328,1,99.9999999999999,2|8,3:2|3:2,0:0:0:0:
455,345,208795,1,0,0:0:0:0:
455,345,208961,2,0,P|383:316|351:325,1,99.9999999999999,2|10,3:2|3:2,0:0:0:0:
282,379,209628,6,0,B|242:370|242:370|229:356|229:356|178:345,1,99.9999999999999,2|10,3:2|3:2,0:0:0:0:
156,310,210128,2,0,P|87:324|46:311,1,99.9999999999999,2|0,0:0|0:0,0:0:0:0:
24,281,210628,1,10,3:2:0:0:
77,196,210962,2,0,B|96:161|96:161|77:97,1,99.9999999999999,2|10,3:2|3:2,0:0:0:0:
47,8,211628,1,2,3:2:0:0:
142,38,211962,1,10,3:2:0:0:
238,10,212295,6,0,P|287:18|352:24,1,99.9999999999999,6|8,3:2|3:2,0:0:0:0:
387,19,212795,1,0,0:0:0:0:
387,19,212962,2,0,P|359:68|369:135,1,99.9999999999999,2|8,3:2|3:2,0:0:0:0:
430,180,213628,2,0,P|450:226|445:298,1,99.9999999999999,2|8,3:2|3:2,0:0:0:0:
430,320,214128,1,0,0:0:0:0:
430,320,214295,1,2,3:2:0:0:
340,275,214628,1,10,3:2:0:0:
255,329,214962,6,0,B|204:341|204:341|148:321,1,99.9999999999999,2|10,3:2|3:2,0:0:0:0:
116,350,215462,2,0,B|67:329|67:329|34:280,1,99.9999999999999,2|0,0:0|0:0,0:0:0:0:
44,240,215962,1,10,3:2:0:0:
107,162,216295,2,0,B|170:160|147:180|219:177,1,99.9999999999999,2|10,3:2|3:2,0:0:0:0:
297,215,216962,1,2,3:2:0:0:
376,154,217295,2,0,L|365:89,1,50,10|8,3:2|0:0,0:0:0:0:
334,67,217628,6,0,P|396:35|463:62,1,99.9999999999999,6|8,3:2|3:2,0:0:0:0:
464,67,218128,1,0,0:0:0:0:
464,67,218295,2,0,L|480:165,1,99.9999999999999,2|10,3:2|3:2,0:0:0:0:
409,235,218962,2,0,P|347:203|280:230,1,99.9999999999999,2|8,3:2|3:2,0:0:0:0:
279,235,219462,1,0,0:0:0:0:
279,235,219629,2,0,L|262:333,1,99.9999999999999,2|10,3:2|3:2,0:0:0:0:
168,367,220295,6,0,L|151:268,1,99.9999999999999,2|10,3:2|3:2,0:0:0:0:
104,249,220795,2,0,L|116:193,1,50,2|0,0:0|3:2,0:0:0:0:
134,102,221295,1,10,3:2:0:0:
222,147,221628,2,0,P|264:153|326:139,1,99.9999999999999,2|10,3:2|3:2,0:0:0:0:
358,49,222295,1,2,3:2:0:0:
451,84,222628,2,0,L|461:132,1,50,10|8,3:2|0:0,0:0:0:0:
502,161,222962,6,0,P|465:199|472:254,1,99.9999999999999,6|8,3:2|3:2,0:0:0:0:
502,277,223462,1,0,0:0:0:0:
502,277,223628,2,0,P|455:266|377:280,1,99.9999999999999,2|8,3:2|3:2,0:0:0:0:
326,334,224295,2,0,P|278:348|228:348,1,99.9999999999999,2|8,3:2|3:2,0:0:0:0:
186,321,224795,1,0,0:0:0:0:
186,321,224962,1,2,3:2:0:0:
131,237,225295,1,10,3:2:0:0:
38,275,225628,6,0,L|22:163,1,99.9999999999999,6|10,3:2|3:2,0:0:0:0:
14,126,226128,1,2,0:0:0:0:
14,126,226295,2,0,P|76:134|129:117,1,99.9999999999999,0|10,3:2|3:2,0:0:0:0:
185,57,226962,1,14,3:2:0:0:
206,154,227295,1,14,3:2:0:0:
227,251,227628,1,14,3:2:0:0:
248,347,227962,2,0,P|277:334|300:330,1,50,10|8,3:2|0:0,0:0:0:0:
342,344,228295,6,0,P|401:356|456:283,1,150,6|0,3:2|0:0,0:0:0:0:
481,251,228962,2,0,P|435:197|435:139,1,99.9999999999999,2|8,3:2|3:2,0:0:0:0:
402,74,229628,2,0,B|444:55|456:85|510:62,2,99.9999999999999,2|10|2,3:2|3:2|3:2,0:0:0:0:
326,140,230628,1,10,3:2:0:0:
250,206,230962,6,0,P|162:200|137:124,1,150,2|0,3:2|0:0,0:0:0:0:
140,102,231628,1,2,3:2:0:0:
48,61,231962,1,8,3:2:0:0:
48,61,232128,2,0,B|19:91|19:91|38:214,1,150,2|8,0:0|3:2,0:0:0:0:
55,296,232962,1,0,3:2:0:0:
137,352,233295,2,0,L|185:336,1,50,10|2,3:2|0:0,0:0:0:0:
227,361,233628,6,0,P|274:313|366:352,1,150,2|0,3:2|0:0,0:0:0:0:
399,330,234295,2,0,P|411:275|413:222,1,99.9999999999999,2|8,3:2|3:2,0:0:0:0:
405,182,234795,1,2,0:0:0:0:
350,105,235128,1,0,0:0:0:0:
350,105,235295,2,0,B|394:81|394:81|424:-10,2,99.9999999999999,10|2|10,3:2|3:2|3:2,0:0:0:0:
255,72,236295,6,0,P|203:64|131:74,1,99.9999999999999,2|10,3:2|3:2,0:0:0:0:
61,100,236962,1,2,3:2:0:0:
61,100,237128,1,2,0:0:0:0:
129,173,237462,2,0,P|149:227|153:275,1,99.9999999999999,2|2,3:2|3:2,0:0:0:0:
136,316,237962,1,10,3:2:0:0:
136,316,238128,2,0,P|191:287|313:313,1,150,2|8,3:2|3:2,0:0:0:0:
363,343,238962,6,0,B|405:369|460:325|460:325|415:284,1,150,6|0,3:2|0:0,0:0:0:0:
413,248,239628,2,0,B|380:218|380:218|408:144,1,99.9999999999999,2|8,3:2|3:2,0:0:0:0:
378,68,240295,2,0,B|430:52|428:68|483:51,2,99.9999999999999,2|10|2,3:2|3:2|3:2,0:0:0:0:
287,111,241295,2,0,L|218:105,1,50,10|0,3:2|0:0,0:0:0:0:
197,137,241628,6,0,P|143:95|61:144,1,150,2|0,3:2|0:0,0:0:0:0:
57,169,242295,1,2,3:2:0:0:
130,244,242628,1,8,3:2:0:0:
130,244,242795,2,0,B|172:234|210:265|210:265|241:284|273:276,1,150,2|8,0:0|3:2,0:0:0:0:
339,203,243628,1,0,3:2:0:0:
418,263,243962,2,0,L|416:328,1,50,10|10,3:2|0:0,0:0:0:0:
430,360,244295,6,0,B|388:355|388:355|374:363|374:363|313:356,1,99.9999999999999,6|0,3:2|3:2,0:0:0:0:
241,316,244962,2,0,L|126:336,1,99.9999999999999,10|0,3:2|3:2,0:0:0:0:
93,344,245462,1,10,0:0:0:0:
34,263,245795,1,8,0:0:0:0:
34,263,245962,1,2,3:2:0:0:
71,170,246295,1,10,3:2:0:0:
167,144,246628,2,0,P|195:161|216:200,1,50,10|8,3:2|0:0,0:0:0:0:
224,220,246962,6,0,L|324:181,1,99.9999999999999,6|6,3:2|3:2,0:0:0:0:
408,145,247628,2,0,L|436:74,1,50,6|10,3:2|0:0,0:0:0:0:
459,10,248128,1,6,3:2:0:0:
205,174,249128,1,0,3:2:0:0:
205,174,249295,2,0,L|225:220,1,50,8|8,3:2|0:0,0:0:0:0:
249,269,249628,5,12,3:2:0:0:
249,269,249795,1,8,3:2:0:0:
341,228,250128,2,0,B|387:212|387:212|445:225,1,99.9999999999999,12|8,3:2|0:0,0:0:0:0:
469,261,250628,1,12,3:2:0:0:
469,261,250795,1,8,3:2:0:0:
