osu file format v14

[General]
AudioFilename: audio.mp3
AudioLeadIn: 0
PreviewTime: 206921
Countdown: 0
SampleSet: Soft
StackLeniency: 0.7
Mode: 0
LetterboxInBreaks: 0
WidescreenStoryboard: 1

[Editor]
DistanceSpacing: 1.4
BeatDivisor: 4
GridSize: 16
TimelineZoom: 1.7

[Metadata]
Title:Prism lovely day
TitleUnicode:プリズム lovely day
Artist:solfa feat. Chata
ArtistUnicode:solfa feat. 茶太
Creator:Respirte
Version:Insane
Source:彼女と俺の恋愛日常
Tags:featured artist fa visual novel vn eroge lovelyday of girlfriends & me C99 japanese jpop jrock female vocalist op opening just parasol
BeatmapID:3386465
BeatmapSetID:1658950

[Difficulty]
HPDrainRate:5
CircleSize:4
OverallDifficulty:7.5
ApproachRate:8.5
SliderMultiplier:1.6
SliderTickRate:1

[Events]
//Background and Video events
0,0,"poseidon.jpg",0,0
//Break Periods
//Storyboard Layer 0 (Background)
//Storyboard Layer 1 (Fail)
//Storyboard Layer 2 (Pass)
//Storyboard Layer 3 (Foreground)
//Storyboard Layer 4 (Overlay)
//Storyboard Sound Samples

[TimingPoints]
298,333.333333333333,4,2,1,70,1,0
298,-125,4,2,1,70,0,0
964,-125,4,2,1,40,0,0
1631,-125,4,2,1,70,0,0
2297,-125,4,2,1,40,0,0
2964,-125,4,2,1,70,0,0
3631,-125,4,2,1,40,0,0
4297,-125,4,2,1,70,0,0
4631,-125,4,2,1,50,0,0
4964,-125,4,2,1,70,0,0
5631,-111.111111111111,4,2,1,60,0,0
6964,-111.111111111111,4,2,1,65,0,0
8297,-111.111111111111,4,2,1,75,0,0
10964,-83.3333333333333,4,2,5,90,0,0
26964,-100,4,2,5,80,0,0
32297,-125,4,2,1,60,0,0
35631,-125,4,2,11,60,0,0
35964,-125,4,2,5,60,0,0
36297,-125,4,2,12,60,0,0
36631,-125,4,2,1,60,0,0
36964,-125,4,2,13,60,0,0
37131,-125,4,2,1,60,0,0
37631,-125,4,2,14,60,0,0
37797,-125,4,2,1,60,0,0
41964,-125,4,2,15,60,0,0
42297,-125,4,2,1,60,0,0
42464,-125,4,2,5,60,0,0
42631,-125,4,2,15,60,0,0
42797,-125,4,2,5,60,0,0
42964,-125,4,2,14,60,0,0
43131,-125,4,2,3,60,0,0
46297,-125,4,2,11,60,0,0
46464,-125,4,2,3,60,0,0
46964,-125,4,2,12,60,0,0
47131,-125,4,2,3,60,0,0
47631,-125,4,2,13,60,0,0
47797,-125,4,2,3,60,0,0
48297,-125,4,2,14,60,0,0
48464,-125,4,2,3,60,0,0
51631,-125,4,2,16,60,0,0
51797,-125,4,2,3,60,0,0
52297,-125,4,2,11,60,0,0
52464,-125,4,2,3,60,0,0
52964,-125,4,2,17,60,0,0
53131,-125,4,2,3,60,0,0
53297,-111.111111111111,4,2,1,60,0,0
53631,333.333333333333,3,2,1,65,1,0
53631,-100,3,2,1,65,0,0
59630,333.333333333333,4,2,1,75,1,0
59630,-100,4,2,1,75,0,0
63629,-100,4,2,1,80,0,0
64963,-83.3333333333333,4,2,1,90,0,1
65880,-83.3333333333333,4,2,7,90,0,1
65963,-83.3333333333333,4,2,1,90,0,1
67213,-83.3333333333333,4,2,7,90,0,1
67296,-83.3333333333333,4,2,1,90,0,1
68213,-83.3333333333333,4,2,7,90,0,1
68296,-83.3333333333333,4,2,1,90,0,1
70879,-83.3333333333333,4,2,7,90,0,1
70963,-83.3333333333333,4,2,1,90,0,1
72213,-83.3333333333333,4,2,7,90,0,1
72296,-83.3333333333333,4,2,1,90,0,1
73546,-83.3333333333333,4,2,7,90,0,1
73629,-83.3333333333333,4,2,1,90,0,1
75546,-83.3333333333333,4,2,7,90,0,1
75629,-83.3333333333333,4,2,1,90,0,1
76546,-83.3333333333333,4,2,7,90,0,1
76629,-83.3333333333333,4,2,1,90,0,1
77879,-83.3333333333333,4,2,7,90,0,1
77963,-83.3333333333333,4,2,1,90,0,1
78879,-83.3333333333333,4,2,7,90,0,1
78963,-83.3333333333333,4,2,1,90,0,1
81546,-83.3333333333333,4,2,7,90,0,1
81629,-83.3333333333333,4,2,1,90,0,1
82879,-83.3333333333333,4,2,7,90,0,1
82963,-83.3333333333333,4,2,1,90,0,1
84213,-83.3333333333333,4,2,7,90,0,1
84296,-83.3333333333333,4,2,1,90,0,1
84963,-100,4,2,1,70,0,1
86296,-83.3333333333333,4,2,5,90,0,0
102296,-100,4,2,5,80,0,0
107629,-111.111111111111,4,2,1,70,0,0
111963,-111.111111111111,4,2,11,70,0,0
112129,-111.111111111111,4,2,1,70,0,0
112296,-111.111111111111,4,2,17,70,0,0
112463,-111.111111111111,4,2,1,70,0,0
112629,-111.111111111111,4,2,13,70,0,0
112796,-111.111111111111,4,2,1,70,0,0
112963,-111.111111111111,4,2,14,70,0,0
113129,-111.111111111111,4,2,1,70,0,0
117796,-111.111111111111,4,2,5,70,0,0
117963,-111.111111111111,4,2,1,70,0,0
121629,-111.111111111111,4,2,11,70,0,0
121796,-111.111111111111,4,2,1,70,0,0
122296,-111.111111111111,4,2,12,70,0,0
122463,-111.111111111111,4,2,1,70,0,0
122879,-111.111111111111,4,2,5,70,0,0
122963,-111.111111111111,4,2,13,70,0,0
123129,-111.111111111111,4,2,1,70,0,0
123629,-111.111111111111,4,2,14,70,0,0
123796,-111.111111111111,4,2,1,70,0,0
124296,-111.111111111111,4,2,5,70,0,0
124463,-111.111111111111,4,2,1,70,0,0
124546,-111.111111111111,4,2,5,70,0,0
124796,-111.111111111111,4,2,1,70,0,0
126963,-111.111111111111,4,2,16,70,0,0
127046,-111.111111111111,4,2,5,70,0,0
127129,-111.111111111111,4,2,1,70,0,0
127213,-111.111111111111,4,2,5,70,0,0
127463,-111.111111111111,4,2,1,70,0,0
127629,-111.111111111111,4,2,11,70,0,0
127796,-111.111111111111,4,2,1,70,0,0
128296,-111.111111111111,4,2,17,70,0,0
128463,-111.111111111111,4,2,1,70,0,0
128963,333.333333333333,3,2,1,65,1,0
128963,-100,3,2,1,65,0,0
134963,333.333333333333,4,2,1,75,1,0
134963,-100,4,2,1,75,0,0
138963,-100,4,2,1,80,0,0
140296,-83.3333333333333,4,2,1,90,0,1
141213,-83.3333333333333,4,2,7,90,0,1
141296,-83.3333333333333,4,2,1,90,0,1
142546,-83.3333333333333,4,2,7,90,0,1
142629,-83.3333333333333,4,2,1,90,0,1
143546,-83.3333333333333,4,2,7,90,0,1
143629,-83.3333333333333,4,2,1,90,0,1
146213,-83.3333333333333,4,2,7,90,0,1
146296,-83.3333333333333,4,2,1,90,0,1
147546,-83.3333333333333,4,2,7,90,0,1
147629,-83.3333333333333,4,2,1,90,0,1
148879,-83.3333333333333,4,2,7,90,0,1
148963,-83.3333333333333,4,2,1,90,0,1
150879,-83.3333333333333,4,2,7,90,0,1
150962,-83.3333333333333,4,2,1,90,0,1
151879,-83.3333333333333,4,2,7,90,0,1
151962,-83.3333333333333,4,2,1,90,0,1
153212,-83.3333333333333,4,2,7,90,0,1
153296,-83.3333333333333,4,2,1,90,0,1
154212,-83.3333333333333,4,2,7,90,0,1
154296,-83.3333333333333,4,2,1,90,0,1
156879,-83.3333333333333,4,2,7,90,0,1
156962,-83.3333333333333,4,2,1,90,0,1
158212,-83.3333333333333,4,2,7,90,0,1
158296,-83.3333333333333,4,2,1,90,0,1
159546,-83.3333333333333,4,2,7,90,0,1
159629,-83.3333333333333,4,2,1,90,0,1
160296,-100,4,2,1,70,0,1
161629,333.333333333333,3,2,1,60,1,0
161629,-100,4,2,1,60,0,0
169295,-100,4,2,1,65,0,0
169629,333.333333333333,4,2,1,70,1,0
169629,-90.9090909090909,4,2,1,70,0,0
170962,-83.3333333333333,4,2,1,80,0,0
171629,-83.3333333333333,4,2,1,90,0,0
172295,-76.9230769230769,4,2,5,95,0,0
181629,-76.9230769230769,4,2,5,90,0,0
184295,-76.9230769230769,4,2,5,95,0,0
184628,-76.9230769230769,4,2,5,95,0,0
185628,-142.857142857143,4,2,1,45,0,0
196295,-111.111111111111,4,2,3,55,0,0
205628,-100,4,2,1,70,0,0
206962,-83.3333333333333,4,2,1,90,0,1
207878,-83.3333333333333,4,2,7,90,0,1
207962,-83.3333333333333,4,2,1,90,0,1
209212,-83.3333333333333,4,2,7,90,0,1
209295,-83.3333333333333,4,2,1,90,0,1
210212,-83.3333333333333,4,2,7,90,0,1
210295,-83.3333333333333,4,2,1,90,0,1
212878,-83.3333333333333,4,2,7,90,0,1
212962,-83.3333333333333,4,2,1,90,0,1
214212,-83.3333333333333,4,2,7,90,0,1
214295,-83.3333333333333,4,2,1,90,0,1
215545,-83.3333333333333,4,2,7,90,0,1
215628,-83.3333333333333,4,2,1,90,0,1
217545,-83.3333333333333,4,2,7,90,0,1
217628,-83.3333333333333,4,2,1,90,0,1
218545,-83.3333333333333,4,2,7,90,0,1
218628,-83.3333333333333,4,2,1,90,0,1
219878,-83.3333333333333,4,2,7,90,0,1
219962,-83.3333333333333,4,2,1,90,0,1
220878,-83.3333333333333,4,2,7,90,0,1
220962,-83.3333333333333,4,2,1,90,0,1
223545,-83.3333333333333,4,2,7,90,0,1
223628,-83.3333333333333,4,2,1,90,0,1
224878,-83.3333333333333,4,2,7,90,0,1
224962,-83.3333333333333,4,2,1,90,0,1
226212,-83.3333333333333,4,2,7,90,0,1
226295,-83.3333333333333,4,2,1,90,0,1
226962,-100,4,2,1,70,0,1
228295,-83.3333333333333,4,2,5,90,0,0
244295,-100,4,2,5,80,0,0
249628,-90.9090909090909,4,2,1,85,0,0

[Colours]
Combo1 : 172,219,211
Combo2 : 243,82,151
Combo3 : 209,189,143
Combo4 : 235,148,210

[HitObjects]
168,90,298,6,0,B|111:82|81:135|81:135|140:190|213:163|213:163|159:192|120:243|131:314,1,384,6|2,3:2|0:0,0:0:0:0:
244,354,1631,2,0,B|204:312|217:249|275:216|339:245|355:296|355:296|374:346|407:359|455:357|477:322,1,384,6|2,3:2|0:0,0:0:0:0:
396,201,2964,2,0,B|360:150|272:134|210:177|210:177|180:137|136:128|136:128|100:145|101:213,1,384,6|2,3:2|0:0,0:0:0:0:
20,89,4297,2,0,P|67:46|124:17,1,128,6|2,3:2|0:0,0:0:0:0:
228,57,4964,2,0,P|269:66|304:66,1,64,2|0,3:2|0:0,0:0:0:0:
411,21,5297,1,10,0:0:0:0:
411,21,5381,1,8,0:0:0:0:
411,21,5464,2,0,L|419:69,1,32,8|8,0:0|0:0,0:0:0:0:
483,108,5631,6,0,P|437:148|439:250,1,143.999995605469,6|0,3:2|3:2,0:0:0:0:
498,316,6131,1,0,0:0:0:0:
351,256,6297,2,0,P|307:248|247:252,1,71.9999978027344,2|0,3:2|0:0,0:0:0:0:
157,326,6631,2,0,P|200:333|260:329,1,71.9999978027344,2|0,3:2|0:0,0:0:0:0:
115,243,6964,6,0,L|108:157,1,71.9999978027344,2|0,3:2|0:0,0:0:0:0:
107,153,7214,1,8,0:0:0:0:
105,135,7297,1,10,3:2:0:0:
193,19,7464,1,2,0:0:0:0:
180,29,7547,1,8,0:0:0:0:
166,38,7631,2,0,P|121:49|73:43,1,71.9999978027344,8|0,3:2|0:0,0:0:0:0:
198,128,7964,1,10,3:2:0:0:
291,18,8131,1,10,0:0:0:0:
415,115,8297,6,0,B|435:150|435:150|420:233,1,107.999996704102,14|8,3:2|0:0,0:0:0:0:
420,234,8631,1,8,3:2:0:0:
259,297,8797,1,2,0:0:0:0:
257,278,8881,1,8,0:0:0:0:
255,260,8964,2,0,L|246:170,1,71.9999978027344,8|8,3:2|0:0,0:0:0:0:
373,318,9297,1,10,0:0:0:0:
404,334,9380,1,8,0:0:0:0:
440,336,9463,1,8,0:0:0:0:
473,323,9547,1,8,0:0:0:0:
498,297,9630,5,6,3:2:0:0:
498,297,10464,1,0,3:2:0:0:
414,156,10631,1,10,0:0:0:0:
414,156,10714,1,8,0:0:0:0:
414,156,10797,2,0,L|419:206,1,35.9999989013672,8|8,0:0|0:0,0:0:0:0:
371,298,10964,6,0,B|343:284|343:284|335:249|335:249|300:230,1,95.9999970703126,6|0,3:2|0:0,0:0:0:0:
219,99,11297,2,0,B|220:129|220:129|194:154|194:154|195:194,1,95.9999970703126,8|0,3:2|0:0,0:0:0:0:
229,280,11547,1,2,0:0:0:0:
229,280,11631,2,0,P|265:246|345:239,1,95.9999970703126,2|0,3:2|0:0,0:0:0:0:
451,153,11964,2,0,P|402:163|329:129,1,95.9999970703126,8|0,3:2|0:0,0:0:0:0:
237,40,12297,6,0,B|209:42|186:26|186:26|197:51|191:80,1,95.9999970703126,2|0,3:2|0:0,0:0:0:0:
99,202,12631,2,0,P|111:143|98:85,1,95.9999970703126,10|0,3:2|0:0,0:0:0:0:
27,56,12964,1,2,3:2:0:0:
190,113,13131,1,0,0:0:0:0:
35,269,13297,2,0,P|17:224|17:176,1,95.9999970703126,10|0,3:2|0:0,0:0:0:0:
173,226,13631,6,0,B|218:235|264:212|258:190|310:175|363:191,1,191.999994140625,2|8,3:2|3:2,0:0:0:0:
479,282,14131,1,0,0:0:0:0:
479,282,14214,1,2,0:0:0:0:
479,282,14297,2,0,B|500:235|500:235|486:187,1,95.9999970703126,2|0,3:2|0:0,0:0:0:0:
443,78,14631,1,8,3:2:0:0:
354,221,14797,6,0,P|302:250|280:146,1,191.999994140625,2|0,0:0|0:0,0:0:0:0:
262,38,15297,2,0,P|193:59|170:92,1,95.9999970703126,8|0,3:2|0:0,0:0:0:0:
94,192,15631,2,0,P|109:121|93:84,1,95.9999970703126,0|0,3:2|0:0,0:0:0:0:
0,0,15964,1,10,3:2:0:0:
170,27,16131,1,2,0:0:0:0:
15,139,16297,6,0,B|1:169|1:169|21:241,1,95.9999970703126,2|0,3:2|0:0,0:0:0:0:
161,310,16631,2,0,B|177:250|177:250|164:219,1,95.9999970703126,8|0,3:2|0:0,0:0:0:0:
219,139,16881,1,2,0:0:0:0:
219,139,16964,2,0,P|265:154|326:153,1,95.9999970703126,2|0,3:2|0:0,0:0:0:0:
422,77,17297,1,8,3:2:0:0:
348,223,17464,6,0,B|306:273|325:343|325:343|301:309|245:310,1,191.999994140625,2|0,0:0|0:0,0:0:0:0:
188,308,17881,1,2,0:0:0:0:
188,308,17964,2,0,P|142:323|81:322,1,95.9999970703126,10|0,3:2|0:0,0:0:0:0:
38,212,18297,1,2,3:2:0:0:
0,351,18464,1,0,0:0:0:0:
125,231,18631,2,0,P|171:216|232:217,1,95.9999970703126,10|0,3:2|0:0,0:0:0:0:
336,297,18964,6,0,L|352:185,1,95.9999970703126,2|0,3:2|0:0,0:0:0:0:
466,117,19297,2,0,L|482:229,1,95.9999970703126,10|0,3:2|0:0,0:0:0:0:
432,318,19631,1,2,3:2:0:0:
349,201,19797,2,0,P|289:181|217:187,1,95.9999970703126,2|8,0:0|3:2,0:0:0:0:
146,274,20131,6,0,B|110:220|124:157|124:157|165:144|165:144|191:113,1,191.999994140625,2|2,3:2|3:2,0:0:0:0:
214,12,20631,1,10,3:2:0:0:
304,180,20797,2,0,P|391:182|379:86,1,191.999994140625,2|0,3:2|3:2,0:0:0:0:
287,80,21297,1,8,0:0:0:0:
287,80,21381,1,8,0:0:0:0:
287,80,21464,1,8,0:0:0:0:
214,237,21631,6,0,B|197:283|229:279|211:332,1,95.9999970703126,6|0,3:2|0:0,0:0:0:0:
49,351,21964,2,0,B|97:342|77:317|132:306,1,95.9999970703126,8|0,3:2|0:0,0:0:0:0:
210,353,22214,1,2,0:0:0:0:
210,353,22297,2,0,P|285:367|315:355,1,95.9999970703126,2|0,3:2|0:0,0:0:0:0:
422,264,22631,2,0,P|347:278|317:266,1,95.9999970703126,8|0,3:2|0:0,0:0:0:0:
253,150,22964,6,0,B|242:123|261:112|261:112|285:134|323:133,1,95.9999970703126,2|0,3:2|0:0,0:0:0:0:
419,39,23297,2,0,L|307:49,1,95.9999970703126,10|0,3:2|0:0,0:0:0:0:
207,60,23631,1,2,3:2:0:0:
353,131,23797,1,0,0:0:0:0:
190,266,23964,2,0,P|144:195|151:152,1,95.9999970703126,10|0,3:2|0:0,0:0:0:0:
269,115,24297,6,0,B|318:113|346:161|346:161|379:217|449:201,1,191.999994140625,2|8,3:2|3:2,0:0:0:0:
512,332,24797,1,0,0:0:0:0:
512,332,24881,1,2,0:0:0:0:
512,332,24964,2,0,B|463:316|463:316|416:335,1,95.9999970703126,2|0,3:2|0:0,0:0:0:0:
307,382,25297,1,8,3:2:0:0:
203,281,25464,6,0,P|210:202|290:250,1,191.999994140625,2|0,0:0|0:0,0:0:0:0:
227,366,25964,2,0,P|176:367|132:336,1,95.9999970703126,8|0,3:2|0:0,0:0:0:0:
21,259,26297,2,0,P|47:302|42:356,1,95.9999970703126,0|0,3:2|0:0,0:0:0:0:
136,234,26631,1,10,0:0:0:0:
136,234,26714,1,8,0:0:0:0:
136,234,26797,1,10,0:0:0:0:
278,307,26964,6,0,B|324:326|324:326|438:302,1,160,6|0,3:2|3:2,0:0:0:0:
483,101,27631,2,0,P|425:103|445:204,1,160,10|0,0:0|3:2,0:0:0:0:
302,224,28131,2,0,P|312:182|313:136,1,80,10|0,0:0|0:0,0:0:0:0:
253,41,28464,1,8,0:0:0:0:
206,106,28631,2,0,B|170:107|170:107|161:118|161:118|120:119,1,80,2|0,3:2|0:0,0:0:0:0:
21,69,28964,2,0,P|44:104|44:147,1,80,10|0,0:0|0:0,0:0:0:0:
12,261,29297,1,10,0:0:0:0:
12,261,29381,1,8,0:0:0:0:
12,261,29464,1,8,0:0:0:0:
181,367,29631,5,6,3:2:0:0:
12,261,29964,1,6,3:2:0:0:
181,367,30297,1,6,3:2:0:0:
272,255,30464,1,10,0:0:0:0:
181,367,30797,5,6,3:2:0:0:
138,25,31797,1,0,3:2:0:0:
67,123,31964,1,8,0:0:0:0:
67,123,32047,1,8,0:0:0:0:
67,123,32131,1,8,0:0:0:0:
165,182,32297,6,0,P|211:174|247:178,1,64,4|0,3:2|0:0,0:0:0:0:
312,261,32631,1,2,3:2:0:0:
312,261,32797,2,0,P|266:253|230:257,1,64,2|0,0:0|3:2,0:0:0:0:
328,338,33131,2,0,P|374:346|410:342,1,64,2|0,0:0|3:2,0:0:0:0:
482,275,33464,6,0,B|472:233|472:233|489:194|489:194|478:140,1,128,2|0,0:0|0:0,0:0:0:0:
380,95,33964,2,0,B|393:161,2,64,2|0|2,3:2|0:0|3:2,0:0:0:0:
310,188,34464,1,0,0:0:0:0:
310,188,34631,2,0,P|268:211|224:211,1,64,2|0,3:2|0:0,0:0:0:0:
137,218,34964,6,0,P|177:242|199:280,1,64,2|0,3:2|0:0,0:0:0:0:
207,373,35297,1,2,3:2:0:0:
207,373,35464,1,2,0:0:0:0:
308,317,35631,2,0,B|348:320|367:344|367:344|390:318|449:319,1,128,2|0,3:2|3:2,0:0:0:0:
359,152,36297,6,0,B|385:136|385:136|369:231,1,128,2|0,3:2|3:2,0:0:0:0:
473,85,36964,1,2,3:2:0:0:
375,32,37131,1,0,0:0:0:0:
375,32,37297,2,0,P|330:28|290:37,1,64,2|0,3:2|0:0,0:0:0:0:
211,90,37631,6,0,L|199:9,1,64,2|0,3:2|0:0,0:0:0:0:
117,104,37964,1,2,3:2:0:0:
117,104,38131,2,0,L|126:167,1,64,2|0,0:0|3:2,0:0:0:0:
41,245,38464,2,0,L|31:181,1,64,2|0,0:0|3:2,0:0:0:0:
145,241,38797,6,0,B|179:225|210:237|209:249|241:263|284:246,1,128,2|0,0:0|0:0,0:0:0:0:
371,197,39297,2,0,P|405:190|443:194,2,64,2|0|2,3:2|0:0|3:2,0:0:0:0:
335,309,39797,1,0,0:0:0:0:
335,309,39964,2,0,L|334:377,1,64,2|0,3:2|0:0,0:0:0:0:
227,328,40297,6,0,P|196:316|160:319,1,64,2|0,3:2|0:0,0:0:0:0:
68,379,40631,1,2,3:2:0:0:
68,379,40797,2,0,L|62:308,1,64,2|0,0:0|3:2,0:0:0:0:
127,218,41131,2,0,L|133:147,1,64,2|0,0:0|3:2,0:0:0:0:
80,56,41464,1,2,0:0:0:0:
80,56,41631,6,0,P|140:102|210:93,1,128,0|2,3:2|3:2,0:0:0:0:
353,3,42297,1,2,3:2:0:0:
305,108,42464,1,2,0:0:0:0:
305,108,42631,2,0,P|296:144|297:188,1,64,2|2,3:2|0:0,0:0:0:0:
300,199,42881,1,2,0:0:0:0:
315,223,42964,6,0,P|348:215|390:217,1,64,6|8,3:2|0:0,0:0:0:0:
460,302,43297,1,2,3:2:0:0:
460,302,43464,2,0,P|427:294|385:296,1,64,10|0,0:0|3:2,0:0:0:0:
300,357,43797,1,10,0:0:0:0:
232,263,43964,1,0,3:2:0:0:
184,368,44131,1,10,0:0:0:0:
184,368,44297,6,0,P|150:349|112:347,1,64,0|8,3:2|0:0,0:0:0:0:
25,287,44631,2,0,P|59:268|97:266,1,64,2|8,3:2|0:0,0:0:0:0:
197,282,44964,1,2,3:2:0:0:
132,176,45131,1,8,0:0:0:0:
132,176,45297,2,0,P|123:141|126:98,1,64,2|8,3:2|0:0,0:0:0:0:
84,3,45631,6,0,B|121:27|121:27|158:3|228:18,1,128,2|2,3:2|3:2,0:0:0:0:
310,65,46131,1,10,0:0:0:0:
310,65,46297,2,0,P|297:123|364:112,1,128,2|0,3:2|3:2,0:0:0:0:
424,41,46797,1,8,0:0:0:0:
424,41,46964,6,0,B|451:42|479:25|479:25|461:53|458:118,1,128,2|0,3:2|3:2,0:0:0:0:
504,198,47464,1,8,0:0:0:0:
504,198,47631,1,2,3:2:0:0:
412,267,47797,1,8,0:0:0:0:
412,267,47964,2,0,L|339:255,1,64,2|8,3:2|0:0,0:0:0:0:
257,186,48297,6,0,P|216:202|183:199,1,64,2|8,3:2|0:0,0:0:0:0:
145,102,48631,1,2,3:2:0:0:
145,102,48797,2,0,P|186:118|219:115,1,64,10|0,0:0|3:2,0:0:0:0:
301,52,49131,1,10,0:0:0:0:
200,0,49297,1,0,3:2:0:0:
145,102,49464,1,10,0:0:0:0:
145,102,49631,6,0,P|154:136|159:174,1,64,0|8,3:2|0:0,0:0:0:0:
59,223,49964,2,0,P|68:188|73:150,1,64,2|8,3:2|0:0,0:0:0:0:
148,247,50297,1,2,3:2:0:0:
74,336,50464,1,8,0:0:0:0:
74,336,50631,2,0,P|116:328|152:335,1,64,2|8,3:2|0:0,0:0:0:0:
245,368,50964,6,0,B|274:375|306:351|299:342|327:323|362:328,1,128,2|2,3:2|3:2,0:0:0:0:
464,381,51464,2,0,P|480:350|478:308,1,64,10|2,0:0|3:2,0:0:0:0:
506,208,51797,2,0,P|487:178|449:159,1,64,10|0,0:0|3:2,0:0:0:0:
377,85,52131,1,10,0:0:0:0:
377,85,52297,6,0,B|342:86|316:102|323:109|302:131|256:131,1,128,2|0,3:2|3:2,0:0:0:0:
96,31,52964,2,0,P|135:15|171:20,1,64,2|0,3:2|0:0,0:0:0:0:
250,53,53297,1,8,3:2:0:0:
152,140,53464,1,8,0:0:0:0:
152,140,53547,1,8,0:0:0:0:
152,140,53631,6,0,P|120:183|124:241,1,106.666666666667,6|0,3:2|0:0,0:0:0:0:
118,330,53964,2,0,P|162:303|214:309,1,106.666666666667,2|0,0:0|3:2,0:0:0:0:
276,359,54297,1,10,0:0:0:0:
432,176,54631,6,0,P|389:170|334:218,1,106.666666666667,2|0,3:2|3:2,0:0:0:0:
285,284,54964,2,0,P|268:243|199:220,1,106.666666666667,2|0,0:0|0:0,0:0:0:0:
134,229,55297,1,10,0:0:0:0:
260,130,55519,1,2,3:2:0:0:
260,130,55631,6,0,P|303:164|361:157,1,106.666666666667,2|0,3:2|0:0,0:0:0:0:
426,97,55964,2,0,P|375:117|351:171,1,106.666666666667,2|0,0:0|3:2,0:0:0:0:
399,244,56297,2,0,P|426:288|417:340,1,106.666666666667,10|2,0:0|3:2,0:0:0:0:
345,376,56631,5,2,3:2:0:0:
219,276,56853,1,2,3:2:0:0:
219,276,56964,2,0,P|160:257|103:263,1,106.666666666667,2|0,0:0|3:2,0:0:0:0:
40,201,57297,2,0,P|95:174|152:172,1,106.666666666667,10|0,0:0|0:0,0:0:0:0:
194,92,57630,6,0,P|241:121|298:114,1,106.666666666667,6|0,3:2|3:2,0:0:0:0:
371,63,57964,2,0,P|369:118|403:164,1,106.666666666667,2|0,0:0|3:2,0:0:0:0:
473,184,58297,1,10,0:0:0:0:
323,371,58630,6,0,P|280:324|222:324,1,106.666666666667,2|0,3:2|3:2,0:0:0:0:
240,222,58964,2,0,P|177:235|148:285,1,106.666666666667,2|0,0:0|3:2,0:0:0:0:
148,346,59297,1,8,0:1:0:0:
85,204,59519,1,2,0:0:0:0:
85,204,59630,6,0,B|123:149|123:149|100:47,1,160,6|8,3:2|0:0,0:0:0:0:
337,10,60296,2,0,L|325:96,1,80,8|0,0:0|3:2,0:0:0:0:
228,173,60630,2,0,L|216:87,1,80,8|0,0:0|3:2,0:0:0:0:
310,192,60963,5,8,3:2:0:0:
145,157,61130,1,0,3:2:0:0:
231,309,61296,2,0,P|285:291|330:295,1,80,8|0,0:0|0:0,0:0:0:0:
146,344,61630,2,0,P|87:318|34:320,1,80,8|2,0:0|3:2,0:0:0:0:
304,381,61963,1,10,0:0:0:0:
305,351,62046,1,8,0:0:0:0:
306,321,62129,1,10,0:0:0:0:
307,291,62213,1,8,0:0:0:0:
308,261,62296,6,0,B|309:228|309:228|303:215|303:215|305:172,1,80,6|0,3:2|0:0,0:0:0:0:
443,100,62630,2,0,B|444:133|444:133|438:146|438:146|440:189,1,80,0|0,3:2|0:0,0:0:0:0:
339,74,62963,1,0,3:2:0:0:
473,23,63130,1,0,0:0:0:0:
358,155,63296,2,0,P|301:149|271:120,1,80,0|0,3:2|0:0,0:0:0:0:
227,3,63629,5,0,3:2:0:0:
173,204,63796,1,8,0:0:0:0:
126,83,63963,1,8,0:0:0:0:
245,253,64130,1,8,0:0:0:0:
9,210,64296,1,8,0:0:0:0:
299,341,64629,5,8,0:0:0:0:
322,323,64712,1,8,0:0:0:0:
350,312,64795,1,8,0:0:0:0:
380,310,64879,1,8,0:0:0:0:
409,315,64963,6,0,B|422:322|429:335|429:335|423:309|412:264|429:209,1,143.999995605469,6|0,3:2|0:0,0:0:0:0:
482,145,65296,2,0,P|439:140|383:122,1,95.9999970703126,8|0,3:2|0:0,0:0:0:0:
313,35,65630,1,2,3:2:0:0:
222,183,65796,1,0,0:0:0:0:
222,183,65880,1,2,0:0:0:0:
222,183,65963,2,0,P|164:206|107:192,1,95.9999970703126,10|0,3:2|0:0,0:0:0:0:
6,133,66296,6,0,B|30:124|43:110|43:110|26:159|36:215,1,143.999995605469,2|0,3:2|0:0,0:0:0:0:
9,301,66630,2,0,P|83:284|121:302,1,95.9999970703126,8|0,3:2|0:0,0:0:0:0:
182,370,66963,1,2,3:2:0:0:
251,216,67129,1,0,0:0:0:0:
251,216,67213,1,2,0:0:0:0:
251,216,67296,2,0,P|304:190|345:188,1,95.9999970703126,10|0,3:2|0:0,0:0:0:0:
449,296,67629,6,0,B|467:148|467:148|445:170|409:184,1,191.999994140625,2|10,3:2|3:2,0:0:0:0:
288,116,68129,1,2,0:0:0:0:
359,25,68296,2,0,P|402:11|470:7,1,95.9999970703126,0|0,3:2|0:0,0:0:0:0:
405,132,68629,2,0,P|362:118|294:114,1,95.9999970703126,10|0,3:2|0:0,0:0:0:0:
119,138,68963,6,0,P|182:149|168:212,1,143.999995605469,2|0,3:2|0:0,0:0:0:0:
7,266,69296,2,0,P|18:202|81:216,1,143.999995605469,10|0,3:2|0:0,0:0:0:0:
134,378,69629,2,0,P|70:366|84:303,1,143.999995605469,2|0,3:2|0:0,0:0:0:0:
246,249,69963,2,0,P|234:312|171:298,1,143.999995605469,10|0,3:2|0:0,0:0:0:0:
182,178,70296,6,0,B|254:162|254:162|298:180|298:180|373:162,1,191.999994140625,6|8,3:2|3:2,0:0:0:0:
488,15,70796,1,0,0:0:0:0:
488,15,70879,1,2,0:0:0:0:
488,15,70963,2,0,B|433:19|412:67|412:67|444:112|511:97,1,191.999994140625,2|8,3:2|3:2,0:0:0:0:
348,8,71463,1,0,0:0:0:0:
262,157,71629,6,0,B|215:167|165:143|171:132|123:103|69:117,1,191.999994140625,2|8,3:2|3:2,0:0:0:0:
19,214,72129,1,0,0:0:0:0:
121,315,72296,2,0,P|147:272|153:218,1,95.9999970703126,2|0,3:2|0:0,0:0:0:0:
269,357,72629,2,0,P|242:314|236:260,1,95.9999970703126,10|0,3:2|0:0,0:0:0:0:
298,107,72963,6,0,P|365:109|311:187,1,191.999994140625,2|10,3:2|3:2,0:0:0:0:
194,131,73463,1,2,0:0:0:0:
194,131,73546,1,2,0:0:0:0:
194,131,73629,2,0,B|168:117|168:117|138:135|92:131,1,95.9999970703126,0|0,3:2|0:0,0:0:0:0:
190,15,73963,2,0,P|236:3|299:19,1,95.9999970703126,10|0,3:2|0:0,0:0:0:0:
377,132,74296,6,0,L|387:22,1,95.9999970703126,2|0,3:2|0:0,0:0:0:0:
252,90,74629,2,0,L|262:200,1,95.9999970703126,10|0,3:2|0:0,0:0:0:0:
405,194,74963,2,0,L|415:84,1,95.9999970703126,2|0,3:2|0:0,0:0:0:0:
280,152,75296,1,10,3:2:0:0:
453,290,75463,1,8,0:0:0:0:
453,290,75546,1,10,0:0:0:0:
453,290,75629,6,0,P|379:281|318:332,1,143.999995605469,6|0,3:2|0:0,0:0:0:0:
235,359,75963,2,0,P|251:292|245:234,1,95.9999970703126,8|0,3:2|0:0,0:0:0:0:
194,164,76296,1,2,3:2:0:0:
348,262,76463,1,0,0:0:0:0:
348,262,76546,1,2,0:0:0:0:
348,262,76629,2,0,P|415:280|463:251,1,95.9999970703126,10|0,3:2|0:0,0:0:0:0:
429,127,76963,6,0,B|414:111|401:91|401:91|371:129|403:195,1,143.999995605469,2|0,3:2|0:0,0:0:0:0:
337,258,77296,2,0,P|286:231|232:223,1,95.9999970703126,8|0,3:2|0:0,0:0:0:0:
146,279,77629,1,2,3:2:0:0:
38,143,77796,1,0,0:0:0:0:
38,143,77879,1,2,0:0:0:0:
38,143,77963,2,0,B|16:175|16:175|30:240,1,95.9999970703126,10|0,3:2|0:0,0:0:0:0:
62,370,78296,6,0,B|131:382|166:325|166:325|135:291|135:291|124:240,1,191.999994140625,2|10,3:2|3:2,0:0:0:0:
162,116,78796,1,2,0:0:0:0:
241,199,78963,2,0,P|285:181|347:180,1,95.9999970703126,0|0,3:2|0:0,0:0:0:0:
452,260,79296,2,0,P|404:257|345:275,1,95.9999970703126,10|0,3:2|0:0,0:0:0:0:
429,143,79629,6,0,B|452:42|452:42|433:55|397:61,1,143.999995605469,2|0,3:2|0:0,0:2:0:0:
242,82,79963,2,0,B|343:105|343:105|330:86|324:50,1,143.999995605469,10|0,3:2|0:0,0:0:0:0:
242,166,80296,2,0,B|141:143|141:143|154:162|160:198,1,143.999995605469,2|0,3:2|0:0,0:0:0:0:
82,304,80629,1,10,3:2:0:0:
82,304,80713,1,8,0:0:0:0:
82,304,80796,2,0,L|74:245,1,47.9999985351563,8|8,0:0|0:0,0:0:0:0:
166,328,80963,6,0,B|209:308|251:326|253:346|304:364|353:340,1,191.999994140625,6|8,3:2|3:2,0:0:0:0:
337,157,81463,1,0,0:0:0:0:
337,157,81546,1,2,0:0:0:0:
337,157,81629,2,0,B|309:145|291:119|291:119|304:258,1,191.999994140625,2|8,3:2|3:2,0:0:0:0:
443,351,82129,1,0,0:0:0:0:
505,189,82296,6,0,P|501:124|406:161,1,191.999994140625,2|8,3:2|3:2,0:0:0:0:
418,266,82796,1,0,0:0:0:0:
296,188,82963,2,0,P|245:167|174:177,1,95.9999970703126,2|0,3:2|0:0,0:0:0:0:
339,59,83296,2,0,P|288:79|217:69,1,95.9999970703126,10|0,3:2|0:0,0:0:0:0:
81,30,83629,6,0,B|130:4|130:4|190:55|123:162,1,191.999994140625,6|10,3:2|3:2,0:0:0:0:
49,240,84129,1,2,0:0:0:0:
49,240,84213,1,2,0:0:0:0:
49,240,84296,2,0,B|79:231|79:231|109:249|159:242,1,95.9999970703126,0|0,3:2|0:0,0:0:0:0:
267,173,84629,2,0,P|235:224|247:292,1,95.9999970703126,10|0,3:2|0:0,0:0:0:0:
318,377,84963,5,14,3:2:0:0:
379,147,85296,1,14,3:2:0:0:
150,210,85629,1,14,3:2:0:0:
318,377,85963,1,10,3:2:0:0:
289,260,86129,1,8,3:2:0:0:
289,260,86213,1,8,0:0:0:0:
289,260,86296,6,0,P|334:272|383:259,1,95.9999970703126,6|0,3:2|0:0,0:0:0:0:
469,122,86629,2,0,P|424:134|388:169,1,95.9999970703126,8|0,3:2|0:0,0:0:0:0:
380,260,86879,1,2,0:0:0:0:
380,260,86963,2,0,B|407:291|407:291|395:365,1,95.9999970703126,2|0,3:2|0:0,0:0:0:0:
240,384,87296,2,0,B|213:353|213:353|225:279,1,95.9999970703126,8|0,3:2|0:0,0:0:0:0:
230,134,87629,6,0,P|244:171|271:142,1,95.9999970703126,2|0,3:2|0:0,0:0:0:0:
241,303,87963,2,0,P|193:300|157:271,1,95.9999970703126,10|0,3:2|0:0,0:0:0:0:
115,132,88296,1,2,3:2:0:0:
32,273,88463,1,0,0:0:0:0:
233,211,88629,2,0,B|290:208|267:230|339:228,1,95.9999970703126,10|0,3:2|0:0,0:0:0:0:
456,328,88963,6,0,B|473:271|473:271|447:206|447:206|466:123,1,191.999994140625,2|8,3:2|3:2,0:0:0:0:
502,11,89463,1,0,0:0:0:0:
502,11,89546,1,2,0:0:0:0:
502,11,89629,2,0,P|455:38|387:33,1,95.9999970703126,2|0,3:2|0:0,0:0:0:0:
293,5,89963,1,8,3:2:0:0:
356,156,90129,6,0,B|366:186|401:204|401:204|337:181|258:206,1,191.999994140625,2|0,0:0|0:0,0:0:0:0:
194,279,90629,2,0,P|250:277|289:296,1,95.9999970703126,8|0,3:2|0:0,0:0:0:0:
430,304,90963,2,0,P|375:320|344:349,1,95.9999970703126,0|0,3:2|0:0,0:0:0:0:
349,230,91296,1,10,3:2:0:0:
228,354,91463,1,2,0:0:0:0:
112,201,91629,6,0,B|94:135|94:135|112:90,1,95.9999970703126,2|0,3:2|0:0,0:0:0:0:
251,35,91963,2,0,B|269:101|269:101|251:146,1,95.9999970703126,8|0,3:2|0:0,0:0:0:0:
200,203,92213,1,2,0:0:0:0:
200,203,92296,2,0,P|258:210|306:246,1,95.9999970703126,2|0,3:2|0:0,0:0:0:0:
365,339,92629,1,8,3:2:0:0:
459,205,92796,6,0,B|488:154|475:83|475:83|452:116|410:125,1,191.999994140625,2|0,0:0|0:0,0:0:0:0:
351,63,93213,1,2,0:0:0:0:
351,63,93296,2,0,P|305:48|252:46,1,95.9999970703126,10|0,3:2|0:0,0:0:0:0:
176,141,93629,1,2,3:2:0:0:
122,7,93796,1,0,0:0:0:0:
265,135,93963,2,0,B|283:179|283:179|265:225,1,95.9999970703126,10|2,3:2|0:0,0:0:0:0:
242,347,94296,6,0,P|207:314|161:302,1,95.9999970703126,2|0,3:2|0:0,0:0:0:0:
35,231,94629,2,0,P|82:228|122:203,1,95.9999970703126,10|0,3:2|0:0,0:0:0:0:
147,90,94963,1,2,3:2:0:0:
219,213,95129,2,0,B|243:216|268:206|261:201|281:192|311:196,1,95.9999970703126,2|8,0:0|3:2,0:0:0:0:
418,293,95463,6,0,B|416:268|435:244|435:244|474:237|497:210|487:165|467:147|426:153,1,191.999994140625,2|2,3:2|3:2,0:0:0:0:
336,200,95963,1,10,3:2:0:0:
211,129,96129,2,0,B|180:93|186:39|186:39|160:86|97:94,1,191.999994140625,2|0,3:2|3:2,0:0:0:0:
131,194,96629,1,8,3:2:0:0:
131,194,96713,1,8,0:0:0:0:
131,194,96796,1,8,0:0:0:0:
274,65,96963,6,0,B|297:52|321:58|321:58|341:75|377:74,1,95.9999970703126,6|0,3:2|0:0,0:0:0:0:
502,119,97296,2,0,B|479:105|472:81|472:81|477:55|458:24,1,95.9999970703126,8|0,3:2|0:0,0:0:0:0:
374,72,97546,1,2,0:0:0:0:
374,72,97629,2,0,P|393:118|392:174,1,95.9999970703126,2|0,3:2|0:0,0:0:0:0:
321,310,97963,2,0,P|301:263|302:207,1,95.9999970703126,8|0,3:2|0:0,0:0:0:0:
477,239,98296,6,0,L|377:246,1,95.9999970703126,2|0,3:2|0:0,0:0:0:0:
229,306,98629,2,0,L|129:299,1,95.9999970703126,10|0,3:2|0:0,0:0:0:0:
11,377,98963,1,2,3:2:0:0:
77,228,99129,1,0,0:0:0:0:
219,384,99296,2,0,P|278:368|307:328,1,95.9999970703126,10|0,3:2|0:0,0:0:0:0:
318,180,99629,6,0,P|302:217|406:220,1,191.999994140625,2|8,3:2|3:2,0:0:0:0:
423,94,100129,1,0,0:0:0:0:
423,94,100213,1,2,0:0:0:0:
423,94,100296,2,0,P|357:53|328:59,1,95.9999970703126,2|0,3:2|0:0,0:0:0:0:
243,131,100629,1,8,3:2:0:0:
91,68,100796,6,0,B|109:29|164:29|164:29|140:54|114:88|122:159,1,191.999994140625,2|0,0:0|0:0,0:0:0:0:
251,226,101296,2,0,L|240:106,1,95.9999970703126,8|0,3:2|0:0,0:0:0:0:
120,208,101629,2,0,L|109:328,1,95.9999970703126,0|0,3:2|0:0,0:0:0:0:
259,234,101963,1,10,3:2:0:0:
259,234,102046,1,8,0:0:0:0:
259,234,102129,1,10,0:0:0:0:
368,351,102296,6,0,B|424:375|473:324|473:324|444:320|419:302,1,160,6|0,3:2|3:2,0:0:0:0:
507,114,102963,2,0,B|459:141|459:141|474:255,1,160,10|0,3:2|3:2,0:0:0:0:
359,204,103463,2,0,B|369:124,1,80,10|0,0:0|0:0,0:0:0:0:
296,29,103796,1,8,0:0:0:0:
246,92,103963,2,0,P|194:106|154:91,1,80,2|0,3:2|0:0,0:0:0:0:
63,43,104296,2,0,L|55:148,1,80,10|0,3:2|0:0,0:0:0:0:
56,250,104629,1,10,3:2:0:0:
56,250,104713,1,8,0:0:0:0:
56,250,104796,1,8,0:0:0:0:
210,122,104963,5,6,3:2:0:0:
56,250,105296,1,6,3:2:0:0:
210,122,105629,1,6,3:2:0:0:
318,217,105796,1,10,0:0:0:0:
210,122,106129,5,6,3:2:0:0:
330,304,107129,1,0,3:2:0:0:
410,216,107296,1,8,3:2:0:0:
410,216,107380,1,8,0:0:0:0:
410,216,107463,1,8,0:0:0:0:
304,142,107629,6,0,P|261:157|218:150,1,71.9999978027344,4|0,3:2|0:0,0:0:0:0:
142,70,107963,1,10,0:0:0:0:
142,70,108129,2,0,L|129:160,1,71.9999978027344,2|0,3:2|0:0,0:0:0:0:
52,106,108463,1,2,3:2:0:0:
121,228,108629,1,8,0:0:0:0:
235,155,108796,6,0,P|278:140|321:147,1,71.9999978027344,2|0,3:2|0:0,0:0:0:0:
406,221,109129,1,0,3:2:0:0:
406,221,109296,2,0,P|391:186|390:144,1,71.9999978027344,10|0,0:0|0:0,0:0:0:0:
427,74,109629,1,2,0:2:0:0:
286,219,109796,1,0,3:2:0:0:
423,298,109963,2,0,P|461:285|504:288,1,71.9999978027344,10|0,3:2|0:0,0:0:0:0:
372,365,110296,6,0,P|334:378|291:375,1,71.9999978027344,2|0,3:2|0:0,0:0:0:0:
200,297,110629,1,10,0:0:0:0:
200,297,110796,2,0,L|193:377,1,71.9999978027344,2|0,3:2|0:0,0:0:0:0:
93,265,111129,2,0,L|100:345,1,71.9999978027344,0|8,3:2|0:0,0:0:0:0:
192,225,111463,6,0,L|185:305,1,71.9999978027344,0|0,3:2|0:0,0:0:0:0:
107,348,111796,1,0,3:2:0:0:
41,196,111963,2,0,P|77:180|115:181,1,71.9999978027344,10|0,0:2|0:0,0:0:0:0:
216,253,112296,1,2,0:2:0:0:
264,101,112463,1,0,3:2:0:0:
264,101,112629,2,0,B|293:93|293:93|359:105,1,71.9999978027344,10|0,3:2|0:0,0:0:0:0:
453,48,112963,6,0,B|438:127,1,71.9999978027344,2|0,3:2|0:0,0:0:0:0:
489,215,113296,1,10,0:0:0:0:
489,215,113463,2,0,P|451:213|411:241,1,71.9999978027344,2|0,3:2|0:0,0:0:0:0:
394,333,113796,1,2,3:2:0:0:
335,170,113963,1,8,0:0:0:0:
242,250,114129,6,0,P|204:258|164:247,1,71.9999978027344,2|0,3:2|0:0,0:0:0:0:
111,160,114463,1,8,0:0:0:0:
68,311,114629,2,0,L|88:239,1,71.9999978027344,2|0,3:2|3:2,0:0:0:0:
132,74,114963,1,10,0:0:0:0:
172,250,115129,1,0,3:2:0:0:
29,149,115296,1,10,0:0:0:0:
208,151,115462,1,0,3:2:0:0:
39,286,115629,5,14,0:0:0:0:
305,214,117796,1,2,0:0:0:0:
383,302,117963,1,8,0:0:0:0:
383,302,118046,1,8,0:0:0:0:
383,302,118129,2,0,L|435:293,1,35.9999989013672,8|8,0:0|0:0,0:0:0:0:
472,222,118296,6,0,P|456:186|458:136,1,71.9999978027344,4|0,3:2|0:0,0:0:0:0:
500,47,118629,2,0,L|425:33,1,71.9999978027344,10|2,3:2|0:0,0:0:0:0:
323,117,118963,1,0,3:2:0:0:
348,112,119046,1,2,0:0:0:0:
373,108,119129,1,2,0:0:0:0:
305,214,119296,2,0,P|270:226|219:219,1,71.9999978027344,8|2,3:2|0:0,0:0:0:0:
119,282,119629,6,0,L|136:202,1,71.9999978027344,0|0,3:2|0:0,0:0:0:0:
38,122,119963,2,0,L|55:202,1,71.9999978027344,10|0,3:2|0:0,0:0:0:0:
160,119,120296,2,0,P|205:110|247:121,1,71.9999978027344,2|0,3:2|0:0,0:0:0:0:
262,131,120546,1,2,0:0:0:0:
292,149,120629,2,0,P|337:157|379:147,1,71.9999978027344,10|0,3:2|0:0,0:0:0:0:
450,57,120963,6,0,B|466:90|466:90|463:134,1,71.9999978027344,2|0,3:2|0:0,0:0:0:0:
453,243,121296,1,10,3:2:0:0:
453,243,121463,1,2,0:0:0:0:
362,153,121629,2,0,P|316:144|275:155,1,71.9999978027344,2|0,3:2|0:0,0:0:0:0:
216,226,121963,2,0,P|261:234|303:224,1,71.9999978027344,8|0,3:2|0:0,0:0:0:0:
380,340,122296,6,0,L|366:255,1,71.9999978027344,2|0,3:2|0:0,0:0:0:0:
269,313,122629,2,0,L|255:398,1,71.9999978027344,8|0,3:2|0:0,0:0:0:0:
168,288,122963,1,2,3:2:0:0:
51,371,123129,1,0,0:0:0:0:
51,371,123213,1,0,0:0:0:0:
51,371,123296,2,0,P|41:335|40:281,1,71.9999978027344,10|0,3:2|0:0,0:0:0:0:
8,189,123629,6,0,P|47:202|89:197,1,71.9999978027344,2|0,3:2|0:0,0:0:0:0:
164,123,123963,1,10,3:2:0:0:
164,123,124129,1,2,0:0:0:0:
235,231,124296,1,2,3:2:0:0:
240,206,124379,1,2,0:0:0:0:
245,181,124463,1,2,0:0:0:0:
322,256,124629,2,0,P|362:266|395:264,1,71.9999978027344,10|2,3:2|0:0,0:0:0:0:
477,195,124963,6,0,L|463:108,1,71.9999978027344,0|0,3:2|0:0,0:0:0:0:
386,20,125296,2,0,L|372:107,1,71.9999978027344,10|0,3:2|0:0,0:0:0:0:
355,197,125629,1,2,3:2:0:0:
280,85,125796,1,0,0:0:0:0:
280,85,125879,1,0,0:0:0:0:
280,85,125963,2,0,P|235:69|197:70,1,71.9999978027344,10|0,3:2|0:0,0:0:0:0:
94,127,126296,6,0,P|131:137|158:167,1,71.9999978027344,2|0,3:2|0:0,0:0:0:0:
169,289,126629,1,10,3:2:0:0:
169,289,126796,2,0,P|189:249|245:232,1,71.9999978027344,2|2,0:0|3:2,0:0:0:0:
312,272,127129,2,0,P|353:282|395:275,1,71.9999978027344,2|10,0:0|3:2,0:0:0:0:
492,349,127463,1,2,0:0:0:0:
492,349,127629,6,0,B|454:337|422:347|420:361|379:370|331:357,1,143.999995605469,2|8,3:2|3:2,0:0:0:0:
244,224,128296,1,2,3:2:0:0:
107,305,128463,1,0,0:0:0:0:
60,195,128629,1,8,0:0:0:0:
60,195,128713,1,8,0:0:0:0:
60,195,128796,2,0,L|108:203,1,35.9999989013672,8|8,0:0|0:0,0:0:0:0:
164,145,128963,6,0,B|211:112|215:146|280:106,1,106.666666666667,6|2,3:2|0:2,0:0:0:0:
324,39,129296,2,0,B|381:38|365:69|441:73,1,106.666666666667,2|0,3:2|3:2,0:0:0:0:
497,40,129629,1,10,0:0:0:0:
373,207,129963,6,0,P|350:187|268:205,1,106.666666666667,2|0,3:2|3:2,0:0:0:0:
217,267,130296,2,0,P|247:263|304:325,1,106.666666666667,2|0,0:0|0:2,0:0:0:0:
271,384,130629,1,10,3:2:0:0:
378,266,130851,1,2,3:2:0:0:
378,266,130963,6,0,B|430:246|431:300|506:268,1,106.666666666667,2|0,3:2|0:0,0:0:0:0:
468,181,131296,2,0,B|424:145|470:118|405:69,1,106.666666666667,2|0,0:0|3:2,0:0:0:0:
349,145,131629,2,0,B|340:200|293:173|283:254,1,106.666666666667,10|2,3:2|3:2,0:0:0:0:
244,296,131963,5,2,3:2:0:0:
116,207,132185,1,2,3:2:0:0:
116,207,132296,2,0,B|100:165|100:165|115:92,1,106.666666666667,2|0,0:0|3:2,0:0:0:0:
70,18,132629,2,0,B|38:49|38:49|22:122,1,106.666666666667,10|8,0:0|0:0,0:0:0:0:
6,205,132963,6,0,P|63:189|127:197,1,106.666666666667,6|0,3:2|0:0,0:0:0:0:
177,260,133296,2,0,P|125:271|80:299,1,106.666666666667,2|0,0:0|3:2,0:0:0:0:
43,370,133629,1,10,0:0:0:0:
281,339,133963,6,0,B|301:303|301:303|277:248|289:190,1,106.666666666667,2|0,3:2|0:0,0:0:0:0:
361,181,134296,2,0,B|341:145|341:145|365:90|353:32,1,106.666666666667,2|0,0:0|3:2,0:0:0:0:
323,9,134629,1,8,1:0:0:0:
191,100,134851,1,2,0:2:0:0:
191,100,134963,6,0,B|134:92|134:92|98:49|98:49|40:41,1,160,6|8,3:2|0:0,0:0:0:0:
247,181,135629,2,0,P|264:218|265:274,1,80,8|0,0:0|3:2,0:0:0:0:
380,301,135963,2,0,P|362:263|361:207,1,80,8|0,0:0|3:2,0:0:0:0:
303,349,136296,5,8,0:0:0:0:
443,241,136463,1,0,3:2:0:0:
255,196,136629,2,0,B|216:190|216:190|161:217,1,80,8|0,0:0|3:2,0:0:0:0:
73,305,136963,2,0,B|97:273|97:273|101:212,1,80,8|2,0:0|3:2,0:0:0:0:
49,39,137296,1,10,0:0:0:0:
48,69,137379,1,8,0:0:0:0:
47,99,137462,1,8,0:0:0:0:
46,129,137546,1,8,0:0:0:0:
45,159,137629,6,0,B|84:137|134:144,1,80,6|0,3:2|0:0,0:0:0:0:
279,60,137963,2,0,B|240:82|190:75,1,80,0|0,3:2|3:2,0:0:0:0:
125,17,138296,1,0,3:2:0:0:
168,154,138463,1,0,3:2:0:0:
307,47,138629,2,0,P|362:33|400:50,1,80,0|0,3:2|3:2,0:0:0:0:
481,165,138962,5,0,3:2:0:0:
274,191,139129,1,8,0:2:0:0:
380,321,139296,1,8,0:2:0:0:
354,114,139463,1,8,0:2:0:0:
266,336,139629,1,8,0:2:0:0:
120,50,139963,5,8,3:2:0:0:
102,73,140046,1,8,0:0:0:0:
91,101,140129,1,8,0:0:0:0:
89,131,140213,1,8,0:0:0:0:
94,160,140297,6,0,B|135:174|171:162|161:151|201:137|247:157,1,143.999995605469,6|0,3:2|0:0,0:0:0:0:
327,131,140629,2,0,P|310:194|312:227,1,95.9999970703126,8|0,3:2|0:0,0:0:0:0:
399,300,140963,1,2,3:2:0:0:
232,257,141129,1,0,0:0:0:0:
232,257,141213,1,2,0:0:0:0:
232,257,141296,2,0,P|167:240|126:247,1,95.9999970703126,10|0,3:2|0:0,0:0:0:0:
28,351,141629,6,0,B|55:261|55:261|28:243|19:203,1,143.999995605469,2|0,3:2|0:0,0:0:0:0:
76,140,141963,2,0,P|116:147|167:115,1,95.9999970703126,8|0,3:2|0:0,0:0:0:0:
203,13,142296,1,2,3:2:0:0:
266,173,142463,1,0,0:0:0:0:
266,173,142546,1,2,0:0:0:0:
266,173,142629,2,0,P|314:152|366:148,1,95.9999970703126,10|0,3:2|0:0,0:0:0:0:
497,82,142963,6,0,B|443:94|443:94|423:178|518:221,1,191.999994140625,2|10,3:2|3:2,0:0:0:0:
422,344,143463,1,2,0:0:0:0:
327,278,143629,2,0,B|282:260|282:260|204:293,1,95.9999970703126,0|0,3:2|0:0,0:0:0:0:
112,370,143963,2,0,P|95:318|98:266,1,95.9999970703126,10|0,3:2|0:0,0:0:0:0:
238,148,144296,6,0,P|252:85|189:73,1,143.999995605469,2|0,3:2|0:0,0:0:0:0:
77,202,144629,2,0,P|88:138|151:152,1,143.999995605469,10|0,3:2|0:0,0:0:0:0:
204,314,144963,2,0,P|218:251|155:239,1,143.999995605469,2|0,3:2|0:0,0:0:0:0:
43,367,145296,2,0,P|54:303|117:317,1,143.999995605469,10|0,3:2|0:0,0:0:0:0:
278,359,145629,6,0,P|308:297|266:174,1,191.999994140625,6|8,3:2|3:2,0:0:0:0:
359,10,146129,1,0,0:0:0:0:
359,10,146213,1,2,0:0:0:0:
359,10,146296,2,0,B|339:33|325:44|325:44|392:49|385:85|492:74,1,191.999994140625,2|8,3:2|3:2,0:0:0:0:
320,173,146796,1,0,0:0:0:0:
200,47,146963,6,0,B|159:13|159:13|75:37|75:37|60:87,1,191.999994140625,2|8,3:2|3:2,0:0:0:0:
155,151,147463,1,0,0:0:0:0:
64,262,147629,2,0,P|117:278|148:325,1,95.9999970703126,2|0,3:2|0:0,0:0:0:0:
240,202,147963,2,0,P|280:164|336:160,1,95.9999970703126,10|0,3:2|0:0,0:0:0:0:
448,272,148296,6,0,B|397:256|352:278|352:292|311:318|248:296,1,191.999994140625,2|10,3:2|3:2,0:0:0:0:
141,193,148796,1,2,0:0:0:0:
141,193,148879,1,2,0:0:0:0:
141,193,148963,2,0,B|120:215|98:219|98:219|123:227|143:249,1,95.9999970703126,0|0,3:2|0:0,0:0:0:0:
289,218,149296,2,0,P|264:172|265:97,1,95.9999970703126,10|0,3:2|0:0,0:0:0:0:
364,16,149629,6,0,L|482:46,1,95.9999970703126,2|0,3:2|0:0,0:0:0:0:
366,151,149962,2,0,L|248:181,1,95.9999970703126,10|0,3:2|0:0,0:0:0:0:
175,54,150296,2,0,L|293:84,1,95.9999970703126,2|0,3:2|0:0,0:0:0:0:
177,201,150629,1,10,3:2:0:0:
46,34,150796,1,8,0:0:0:0:
46,34,150879,1,10,0:0:0:0:
46,34,150962,6,0,B|14:75|14:75|35:180,1,143.999995605469,6|0,3:2|0:0,0:0:0:0:
19,262,151296,2,0,P|61:243|118:247,1,95.9999970703126,8|0,3:2|0:0,0:0:0:0:
199,317,151629,1,2,3:2:0:0:
302,178,151796,1,0,0:0:0:0:
302,178,151879,1,2,0:0:0:0:
302,178,151962,2,0,P|356:161|418:172,1,95.9999970703126,10|0,3:2|0:0,0:0:0:0:
506,270,152296,6,0,B|457:257|457:257|415:285|415:285|354:274,1,143.999995605469,2|0,3:2|0:0,0:0:0:0:
300,341,152629,2,0,P|273:280|279:246,1,95.9999970703126,8|0,3:2|0:0,0:0:0:0:
347,161,152962,1,2,3:2:0:0:
188,219,153129,1,0,0:0:0:0:
188,219,153212,1,2,0:0:0:0:
188,219,153296,2,0,P|141:231|92:227,1,95.9999970703126,10|0,3:2|0:0,0:0:0:0:
38,73,153629,6,0,B|65:52|100:57|120:86|129:97|129:97|138:111|175:142|225:122,1,191.999994140625,2|10,3:2|3:2,0:0:0:0:
312,18,154129,1,2,0:0:0:0:
380,110,154296,2,0,P|440:117|483:93,1,95.9999970703126,0|0,3:2|0:0,0:0:0:0:
392,223,154629,2,0,P|344:227|301:207,1,95.9999970703126,10|0,3:2|0:0,0:0:0:0:
185,79,154962,6,0,B|160:57|160:57|109:109|169:167,1,143.999995605469,2|0,3:2|0:0,0:0:0:0:
297,202,155296,2,0,B|328:191|328:191|309:121|228:144,1,143.999995605469,10|0,3:2|0:0,0:0:0:0:
135,237,155629,2,0,B|128:269|128:269|198:287|219:206,1,143.999995605469,2|0,3:2|0:0,0:0:0:0:
288,328,155962,1,10,3:2:0:0:
288,328,156046,1,8,0:0:0:0:
288,328,156129,2,0,L|280:269,1,47.9999985351563,8|8,0:0|0:0,0:0:0:0:
192,362,156296,6,0,B|161:350|128:355|123:365|85:386|49:360|49:360|82:306,1,191.999994140625,6|8,3:2|3:2,0:0:0:0:
22,136,156796,1,0,0:0:0:0:
22,136,156879,1,2,0:0:0:0:
22,136,156962,2,0,B|48:144|64:174|64:174|77:148|87:122|132:123|172:142|156:197,1,191.999994140625,2|8,3:2|3:2,0:0:0:0:
72,322,157462,1,0,0:0:0:0:
220,233,157629,6,0,B|272:191|330:220|330:220|327:262|279:282,1,191.999994140625,2|8,3:2|3:2,0:0:0:0:
236,380,158129,1,0,0:0:0:0:
395,312,158296,2,0,P|422:259|423:214,1,95.9999970703126,2|0,3:2|0:0,0:0:0:0:
329,362,158629,2,0,P|296:312|290:267,1,95.9999970703126,10|0,3:2|0:0,0:0:0:0:
385,132,158962,6,0,B|328:169|251:133|251:133|277:118|291:95,1,191.999994140625,6|10,3:2|3:2,0:0:0:0:
184,14,159462,1,2,0:0:0:0:
184,14,159546,1,2,0:0:0:0:
184,14,159629,2,0,P|235:0|285:12,1,95.9999970703126,0|0,3:2|0:0,0:0:0:0:
170,106,159962,2,0,P|113:85|62:103,1,95.9999970703126,10|0,3:2|0:0,0:0:0:0:
9,219,160296,5,14,3:2:0:0:
235,149,160629,1,14,3:2:0:0:
181,380,160962,1,14,3:2:0:0:
9,219,161296,1,10,3:2:0:0:
126,243,161462,1,8,0:0:0:0:
126,243,161546,1,8,0:0:0:0:
126,243,161629,6,0,P|202:252|321:233,1,160,6|0,3:2|0:0,0:0:0:0:
377,113,162184,1,0,3:2:0:0:
377,113,162295,2,0,P|351:163|385:222,1,106.666666666667,8|0,3:2|3:0,0:0:0:0:
447,260,162629,6,0,P|473:310|439:369,1,106.666666666667,0|0,3:2|3:2,0:0:0:0:
361,344,162962,2,0,P|325:305|274:305,1,106.666666666667,0|0,0:0|3:2,0:0:0:0:
211,354,163295,1,8,0:2:0:0:
117,224,163517,1,0,3:2:0:0:
117,224,163629,6,0,L|136:108,1,106.666666666667,0|0,3:2|3:2,0:0:0:0:
204,52,163962,2,0,L|223:168,1,106.666666666667,0|0,0:2|3:2,0:0:0:0:
291,224,164295,2,0,L|310:108,1,106.666666666667,8|0,0:0|3:2,0:0:0:0:
373,47,164629,6,0,P|429:75|486:60,1,106.666666666667,0|0,3:2|3:2,0:0:0:0:
508,156,164962,2,0,P|452:184|395:169,1,106.666666666667,0|0,3:2|3:2,0:0:0:0:
314,175,165295,2,0,L|322:122,2,53.3333333333333,8|0|0,0:0|0:0|3:2,0:0:0:0:
298,254,165629,5,4,3:2:0:0:
183,142,165851,1,0,0:2:0:0:
183,142,165962,2,0,P|125:123|72:135,1,106.666666666667,0|0,3:2|3:2,0:0:0:0:
9,194,166295,2,0,L|0:141,2,53.3333333333333,8|0|0,0:0|0:0|3:2,0:0:0:0:
23,273,166629,5,0,3:2:0:0:
181,238,166851,1,0,3:2:0:0:
181,238,166962,2,0,B|241:233|227:259|291:256,1,106.666666666667,0|0,0:0|3:2,0:0:0:0:
352,215,167295,1,8,0:0:0:0:
467,325,167517,1,0,3:2:0:0:
467,325,167629,6,0,B|485:205|485:205|465:222|439:233,2,160,4|0|8,3:2|0:0|0:0,0:0:0:0:
382,370,168406,2,0,P|350:358|324:353,1,53.3333333333333,0|0,3:2|3:2,0:0:0:0:
238,382,168629,6,0,P|170:350|171:296,1,106.666666666667,0|0,3:2|3:2,0:0:0:0:
178,233,168962,2,0,P|183:307|136:333,1,106.666666666667,0|0,0:0|3:2,0:0:0:0:
68,302,169295,1,8,0:2:0:0:
68,302,169379,1,8,0:0:0:0:
68,302,169462,2,0,L|64:248,1,40,8|8,0:0|0:0,0:0:0:0:
16,198,169629,6,0,P|45:181|77:122,1,88.000002685547,4|0,3:2|0:0,0:0:0:0:
73,48,169962,1,0,3:2:0:0:
146,180,170129,1,0,0:0:0:0:
192,29,170295,1,0,3:2:0:0:
74,136,170462,1,0,0:0:0:0:
225,186,170629,2,0,P|287:197|337:189,1,88.000002685547,0|0,3:2|0:0,0:0:0:0:
388,108,170962,5,0,3:2:0:0:
248,276,171128,1,8,3:2:0:0:
263,57,171295,1,8,3:2:0:0:
379,243,171462,1,8,3:2:0:0:
176,161,171628,1,8,3:2:0:0:
434,178,171795,1,8,3:2:0:0:
331,312,171962,2,0,P|278:276|229:280,1,95.9999970703126,8|8,3:2|3:2,0:0:0:0:
123,375,172295,6,0,B|109:317|109:317|119:273|119:273|104:201,1,155.999992858887,6|0,3:2|0:0,0:0:0:0:
136,120,172629,2,0,B|151:109|162:92|162:92|195:112|239:105,1,103.999995239258,10|0,3:2|0:0,0:0:0:0:
335,27,172962,1,2,3:2:0:0:
428,189,173129,2,0,P|460:140|448:68,1,103.999995239258,2|8,0:0|3:2,0:0:0:0:
357,115,173462,1,2,0:0:0:0:
449,278,173629,5,2,3:2:0:0:
312,352,173795,2,0,P|260:333|191:328,1,103.999995239258,2|8,0:0|3:2,0:0:0:0:
101,247,174129,2,0,P|153:228|222:223,1,103.999995239258,2|0,0:0|3:2,0:0:0:0:
316,311,174462,1,2,0:0:0:0:
132,347,174629,1,10,3:2:0:0:
207,139,174795,6,0,B|218:100|218:100|209:35,1,103.999995239258,2|0,0:0|3:2,0:0:0:0:
347,112,175129,2,0,B|329:173|329:173|335:213,1,103.999995239258,2|8,0:0|3:2,0:0:0:0:
429,88,175462,2,0,P|386:34|328:30,1,103.999995239258,2|0,0:0|3:2,0:0:0:0:
239,212,175795,2,0,P|189:219|145:193,1,103.999995239258,2|8,0:0|3:2,0:0:0:0:
62,35,176129,6,0,L|46:157,1,103.999995239258,2|0,0:0|3:2,0:0:0:0:
31,261,176462,1,2,0:0:0:0:
140,149,176629,1,10,3:2:0:0:
115,333,176795,1,2,0:0:0:0:
305,248,176962,2,0,B|235:235|258:260|184:247,1,103.999995239258,2|0,3:2|0:0,0:0:0:0:
343,356,177295,1,8,3:2:0:0:
383,344,177379,1,8,0:0:0:0:
413,316,177462,1,10,0:0:0:0:
427,277,177545,1,8,0:0:0:0:
419,235,177629,5,6,3:2:0:0:
278,129,177795,2,0,L|305:244,1,103.999995239258,2|8,0:0|3:2,0:0:0:0:
201,306,178129,1,2,0:0:0:0:
342,200,178295,2,0,L|315:315,1,103.999995239258,2|0,3:2|0:0,0:0:0:0:
419,377,178629,1,10,3:2:0:0:
278,271,178795,6,0,L|305:386,1,103.999995239258,2|0,0:0|3:2,0:0:0:0:
258,188,179129,1,2,0:0:0:0:
148,312,179295,1,10,3:2:0:0:
53,229,179462,1,2,0:0:0:0:
138,62,179629,2,0,B|123:114|160:107|139:177,1,103.999995239258,2|0,3:2|0:0,0:0:0:0:
203,248,179962,1,8,3:2:0:0:
317,139,180129,1,2,0:0:0:0:
221,94,180295,5,6,3:2:0:0:
430,171,180462,2,0,L|439:61,1,103.999995239258,2|8,0:0|3:2,0:0:0:0:
326,243,180795,2,0,L|317:133,1,103.999995239258,2|0,0:0|3:2,0:0:0:0:
411,303,181129,1,2,0:0:0:0:
223,215,181295,2,0,L|214:318,1,103.999995239258,8|0,3:2|0:0,0:0:0:0:
70,381,181629,6,0,L|65:316,3,51.999997619629,2|0|0|0,3:2|0:0|0:0|0:0,0:0:0:0:
62,285,181962,1,8,3:2:0:0:
183,314,182129,2,0,L|187:249,3,51.999997619629,2|0|0|0,0:0|0:0|3:2|0:0,0:0:0:0:
191,219,182462,1,0,0:0:0:0:
91,98,182629,1,10,3:2:0:0:
129,101,182712,1,8,0:0:0:0:
167,97,182795,1,8,0:0:0:0:
204,84,182879,1,8,0:0:0:0:
238,64,182962,5,4,3:2:0:0:
349,174,183129,2,0,L|356:109,3,51.999997619629,2|0|8|0,0:0|0:0|3:2|0:0,0:0:0:0:
358,79,183462,1,0,0:0:0:0:
489,111,183629,2,0,L|482:46,3,51.999997619629,2|0|0|0,3:2|0:0|0:0|0:0,0:0:0:0:
480,16,183962,1,8,3:2:0:0:
427,183,184128,1,2,0:0:0:0:
481,352,184295,6,0,B|473:336|464:319|464:319|482:320|506:314,2,69.3333301595054,2|2|2,3:2|0:0|0:0,0:0:0:0:
376,298,184628,1,10,3:2:0:0:
340,314,184711,1,0,0:0:0:0:
302,323,184794,1,2,0:0:0:0:
263,324,184878,1,0,0:0:0:0:
225,316,184962,2,0,L|219:247,1,51.999997619629,2|0,3:2|0:0,0:0:0:0:
299,197,185128,2,0,L|292:266,1,51.999997619629,2|0,0:0|0:0,0:0:0:0:
215,179,185295,1,10,3:2:0:0:
207,135,185378,1,8,0:0:0:0:
199,91,185461,1,10,0:0:0:0:
192,48,185545,1,8,0:0:0:0:
184,9,185628,5,6,3:2:0:0:
32,231,186295,2,0,P|81:204|151:204,1,111.999996582031,2|2,3:2|3:2,0:0:0:0:
255,318,186962,1,2,3:2:0:0:
412,99,187628,2,0,P|363:126|293:126,1,111.999996582031,2|2,3:2|3:2,0:0:0:0:
172,29,188295,6,0,B|155:64|155:64|177:149,1,111.999996582031,2|2,3:2|3:2,0:0:0:0:
160,235,188795,2,0,P|214:211|331:214,1,167.999994873047,2|2,0:0|3:2,0:0:0:0:
201,350,189628,2,0,P|146:357|93:338,1,111.999996582031,2|2,3:2|3:2,0:0:0:0:
64,163,190295,2,0,P|105:125|158:111,1,111.999996582031,2|2,3:2|3:2,0:0:0:0:
160,235,190962,5,2,3:2:0:0:
410,328,191628,2,0,L|429:211,1,111.999996582031,2|2,3:2|3:2,0:0:0:0:
479,92,192295,2,0,P|449:78|383:127,2,111.999996582031,2|2|2,3:2|3:2|3:2,0:0:0:0:
295,221,193295,2,0,L|288:150,1,55.9999982910157,2|2,3:2|0:0,0:0:0:0:
300,81,193628,6,0,B|276:71|246:83|245:95|212:104|185:87,1,111.999996582031,2|0,3:2|3:2,0:0:0:0:
115,105,194128,2,0,P|68:75|5:88,1,111.999996582031,2|0,0:0|0:0,0:0:0:0:
52,152,194628,1,2,3:2:0:0:
205,224,194962,2,0,P|259:222|327:193,1,111.999996582031,2|2,3:2|3:2,0:0:0:0:
144,311,195628,2,0,P|93:331|19:332,1,111.999996582031,2|2,3:2|3:2,0:0:0:0:
296,335,196295,6,0,B|330:306|379:312|379:312|353:298|338:272,1,143.999995605469,6|0,3:2|3:2,0:0:0:0:
347,169,196795,1,8,0:0:0:0:
347,169,196962,2,0,L|436:184,1,71.9999978027344,2|8,3:2|0:0,0:0:0:0:
470,78,197295,2,0,L|399:89,1,71.9999978027344,2|8,3:2|0:0,0:0:0:0:
303,24,197628,6,0,P|268:74|167:71,1,143.999995605469,2|0,3:2|3:2,0:0:0:0:
100,18,198128,1,8,0:0:0:0:
100,18,198295,2,0,L|111:104,1,71.9999978027344,2|8,3:2|0:0,0:0:0:0:
9,147,198628,2,0,L|20:61,1,71.9999978027344,2|8,3:2|0:0,0:0:0:0:
95,180,198962,6,0,B|147:198|191:177|191:177|176:193|167:214,1,143.999995605469,2|2,3:2|3:2,0:0:0:0:
139,319,199462,2,0,P|195:287|293:308,1,143.999995605469,10|8,0:0|0:0,0:0:0:0:
338,381,199962,1,2,3:2:0:0:
422,182,200295,6,0,L|434:100,1,71.9999978027344,2|0,3:2|0:0,0:0:0:0:
343,224,200628,2,0,L|331:142,1,71.9999978027344,2|8,3:2|0:0,0:0:0:0:
243,266,200962,2,0,L|255:184,1,71.9999978027344,2|0,3:2|0:0,0:0:0:0:
164,308,201295,2,0,L|152:226,1,71.9999978027344,2|8,3:2|0:0,0:0:0:0:
47,138,201628,6,0,B|87:124|114:141|148:163|195:148,1,143.999995605469,6|0,3:2|3:2,0:0:0:0:
246,59,202128,1,8,0:0:0:0:
246,59,202295,2,0,P|308:28|321:110,1,143.999995605469,2|0,3:2|3:2,0:0:0:0:
279,172,202795,1,8,0:0:0:0:
279,172,202962,6,0,B|244:217|244:217|274:313,1,143.999995605469,2|0,3:2|3:2,0:0:0:0:
163,284,203462,1,8,0:0:0:0:
163,284,203628,2,0,P|121:275|87:279,1,71.9999978027344,2|8,3:2|0:0,0:0:0:0:
29,189,203962,2,0,P|68:174|102:174,1,71.9999978027344,2|8,3:2|0:0,0:0:0:0:
216,226,204295,6,0,B|259:236|298:209|298:209|330:189|379:213,1,143.999995605469,6|2,3:2|3:2,0:0:0:0:
449,252,204795,2,0,B|468:207|452:162|452:162|474:179|500:181,1,143.999995605469,10|8,0:0|0:0,0:0:0:0:
484,74,205295,2,0,P|439:67|404:77,1,71.9999978027344,2|8,3:2|0:0,0:0:0:0:
322,164,205628,5,10,0:2:0:0:
101,67,205962,1,10,0:2:0:0:
3,288,206295,1,10,0:2:0:0:
224,384,206628,2,0,P|242:336|235:285,1,80,10|8,3:2|3:2,0:0:0:0:
144,200,206962,6,0,P|207:217|300:204,1,143.999995605469,6|0,3:2|0:0,0:0:0:0:
332,136,207295,2,0,P|368:154|436:147,1,95.9999970703126,8|0,3:2|0:0,0:0:0:0:
497,64,207628,1,2,3:2:0:0:
476,242,207795,1,0,0:0:0:0:
476,242,207878,1,2,0:0:0:0:
476,242,207962,2,0,P|427:259|369:254,1,95.9999970703126,10|0,3:2|0:0,0:0:0:0:
260,181,208295,6,0,B|216:195|209:230|209:230|182:198|133:205,1,143.999995605469,2|0,3:2|0:0,0:0:0:0:
74,251,208628,2,0,P|114:285|119:342,1,95.9999970703126,8|0,3:2|0:0,0:0:0:0:
8,349,208962,1,2,3:2:0:0:
30,184,209128,1,0,0:0:0:0:
30,184,209212,1,2,0:0:0:0:
30,184,209295,2,0,P|62:145|115:137,1,95.9999970703126,10|0,3:2|0:0,0:0:0:0:
242,204,209628,6,0,B|292:252|354:228|359:180|334:144|291:156,1,191.999994140625,2|10,3:2|3:2,0:0:0:0:
188,43,210128,1,2,0:0:0:0:
122,138,210295,2,0,L|235:116,1,95.9999970703126,0|0,3:2|0:0,0:0:0:0:
307,20,210628,2,0,L|420:42,1,95.9999970703126,10|0,3:2|0:0,0:0:0:0:
363,178,210962,6,0,P|307:145|277:203,1,143.999995605469,2|0,3:2|0:0,0:0:0:0:
367,349,211295,2,0,P|399:292|342:263,1,143.999995605469,10|0,3:2|0:0,0:0:0:0:
198,353,211628,2,0,P|254:384|284:327,1,143.999995605469,2|0,3:2|0:0,0:0:0:0:
195,182,211962,2,0,P|163:237|220:267,1,143.999995605469,10|0,3:2|0:0,0:0:0:0:
363,178,212295,6,0,B|403:236|361:291|361:291|346:252|283:235,1,191.999994140625,6|8,3:2|3:2,0:0:0:0:
128,274,212795,1,0,0:0:0:0:
128,274,212878,1,2,0:0:0:0:
128,274,212962,2,0,B|101:286|87:305|87:305|45:239|45:239|84:190,1,191.999994140625,2|8,3:2|3:2,0:0:0:0:
177,45,213462,1,0,0:0:0:0:
305,158,213628,6,0,B|312:102|267:75|267:75|249:126|190:135,1,191.999994140625,2|8,3:2|3:2,0:0:0:0:
88,98,214128,1,0,0:0:0:0:
179,209,214295,2,0,P|230:229|277:225,1,95.9999970703126,2|0,3:2|0:0,0:0:0:0:
382,152,214628,2,0,P|433:131|480:135,1,95.9999970703126,10|0,3:2|0:0,0:0:0:0:
467,278,214962,6,0,B|448:265|440:240|440:240|417:281|357:312|301:289,1,191.999994140625,2|10,3:2|3:2,0:0:0:0:
193,218,215462,1,2,0:0:0:0:
193,218,215545,1,2,0:0:0:0:
193,218,215628,2,0,P|168:271|174:334,1,95.9999970703126,0|0,3:2|0:0,0:0:0:0:
85,187,215962,2,0,P|110:134|104:71,1,95.9999970703126,10|0,3:2|0:0,0:0:0:0:
2,1,216295,6,0,L|113:17,1,95.9999970703126,2|0,3:2|0:0,0:0:0:0:
224,82,216628,2,0,L|113:98,1,95.9999970703126,10|0,3:2|0:0,0:0:0:0:
257,163,216962,2,0,L|368:179,1,95.9999970703126,2|0,3:2|0:0,0:0:0:0:
476,104,217295,1,10,3:2:0:0:
406,287,217462,1,8,0:0:0:0:
406,287,217545,1,10,0:0:0:0:
406,287,217628,6,0,P|368:328|274:323,1,143.999995605469,6|0,3:2|0:0,0:0:0:0:
248,249,217962,2,0,P|199:265|141:247,1,95.9999970703126,8|0,3:2|0:0,0:0:0:0:
107,151,218295,1,2,3:2:0:0:
42,311,218462,1,0,0:0:0:0:
42,311,218545,1,2,0:0:0:0:
42,311,218628,2,0,L|31:211,1,95.9999970703126,10|0,3:2|0:0,0:0:0:0:
80,68,218962,6,0,B|122:45|174:68|190:96|190:96|201:114|234:126,1,143.999995605469,2|0,3:2|0:0,0:0:0:0:
266,170,219295,2,0,P|286:117|329:95,1,95.9999970703126,8|0,3:2|0:0,0:0:0:0:
433,99,219628,1,2,3:2:0:0:
363,261,219795,1,0,0:0:0:0:
363,261,219878,1,2,0:0:0:0:
363,261,219962,2,0,L|248:242,1,95.9999970703126,10|0,3:2|0:0,0:0:0:0:
134,320,220295,6,0,B|196:312|196:312|248:354|248:354|321:344,1,191.999994140625,2|10,3:2|3:2,0:0:0:0:
459,382,220795,1,2,0:0:0:0:
417,274,220962,2,0,P|405:213|408:171,1,95.9999970703126,0|0,3:2|0:0,0:0:0:0:
467,48,221295,2,0,P|420:88|382:107,1,95.9999970703126,10|0,3:2|0:0,0:0:0:0:
207,94,221628,6,0,B|197:62|152:53|152:53|118:92|148:125,1,143.999995605469,2|0,3:2|0:0,0:0:0:0:
258,208,221962,2,0,B|289:215|320:180|320:180|303:132|259:141,1,143.999995605469,10|0,3:2|0:0,0:0:0:0:
133,195,222295,2,0,B|110:218|125:262|125:262|175:272|189:229,1,143.999995605469,2|0,3:2|0:0,0:0:0:0:
207,94,222628,1,10,3:2:0:0:
207,94,222712,1,8,0:0:0:0:
207,94,222795,2,0,L|197:44,1,47.9999985351563,8|8,0:0|0:0,0:0:0:0:
291,122,222962,6,0,B|355:91|414:126|414:126|369:134|351:164,1,191.999994140625,6|8,3:2|3:2,0:0:0:0:
428,342,223462,1,0,0:0:0:0:
428,342,223545,1,2,0:0:0:0:
428,342,223628,2,0,B|474:355|474:355|424:204,1,191.999994140625,2|8,3:2|3:2,0:0:0:0:
275,299,224128,1,0,0:0:0:0:
130,202,224295,6,0,P|65:171|83:260,1,191.999994140625,2|8,3:2|3:2,0:0:0:0:
170,312,224795,1,0,0:0:0:0:
264,190,224962,2,0,P|283:138|280:91,1,95.9999970703126,2|0,3:2|0:0,0:0:0:0:
385,236,225295,2,0,P|366:184|369:137,1,95.9999970703126,10|0,3:2|0:0,0:0:0:0:
298,302,225628,6,0,B|251:281|199:297|199:310|151:328|94:312,1,191.999994140625,6|10,3:2|3:2,0:0:0:0:
75,185,226128,1,2,0:0:0:0:
75,185,226212,1,2,0:0:0:0:
75,185,226295,2,0,P|120:199|145:257,1,95.9999970703126,0|0,3:2|0:0,0:0:0:0:
239,130,226628,2,0,P|264:90|327:80,1,95.9999970703126,10|0,3:2|0:0,0:0:0:0:
418,129,226962,5,14,3:2:0:0:
199,39,227295,1,14,3:2:0:0:
233,274,227628,1,14,3:2:0:0:
418,129,227962,1,10,3:2:0:0:
300,143,228128,1,8,0:0:0:0:
300,143,228212,1,8,0:0:0:0:
300,143,228295,6,0,P|323:178|327:234,1,95.9999970703126,6|0,3:2|0:0,0:0:0:0:
295,341,228628,2,0,P|276:302|229:271,1,95.9999970703126,8|0,3:2|0:0,0:0:0:0:
136,282,228878,1,2,0:0:0:0:
136,282,228962,2,0,P|82:301|34:295,1,95.9999970703126,2|0,3:2|0:0,0:0:0:0:
117,174,229295,2,0,P|173:178|214:204,1,95.9999970703126,8|0,3:2|0:0,0:0:0:0:
291,314,229628,6,0,B|305:295|308:268|308:268|320:291|346:305,1,95.9999970703126,2|0,3:2|0:0,0:0:0:0:
467,368,229962,2,0,P|482:315|473:258,1,95.9999970703126,10|0,3:2|0:0,0:0:0:0:
415,144,230295,1,2,3:2:0:0:
308,268,230462,1,0,0:0:0:0:
237,82,230628,2,0,B|296:75|276:104|351:96,1,95.9999970703126,10|0,3:2|0:0,0:0:0:0:
463,40,230962,6,0,B|434:79|434:79|466:234,1,191.999994140625,2|8,3:2|3:2,0:0:0:0:
367,334,231462,1,0,0:0:0:0:
367,334,231545,1,2,0:0:0:0:
367,334,231628,2,0,P|385:288|382:222,1,95.9999970703126,2|0,3:2|0:0,0:0:0:0:
319,135,231962,1,8,3:2:0:0:
231,272,232128,6,0,B|189:252|189:252|34:274,1,191.999994140625,2|0,0:0|0:0,0:0:0:0:
0,164,232628,2,0,B|52:181|52:181|105:173,1,95.9999970703126,8|0,3:2|0:0,0:0:0:0:
177,96,232961,2,0,B|124:78|124:78|71:86,1,95.9999970703126,0|0,3:2|0:0,0:0:0:0:
172,174,233295,1,10,3:2:0:0:
244,48,233462,1,2,0:0:0:0:
313,195,233628,6,0,B|351:202|351:202|371:192|371:192|423:201,1,95.9999970703126,2|0,3:2|0:0,0:0:0:0:
506,301,233962,2,0,B|467:308|467:308|448:298|448:298|396:307,1,95.9999970703126,8|0,3:2|0:0,0:0:0:0:
333,358,234212,1,2,0:0:0:0:
333,358,234295,2,0,P|292:319|287:264,1,95.9999970703126,2|0,3:2|0:0,0:0:0:0:
315,170,234628,1,8,3:2:0:0:
183,282,234795,6,0,B|141:295|94:274|101:256|55:233|-2:244,1,191.999994140625,2|0,0:0|0:0,0:0:0:0:
27,336,235212,1,2,0:0:0:0:
27,336,235295,2,0,P|67:363|115:378,1,95.9999970703126,10|0,3:2|0:0,0:0:0:0:
210,272,235628,1,2,3:2:0:0:
331,381,235795,1,0,0:0:0:0:
390,197,235962,2,0,P|327:182|278:203,1,95.9999970703126,10|0,3:2|0:0,0:0:0:0:
190,127,236295,6,0,P|132:150|82:133,1,95.9999970703126,2|0,3:2|0:0,0:0:0:0:
200,39,236628,2,0,P|267:81|276:131,1,95.9999970703126,10|0,3:2|0:0,0:0:0:0:
274,199,236962,1,2,3:2:0:0:
359,49,237128,2,0,B|417:43|393:67|462:62,1,95.9999970703126,2|8,0:0|3:2,0:0:0:0:
496,181,237462,6,0,P|463:226|485:365,1,191.999994140625,2|2,3:2|3:2,0:0:0:0:
366,261,237962,1,10,3:2:0:0:
216,345,238128,2,0,B|162:353|126:323|154:282|111:251|60:258,1,191.999994140625,2|0,3:2|3:2,0:0:0:0:
55,360,238628,1,8,3:2:0:0:
55,360,238712,1,8,0:0:0:0:
55,360,238795,1,8,0:0:0:0:
191,225,238962,6,0,B|222:218|222:218|259:234|308:222,1,95.9999970703126,6|0,3:2|0:0,0:0:0:0:
403,143,239295,2,0,B|372:136|372:136|335:152|286:140,1,95.9999970703126,8|0,3:2|0:0,0:0:0:0:
247,69,239545,1,2,0:0:0:0:
247,69,239628,2,0,P|195:50|138:61,1,95.9999970703126,2|0,3:2|0:0,0:0:0:0:
39,141,239962,2,0,P|86:168|115:219,1,95.9999970703126,8|0,3:2|0:0,0:0:0:0:
62,338,240295,6,0,B|104:311|104:311|154:320,1,95.9999970703126,2|0,3:2|0:0,0:0:0:0:
281,377,240628,2,0,B|326:385|326:385|368:358,1,95.9999970703126,10|0,3:2|0:0,0:0:0:0:
398,215,240962,1,2,3:2:0:0:
281,298,241128,1,0,0:0:0:0:
464,298,241295,2,0,P|498:251|503:194,1,95.9999970703126,10|0,3:2|0:0,0:0:0:0:
408,48,241628,6,0,B|363:85|363:85|405:241,1,191.999994140625,2|8,3:2|3:2,0:0:0:0:
276,155,242128,1,0,0:0:0:0:
276,155,242212,1,2,0:0:0:0:
276,155,242295,2,0,P|216:134|178:142,1,95.9999970703126,2|0,3:2|0:0,0:0:0:0:
96,226,242628,1,8,3:2:0:0:
154,62,242795,6,0,B|207:28|240:73|292:28|292:28|314:46|345:54,1,191.999994140625,2|0,0:0|0:0,0:0:0:0:
474,31,243295,2,0,P|426:61|418:110,1,95.9999970703126,8|0,3:2|0:0,0:0:0:0:
482,246,243628,2,0,P|434:216|426:167,1,95.9999970703126,0|0,3:2|0:0,0:0:0:0:
341,299,243962,1,10,3:2:0:0:
341,299,244045,1,8,0:0:0:0:
341,299,244128,2,0,L|287:288,1,47.9999985351563,10|8,0:0|0:0,0:0:0:0:
207,333,244295,6,0,B|145:357|98:307|98:307|143:285,1,160,6|0,3:2|3:2,0:0:0:0:
197,107,244962,2,0,P|132:107|166:190,1,160,10|0,3:2|3:2,0:0:0:0:
260,180,245462,2,0,P|302:165|348:161,1,80,10|0,0:0|0:0,0:0:0:0:
443,216,245795,1,8,0:0:0:0:
377,261,245962,2,0,L|356:358,1,80,2|0,3:2|0:0,0:0:0:0:
271,259,246295,2,0,L|257:166,1,80,10|0,3:2|0:0,0:0:0:0:
246,68,246628,1,10,3:2:0:0:
246,68,246712,1,8,0:0:0:0:
246,68,246795,1,8,0:0:0:0:
137,236,246962,5,6,3:2:0:0:
246,68,247295,1,6,3:2:0:0:
137,236,247628,1,6,3:2:0:0:
275,276,247795,1,10,0:0:0:0:
137,236,248128,5,6,3:2:0:0:
343,196,249128,1,0,3:2:0:0:
248,151,249295,1,8,3:2:0:0:
248,151,249378,1,8,0:0:0:0:
248,151,249462,2,0,L|256:201,1,40,8|8,0:0|0:0,0:0:0:0:
275,276,249628,5,12,3:2:0:0:
139,136,249795,1,8,3:2:0:0:
75,254,249962,1,0,3:2:0:0:
248,151,250128,2,0,P|312:130|365:130,1,88.000002685547,12|0,3:2|0:0,0:0:0:0:
473,202,250462,1,8,0:0:0:0:
473,202,250545,1,8,0:0:0:0:
473,202,250628,5,12,3:2:0:0:
274,55,250795,1,8,3:2:0:0:
