osu file format v14

[General]
AudioFilename: audio.mp3
AudioLeadIn: 0
PreviewTime: 206921
Countdown: 0
SampleSet: Soft
StackLeniency: 0.7
Mode: 0
LetterboxInBreaks: 0
WidescreenStoryboard: 1

[Editor]
DistanceSpacing: 1.1
BeatDivisor: 2
GridSize: 4
TimelineZoom: 1.7

[Metadata]
Title:Prism lovely day
TitleUnicode:プリズム lovely day
Artist:solfa feat. Chata
ArtistUnicode:solfa feat. 茶太
Creator:Respirte
Version:Easy
Source:彼女と俺の恋愛日常
Tags:featured artist fa visual novel vn eroge lovelyday of girlfriends & me C99 japanese jpop jrock female vocalist op opening just parasol
BeatmapID:3386463
BeatmapSetID:1658950

[Difficulty]
HPDrainRate:2.8
CircleSize:2.8
OverallDifficulty:2.8
ApproachRate:3.8
SliderMultiplier:0.899999999999999
SliderTickRate:1

[Events]
//Background and Video events
0,0,"turquoise.jpg",0,0
//Break Periods
2,185828,194951
//Storyboard Layer 0 (Background)
//Storyboard Layer 1 (Fail)
//Storyboard Layer 2 (Pass)
//Storyboard Layer 3 (Foreground)
//Storyboard Layer 4 (Overlay)
//Storyboard Sound Samples

[TimingPoints]
298,333.333333333333,4,2,1,70,1,0
298,-100,4,2,1,70,0,0
964,-100,4,2,1,40,0,0
1631,-100,4,2,1,70,0,0
2297,-100,4,2,1,40,0,0
2964,-100,4,2,1,70,0,0
3631,-100,4,2,1,40,0,0
4297,-100,4,2,1,70,0,0
4631,-100,4,2,1,50,0,0
4964,-100,4,2,1,70,0,0
5631,-100,4,2,1,60,0,0
6964,-100,4,2,1,65,0,0
8297,-100,4,2,1,75,0,0
10964,-100,4,2,5,90,0,0
26964,-100,4,2,5,80,0,0
32297,-100,4,2,1,60,0,0
35631,-100,4,2,11,60,0,0
35964,-100,4,2,5,60,0,0
36297,-100,4,2,12,60,0,0
36631,-100,4,2,1,60,0,0
36964,-100,4,2,13,60,0,0
37131,-100,4,2,1,60,0,0
37631,-100,4,2,14,60,0,0
37797,-100,4,2,1,60,0,0
41964,-100,4,2,15,60,0,0
42297,-100,4,2,1,60,0,0
42464,-100,4,2,5,60,0,0
42631,-100,4,2,15,60,0,0
42797,-100,4,2,5,60,0,0
42964,-100,4,2,14,60,0,0
43131,-100,4,2,3,60,0,0
46297,-100,4,2,11,60,0,0
46464,-100,4,2,3,60,0,0
46964,-100,4,2,12,60,0,0
47131,-100,4,2,3,60,0,0
47631,-100,4,2,13,60,0,0
47797,-100,4,2,3,60,0,0
48297,-100,4,2,14,60,0,0
48464,-100,4,2,3,60,0,0
51631,-100,4,2,16,60,0,0
51797,-100,4,2,3,60,0,0
52297,-100,4,2,11,60,0,0
52464,-100,4,2,3,60,0,0
52964,-100,4,2,17,60,0,0
53131,-100,4,2,3,60,0,0
53297,-100,4,2,1,60,0,0
53631,333.333333333333,3,2,1,65,1,0
53631,-100,3,2,1,65,0,0
59630,333.333333333333,4,2,1,75,1,0
59630,-100,4,2,1,75,0,0
63629,-100,4,2,1,80,0,0
64963,-100,4,2,1,90,0,1
65880,-100,4,2,5,90,0,1
65963,-100,4,2,1,90,0,1
67213,-100,4,2,5,90,0,1
67296,-100,4,2,1,90,0,1
68213,-100,4,2,5,90,0,1
68296,-100,4,2,1,90,0,1
70879,-100,4,2,5,90,0,1
70963,-100,4,2,1,90,0,1
72213,-100,4,2,5,90,0,1
72296,-100,4,2,1,90,0,1
73546,-100,4,2,5,90,0,1
73629,-100,4,2,1,90,0,1
75546,-100,4,2,5,90,0,1
75629,-100,4,2,1,90,0,1
76546,-100,4,2,5,90,0,1
76629,-100,4,2,1,90,0,1
77879,-100,4,2,5,90,0,1
77963,-100,4,2,1,90,0,1
78879,-100,4,2,5,90,0,1
78963,-100,4,2,1,90,0,1
81546,-100,4,2,5,90,0,1
81629,-100,4,2,1,90,0,1
82879,-100,4,2,5,90,0,1
82963,-100,4,2,1,90,0,1
84213,-100,4,2,5,90,0,1
84296,-100,4,2,1,90,0,1
84963,-100,4,2,1,70,0,1
86296,-100,4,2,5,90,0,0
102296,-100,4,2,5,80,0,0
107629,-100,4,2,1,70,0,0
111963,-100,4,2,11,70,0,0
112129,-100,4,2,1,70,0,0
112296,-100,4,2,17,70,0,0
112463,-100,4,2,1,70,0,0
112629,-100,4,2,13,70,0,0
112796,-100,4,2,1,70,0,0
112963,-100,4,2,14,70,0,0
113129,-100,4,2,1,70,0,0
117796,-100,4,2,5,70,0,0
117963,-100,4,2,1,70,0,0
121629,-100,4,2,11,70,0,0
121796,-100,4,2,1,70,0,0
122296,-100,4,2,12,70,0,0
122463,-100,4,2,1,70,0,0
122879,-100,4,2,5,70,0,0
122963,-100,4,2,13,70,0,0
123129,-100,4,2,1,70,0,0
123629,-100,4,2,14,70,0,0
123796,-100,4,2,1,70,0,0
124296,-100,4,2,5,70,0,0
124463,-100,4,2,1,70,0,0
124546,-100,4,2,5,70,0,0
124796,-100,4,2,1,70,0,0
126963,-100,4,2,16,70,0,0
127046,-100,4,2,5,70,0,0
127129,-100,4,2,1,70,0,0
127213,-100,4,2,5,70,0,0
127463,-100,4,2,1,70,0,0
127629,-100,4,2,11,70,0,0
127796,-100,4,2,1,70,0,0
128296,-100,4,2,17,70,0,0
128463,-100,4,2,1,70,0,0
128963,333.333333333333,3,2,1,65,1,0
128963,-100,3,2,1,65,0,0
134963,333.333333333333,4,2,1,75,1,0
134963,-100,4,2,1,75,0,0
138963,-100,4,2,1,80,0,0
140296,-100,4,2,1,90,0,1
141213,-100,4,2,5,90,0,1
141296,-100,4,2,1,90,0,1
142546,-100,4,2,5,90,0,1
142629,-100,4,2,1,90,0,1
143546,-100,4,2,5,90,0,1
143629,-100,4,2,1,90,0,1
146213,-100,4,2,5,90,0,1
146296,-100,4,2,1,90,0,1
147546,-100,4,2,5,90,0,1
147629,-100,4,2,1,90,0,1
148879,-100,4,2,5,90,0,1
148963,-100,4,2,1,90,0,1
150879,-100,4,2,5,90,0,1
150962,-100,4,2,1,90,0,1
151879,-100,4,2,5,90,0,1
151962,-100,4,2,1,90,0,1
153212,-100,4,2,5,90,0,1
153296,-100,4,2,1,90,0,1
154212,-100,4,2,5,90,0,1
154296,-100,4,2,1,90,0,1
156879,-100,4,2,5,90,0,1
156962,-100,4,2,1,90,0,1
158212,-100,4,2,5,90,0,1
158296,-100,4,2,1,90,0,1
159546,-100,4,2,5,90,0,1
159629,-100,4,2,1,90,0,1
160296,-100,4,2,1,70,0,1
161629,333.333333333333,3,2,1,60,1,0
161629,-100,4,2,1,60,0,0
169295,-100,4,2,1,65,0,0
169629,333.333333333333,4,2,1,70,1,0
169629,-100,4,2,1,70,0,0
170962,-100,4,2,1,80,0,0
171629,-100,4,2,1,90,0,0
172295,-100,4,2,5,95,0,0
181629,-100,4,2,5,90,0,0
184295,-100,4,2,5,95,0,0
184628,-100,4,2,5,95,0,0
185628,-100,4,2,1,45,0,0
196295,-100,4,2,3,55,0,0
205628,-100,4,2,1,70,0,0
206962,-100,4,2,1,90,0,1
207878,-100,4,2,5,90,0,1
207962,-100,4,2,1,90,0,1
209212,-100,4,2,5,90,0,1
209295,-100,4,2,1,90,0,1
210212,-100,4,2,5,90,0,1
210295,-100,4,2,1,90,0,1
212878,-100,4,2,5,90,0,1
212962,-100,4,2,1,90,0,1
214212,-100,4,2,5,90,0,1
214295,-100,4,2,1,90,0,1
215545,-100,4,2,5,90,0,1
215628,-100,4,2,1,90,0,1
217545,-100,4,2,5,90,0,1
217628,-100,4,2,1,90,0,1
218545,-100,4,2,5,90,0,1
218628,-100,4,2,1,90,0,1
219878,-100,4,2,5,90,0,1
219962,-100,4,2,1,90,0,1
220878,-100,4,2,5,90,0,1
220962,-100,4,2,1,90,0,1
223545,-100,4,2,5,90,0,1
223628,-100,4,2,1,90,0,1
224878,-100,4,2,5,90,0,1
224962,-100,4,2,1,90,0,1
226212,-100,4,2,5,90,0,1
226295,-100,4,2,1,90,0,1
226962,-100,4,2,1,70,0,1
228295,-100,4,2,5,90,0,0
244295,-100,4,2,5,80,0,0
249628,-100,4,2,1,85,0,0

[Colours]
Combo1 : 139,200,228
Combo2 : 126,96,134
Combo3 : 249,43,48
Combo4 : 198,28,155

[HitObjects]
437,200,298,6,0,B|410:106|318:92|279:146|285:207|345:223,1,270,6|2,3:2|0:0,0:0:0:0:
401,305,1631,2,0,B|336:332|267:305|267:282|203:249|126:279,1,270,6|2,3:2|0:0,0:0:0:0:
62,334,2964,2,0,B|13:159|13:159|80:80,1,270,6|2,3:2|0:0,0:0:0:0:
121,6,4297,2,0,P|194:75|286:63,1,180,6|2,3:2|3:2,0:0:0:0:
337,2,5297,1,10,0:0:0:0:
415,62,5631,6,0,P|472:40|519:52,2,89.9999999999999,6|0|2,3:2|3:2|3:2,0:0:0:0:
353,139,6631,1,2,3:2:0:0:
428,203,6964,2,0,L|445:307,1,89.9999999999999,2|10,3:2|3:2,0:0:0:0:
359,346,7631,2,0,L|342:242,1,89.9999999999999,8|10,3:2|3:2,0:0:0:0:
268,194,8297,6,0,P|215:213|109:128,1,180,14|8,3:2|3:2,0:0:0:0:
210,113,9297,1,10,0:0:0:0:
229,15,9631,5,6,3:2:0:0:
244,309,10631,1,10,0:0:0:0:
167,371,10964,6,0,B|102:334|10:376|10:376|55:332|39:259,1,270,6|8,3:2|3:2,0:0:0:0:
27,180,12297,2,0,P|71:195|126:197,2,89.9999999999999,2|10|2,3:2|3:2|3:2,0:0:0:0:
1,84,13297,1,10,3:2:0:0:
84,30,13631,2,0,B|134:14|172:38|162:48|209:73|257:57|257:57|228:102|246:149,1,270,2|8,3:2|3:2,0:0:0:0:
309,215,14964,2,0,P|357:192|466:243,1,180,0|0,3:2|3:2,0:0:0:0:
467,340,15964,1,10,3:2:0:0:
372,309,16297,6,0,B|290:287|289:354|185:329|185:329|215:245,1,270,2|8,3:2|3:2,0:0:0:0:
212,157,17631,2,0,P|161:180|123:178,2,89.9999999999999,0|10|2,3:2|3:2|3:2,0:0:0:0:
247,64,18631,1,10,3:2:0:0:
331,115,18964,2,0,P|377:131|502:100,2,180,2|2|0,3:2|3:2|3:2,0:0:0:0:
235,141,20631,1,10,3:2:0:0:
149,91,20964,2,0,P|101:78|54:79,1,89.9999999999999,0|8,3:2|0:0,0:0:0:0:
3,159,21631,6,0,B|3:186|12:214|12:214|-7:254|-7:254|1:287|0:324|0:324|44:293|91:300,1,270,6|8,3:2|3:2,0:0:0:0:
186,330,22964,2,0,P|234:342|291:331,2,89.9999999999999,2|10|2,3:2|3:2|3:2,0:0:0:0:
113,262,23964,1,10,3:2:0:0:
161,175,24297,2,0,B|237:117|327:145|327:145|379:117|380:59,1,270,2|8,3:2|3:2,0:0:0:0:
478,60,25631,2,0,P|461:138|456:248,1,180,0|0,3:2|3:2,0:0:0:0:
490,330,26631,1,10,0:0:0:0:
399,370,26964,6,0,B|337:359|337:359|290:378|290:378|209:366,1,180,6|10,3:2|0:0,0:0:0:0:
148,305,27964,1,0,3:2:0:0:
60,350,28297,2,0,L|42:242,1,89.9999999999999,0|2,0:0|3:2,0:0:0:0:
118,194,28964,2,0,L|136:86,1,89.9999999999999,10|10,0:0|0:0,0:0:0:0:
93,13,29631,1,6,3:2:0:0:
17,195,30297,2,0,P|44:270|107:294,1,135,6|6,3:2|3:2,0:0:0:0:
426,207,31964,1,8,0:0:0:0:
348,268,32297,6,0,L|317:90,1,180,4|0,3:2|3:2,0:0:0:0:
252,15,33297,1,0,3:2:0:0:
164,62,33631,2,0,P|108:38|61:39,2,89.9999999999999,0|2|2,3:2|3:2|3:2,0:0:0:0:
199,154,34631,1,2,3:2:0:0:
124,219,34964,2,0,B|81:272|81:272|119:391,2,180,2|2|2,3:2|3:2|3:2,0:0:0:0:
309,290,36964,2,0,P|358:314|401:308,1,89.9999999999999,2|2,3:2|3:2,0:0:0:0:
471,252,37631,6,0,B|447:213|464:167|479:166|504:120|479:73,1,180,2|0,3:2|3:2,0:0:0:0:
405,16,38631,1,0,3:2:0:0:
326,76,38964,2,0,P|281:92|224:86,1,89.9999999999999,0|2,3:2|3:2,0:0:0:0:
161,29,39631,2,0,P|116:13|59:19,1,89.9999999999999,2|2,3:2|3:2,0:0:0:0:
17,95,40297,2,0,B|54:111|51:157|51:157|7:201|30:269,1,180,2|0,3:2|3:2,0:0:0:0:
121,226,41297,1,0,3:2:0:0:
188,298,41631,2,0,B|230:270|230:270|361:297,1,180,0|2,3:2|3:2,0:0:0:0:
473,136,42964,6,0,P|420:149|304:103,1,180,6|0,3:2|3:2,0:0:0:0:
251,22,43964,1,0,3:2:0:0:
169,77,44297,2,0,P|119:54|75:62,2,89.9999999999999,0|2|2,3:2|3:2|3:2,0:0:0:0:
215,164,45297,1,2,3:2:0:0:
144,233,45631,2,0,L|133:340,1,89.9999999999999,2|2,3:2|3:2,0:0:0:0:
44,363,46297,2,0,B|16:317|16:317|31:187,1,180,2|2,3:2|3:2,0:0:0:0:
191,76,47631,2,0,P|233:72|288:105,1,89.9999999999999,2|2,3:2|3:2,0:0:0:0:
373,109,48297,6,0,P|333:174|323:278,1,180,2|0,3:2|3:2,0:0:0:0:
382,354,49297,1,0,3:2:0:0:
465,301,49631,2,0,P|482:255|479:200,1,89.9999999999999,0|2,3:2|3:2,0:0:0:0:
433,128,50297,2,0,P|387:145|332:142,1,89.9999999999999,2|2,3:2|3:2,0:0:0:0:
279,71,50964,2,0,P|213:44|162:131,1,180,2|2,3:2|3:2,0:0:0:0:
211,205,51964,1,0,3:2:0:0:
172,295,52297,2,0,B|111:277|111:277|57:298|57:298|-13:278,1,180,2|2,3:2|3:2,0:0:0:0:
54,198,53297,1,8,3:2:0:0:
121,125,53631,6,0,B|168:109|212:135|190:146|239:176|297:155,1,180,6|10,3:2|0:0,0:0:0:0:
365,92,54631,2,0,B|371:57|371:57|362:37|362:37|369:-5,2,89.9999999999999,2|2|10,3:2|0:0|0:0,0:0:0:0:
438,159,55631,2,0,P|399:200|394:252,1,89.9999999999999,2|2,3:2|0:0,0:0:0:0:
408,328,56297,1,10,0:0:0:0:
317,367,56631,1,2,3:2:0:0:
255,291,56964,2,0,P|222:260|178:251,1,89.9999999999999,2|10,0:0|0:0,0:0:0:0:
85,281,57630,6,0,B|73:235|83:207|100:195|117:182|98:146|98:146|57:135,1,180,6|10,3:2|0:0,0:0:0:0:
50,37,58630,2,0,L|136:61,1,89.9999999999999,2|2,3:2|0:0,0:0:0:0:
231,90,59297,1,8,0:1:0:0:
302,21,59630,6,0,B|389:12|389:12|422:96|422:96|474:80|530:109,1,270,6|8,3:2|0:0,0:0:0:0:
462,186,60963,2,0,P|447:225|453:292,1,89.9999999999999,8|8,3:2|0:0,0:0:0:0:
409,364,61630,2,0,P|382:331|320:303,1,89.9999999999999,8|10,0:0|0:0,0:0:0:0:
246,337,62296,2,0,B|199:376|123:341|123:341|161:292,1,180,6|0,3:2|3:2,0:0:0:0:
213,223,63296,1,0,3:2:0:0:
151,145,63629,2,0,B|146:101|146:101|142:95|142:95|137:41,2,89.9999999999999,0|8|8,3:2|0:0|0:0,0:0:0:0:
302,272,64963,6,0,B|413:269|413:269|447:249|471:222,1,180,6|2,3:2|3:2,0:0:0:0:
507,136,65963,1,10,3:2:0:0:
427,76,66296,2,0,B|382:60|330:86|352:96|295:115|249:92,1,180,2|2,3:2|3:2,0:0:0:0:
177,31,67296,1,10,3:2:0:0:
96,88,67629,6,0,P|56:74|3:78,2,89.9999999999999,2|10|0,3:2|3:2|3:2,0:0:0:0:
153,168,68629,1,10,3:2:0:0:
88,242,68963,2,0,B|66:282|66:282|75:330,1,89.9999999999999,2|10,3:2|3:2,0:0:0:0:
158,377,69629,1,2,3:2:0:0:
241,323,69963,1,10,3:2:0:0:
328,368,70296,6,0,B|384:395|448:366|448:366|419:349|410:313,1,180,6|2,3:2|3:2,0:0:0:0:
503,282,71296,1,8,3:2:0:0:
468,190,71629,2,0,P|419:172|370:176,1,89.9999999999999,2|8,3:2|3:2,0:0:0:0:
284,194,72296,2,0,P|288:142|312:99,1,89.9999999999999,2|10,3:2|3:2,0:0:0:0:
357,24,72963,6,0,B|309:1|309:1|185:53,1,180,2|0,3:2|3:2,0:0:0:0:
100,89,73963,1,10,3:2:0:0:
8,127,74296,2,0,B|-6:75|-6:75|14:38,2,89.9999999999999,2|10|2,3:2|3:2|3:2,0:0:0:0:
37,221,75296,1,10,3:2:0:0:
34,320,75629,6,0,B|93:301|144:324|132:335|173:352|214:338,1,180,6|2,3:2|3:2,0:0:0:0:
284,276,76629,1,10,3:2:0:0:
356,343,76963,2,0,B|398:371|398:371|463:309|409:239,1,180,2|2,3:2|3:2,0:0:0:0:
354,181,77963,1,10,3:2:0:0:
275,121,78296,6,0,P|223:131|174:120,2,89.9999999999999,2|10|0,3:2|3:2|3:2,0:0:0:0:
357,65,79296,1,10,3:2:0:0:
432,129,79629,2,0,B|450:171|450:171|437:232,1,89.9999999999999,2|10,3:2|3:2,0:2:0:0:
364,278,80296,1,2,3:2:0:0:
275,234,80629,1,10,3:2:0:0:
187,280,80963,6,0,B|154:295|107:273|116:218|116:218|127:157,1,180,6|2,3:2|3:2,0:0:0:0:
147,59,81963,1,8,3:2:0:0:
242,85,82296,2,0,P|281:91|338:73,1,89.9999999999999,2|8,3:2|3:2,0:0:0:0:
410,22,82963,2,0,P|430:57|432:117,1,89.9999999999999,2|10,3:2|3:2,0:0:0:0:
445,204,83629,6,0,B|415:253|415:253|345:231|345:231|339:159,1,180,6|0,3:2|3:2,0:0:0:0:
326,83,84629,1,10,3:2:0:0:
243,138,84963,2,0,L|154:121,1,89.9999999999999,14|14,3:2|3:2,0:0:0:0:
71,176,85629,1,14,3:2:0:0:
15,94,85963,1,10,3:2:0:0:
71,12,86296,6,0,B|161:-11|223:55|223:55|226:111|292:144,1,270,6|8,3:2|3:2,0:0:0:0:
377,134,87629,2,0,P|422:118|478:106,2,89.9999999999999,2|10|2,3:2|3:2|3:2,0:0:0:0:
331,222,88629,1,10,3:2:0:0:
241,265,88963,2,0,B|202:279|147:257|152:247|119:238|66:255|66:255|71:309|123:322,1,270,2|8,3:2|3:2,0:0:0:0:
198,379,90296,2,0,P|255:359|380:358,1,180,0|0,3:2|3:2,0:0:0:0:
470,378,91296,1,10,3:2:0:0:
489,281,91629,6,0,B|498:201|498:201|434:139|434:139|403:192|321:186,1,270,2|8,3:2|3:2,0:0:0:0:
254,157,92963,2,0,P|262:121|251:68,2,89.9999999999999,0|10|2,3:2|3:2|3:2,0:0:0:0:
197,238,93963,1,10,3:2:0:0:
112,290,94296,2,0,B|72:280|24:300|24:300|-2:253|19:195,2,180,2|2|0,3:2|3:2|3:2,0:0:0:0:
195,344,95963,1,10,3:2:0:0:
280,294,96296,2,0,P|321:289|383:296,1,89.9999999999999,0|8,3:2|3:2,0:0:0:0:
462,326,96963,6,0,B|528:258|476:147|476:147|402:194,1,270,6|8,3:2|3:2,0:0:0:0:
322,145,98296,2,0,P|280:157|225:144,2,89.9999999999999,2|10|2,3:2|3:2|3:2,0:0:0:0:
363,54,99296,1,10,3:2:0:0:
273,11,99629,2,0,B|232:5|197:16|197:31|144:41|92:10|92:10|121:49|119:100,1,270,2|8,3:2|3:2,0:0:0:0:
41,149,100963,2,0,P|13:199|6:326,1,180,0|0,3:2|3:2,0:0:0:0:
84,378,101963,1,10,3:2:0:0:
166,323,102296,6,0,B|271:308|223:354|348:342,1,180,6|10,3:2|3:2,0:0:0:0:
432,303,103296,1,0,3:2:0:0:
371,224,103629,2,0,L|383:123,1,89.9999999999999,0|2,0:0|3:2,0:0:0:0:
391,35,104296,2,0,P|345:52|290:49,1,89.9999999999999,10|10,3:2|3:2,0:0:0:0:
214,9,104963,1,6,3:2:0:0:
67,141,105629,2,0,B|63:187|63:187|90:220|90:220|85:277,1,135,6|6,3:2|3:2,0:0:0:0:
432,303,107296,1,8,3:2:0:0:
345,351,107629,6,0,P|339:256|326:152,1,180,4|0,3:2|0:0,0:0:0:0:
298,77,108629,1,8,0:0:0:0:
366,5,108963,2,0,P|413:5|462:32,2,89.9999999999999,0|10|2,0:0|0:0|0:2,0:0:0:0:
390,101,109963,1,10,3:2:0:0:
460,170,110296,2,0,P|423:217|420:340,1,180,2|0,3:2|0:0,0:0:0:0:
245,237,111629,2,0,P|193:213|143:219,1,89.9999999999999,0|10,0:0|0:2,0:0:0:0:
72,257,112296,2,0,P|25:223|5:177,1,89.9999999999999,2|10,0:2|3:2,0:0:0:0:
56,109,112963,6,0,B|112:119|112:119|172:78|172:78|235:91,1,180,2|0,3:2|0:0,0:0:0:0:
293,158,113963,1,8,0:0:0:0:
379,109,114296,1,0,0:0:0:0:
464,158,114629,2,0,L|454:257,2,89.9999999999999,2|10|10,3:2|0:0|0:0,0:0:0:0:
476,59,115629,1,14,0:0:0:0:
476,59,118296,6,0,B|430:79|382:55|393:44|345:13|295:29,1,180,4|0,3:2|3:2,0:0:0:0:
222,80,119296,1,8,3:2:0:0:
145,142,119629,2,0,P|98:128|29:141,2,89.9999999999999,0|10|2,3:2|3:2|3:2,0:0:0:0:
193,228,120629,1,10,3:2:0:0:
239,315,120963,2,0,B|196:333|153:327|125:296|125:296|92:322|43:305,1,180,2|2,3:2|3:2,0:0:0:0:
0,241,121963,1,8,3:2:0:0:
23,144,122296,2,0,P|61:125|119:134,1,89.9999999999999,2|8,3:2|3:2,0:0:0:0:
176,200,122963,2,0,P|214:218|272:209,1,89.9999999999999,2|10,3:2|3:2,0:0:0:0:
327,142,123629,6,0,P|400:132|446:223,1,180,2|2,3:2|3:2,0:0:0:0:
383,290,124629,1,10,3:2:0:0:
290,255,124963,2,0,P|248:244|188:260,2,89.9999999999999,0|10|2,3:2|3:2|3:2,0:0:0:0:
314,351,125963,1,10,3:2:0:0:
408,381,126296,2,0,P|470:349|455:225,1,180,2|2,3:2|3:2,0:0:0:0:
402,184,127296,1,10,3:2:0:0:
303,182,127629,2,0,B|272:149|273:102|273:102|227:121|175:102,1,180,2|2,3:2|3:2,0:0:0:0:
104,43,128629,1,8,0:0:0:0:
45,123,128963,6,0,P|79:194|102:295,1,180,6|10,3:2|0:0,0:0:0:0:
184,347,129963,2,0,P|191:308|211:260,2,89.9999999999999,2|2|10,3:2|0:0|3:2,0:0:0:0:
277,382,130963,2,0,P|325:361|383:361,1,89.9999999999999,2|2,3:2|0:0,0:0:0:0:
460,353,131629,1,10,3:2:0:0:
500,262,131963,1,2,3:2:0:0:
430,192,132296,2,0,P|413:134|414:72,1,89.9999999999999,2|10,0:0|0:0,0:0:0:0:
445,11,132963,6,0,B|352:-5|373:42|270:31,1,180,6|10,3:2|0:0,0:0:0:0:
196,98,133963,2,0,P|137:86|93:92,1,89.9999999999999,2|2,3:2|0:0,0:0:0:0:
40,160,134629,1,8,1:0:0:0:
90,245,134963,6,0,B|167:261|208:340|208:340|248:288|327:291,1,270,6|8,3:2|0:0,0:0:0:0:
383,352,136296,2,0,P|430:372|494:367,1,89.9999999999999,8|8,0:0|0:0,0:0:0:0:
500,280,136963,2,0,P|479:232|484:169,1,89.9999999999999,8|10,0:0|0:0,0:0:0:0:
507,100,137629,2,0,B|521:59|491:17|491:17|437:8|411:71,1,180,6|0,3:2|3:2,0:0:0:0:
335,116,138629,1,0,3:2:0:0:
247,69,138962,2,0,B|203:64|203:64|197:60|197:60|143:55,2,89.9999999999999,0|8|8,3:2|0:2|0:2,0:0:0:0:
361,231,140296,6,0,B|296:247|240:221|240:221|195:203|152:224,1,180,6|2,3:2|3:2,0:0:0:0:
102,268,141296,1,10,3:2:0:0:
23,208,141629,2,0,B|-10:137|46:103|46:103|112:123,1,180,2|2,3:2|3:2,0:0:0:0:
196,153,142629,1,10,3:2:0:0:
278,97,142963,6,0,P|328:69|395:68,2,89.9999999999999,2|10|0,3:2|3:2|3:2,0:0:0:0:
285,196,143963,1,10,3:2:0:0:
363,256,144296,2,0,B|404:248|404:248|453:277,1,89.9999999999999,2|10,3:2|3:2,0:0:0:0:
438,372,144963,1,2,3:2:0:0:
341,349,145296,1,10,3:2:0:0:
247,378,145629,6,0,B|185:383|185:383|132:360|132:360|43:364,1,180,6|2,3:2|3:2,0:0:0:0:
0,295,146629,1,8,3:2:0:0:
32,201,146963,2,0,P|43:120|49:82,1,89.9999999999999,2|8,3:2|3:2,0:0:0:0:
128,58,147629,2,0,P|139:138|145:176,1,89.9999999999999,2|10,3:2|3:2,0:0:0:0:
115,243,148296,6,0,P|188:280|279:213,1,180,2|0,3:2|3:2,0:0:0:0:
307,145,149296,1,10,3:2:0:0:
395,192,149629,2,0,P|450:168|499:170,2,89.9999999999999,2|10|2,3:2|3:2|3:2,0:0:0:0:
377,289,150629,1,10,3:2:0:0:
288,332,150962,6,0,B|224:330|224:330|171:347|171:347|89:344,1,180,6|2,3:2|3:2,0:0:0:0:
24,296,151962,1,10,3:2:0:0:
84,217,152296,2,0,B|110:163|95:102|95:102|123:131|170:135,1,180,2|2,3:2|3:2,0:0:0:0:
244,107,153296,1,10,3:2:0:0:
335,144,153629,6,0,P|385:109|432:95,2,89.9999999999999,2|10|0,3:2|3:2|3:2,0:0:0:0:
278,225,154629,1,10,3:2:0:0:
188,267,154962,2,0,B|147:278|147:278|96:253,1,89.9999999999999,2|10,3:2|3:2,0:0:0:0:
48,174,155629,1,2,3:2:0:0:
91,84,155962,1,10,3:2:0:0:
180,126,156296,6,0,B|256:141|270:86|333:70|385:112,1,180,6|2,3:2|3:2,0:0:0:0:
426,160,157296,1,8,3:2:0:0:
355,228,157629,2,0,P|344:289|341:323,1,89.9999999999999,2|8,3:2|3:2,0:0:0:0:
250,354,158296,2,0,P|239:292|236:258,1,89.9999999999999,2|10,3:2|3:2,0:0:0:0:
274,173,158962,6,0,P|221:153|165:156,2,89.9999999999999,6|10|0,3:2|3:2|3:2,0:0:0:0:
323,259,159962,1,10,3:2:0:0:
244,319,160296,2,0,L|148:339,1,89.9999999999999,14|14,3:2|3:2,0:0:0:0:
59,357,160962,1,14,3:2:0:0:
10,270,161296,1,10,3:2:0:0:
47,178,161629,6,0,B|95:172|131:206|131:206|185:185|181:118,1,180,6|8,3:2|3:2,0:0:0:0:
200,41,162629,2,0,P|247:44|295:101,1,89.9999999999999,0|0,3:2|0:0,0:0:0:0:
321,159,163295,1,8,0:2:0:0:
299,255,163629,2,0,P|254:254|192:272,2,89.9999999999999,0|0|8,3:2|0:2|0:0,0:0:0:0:
378,313,164629,2,0,P|422:312|485:330,2,89.9999999999999,0|0|8,3:2|3:2|0:0,0:0:0:0:
286,352,165629,6,0,P|193:371|94:308,1,180,4|8,3:2|0:0,0:0:0:0:
32,286,166629,2,0,P|55:243|64:179,1,89.9999999999999,0|0,3:2|0:0,0:0:0:0:
33,108,167295,1,8,0:0:0:0:
105,40,167629,2,0,B|225:26|165:80|289:66,1,180,4|8,3:2|0:0,0:0:0:0:
375,43,168629,2,0,P|359:117|359:163,1,89.9999999999999,0|0,3:2|0:0,0:0:0:0:
369,229,169295,1,8,0:2:0:0:
420,313,169629,6,0,B|344:357|344:357|252:342,1,180,4|0,3:2|3:2,0:0:0:0:
217,147,170962,2,0,B|293:103|293:103|385:118,1,180,0|8,3:2|3:2,0:0:0:0:
383,217,171962,1,8,3:2:0:0:
289,250,172295,6,0,P|204:272|102:199,1,180,6|2,3:2|3:2,0:0:0:0:
61,156,173295,1,8,3:2:0:0:
84,59,173629,2,0,P|54:19|6:-4,2,89.9999999999999,2|8|0,3:2|3:2|3:2,0:0:0:0:
171,105,174629,2,0,P|241:84|288:82,1,89.9999999999999,10|0,3:2|3:2,0:0:0:0:
345,37,175295,2,0,P|407:46|471:34,2,89.9999999999999,8|0|8,3:2|3:2|3:2,0:0:0:0:
257,83,176295,1,0,3:2:0:0:
324,155,176629,2,0,L|305:280,1,89.9999999999999,10|2,3:2|3:2,0:0:0:0:
371,322,177295,1,8,3:2:0:0:
283,368,177629,6,0,B|173:369|227:314|110:319,1,180,6|2,3:2|3:2,0:0:0:0:
17,333,178629,1,10,3:2:0:0:
40,237,178962,2,0,P|53:185|53:137,1,89.9999999999999,0|10,3:2|3:2,0:0:0:0:
94,58,179629,2,0,B|60:23|44:47|5:4,2,89.9999999999999,2|8|6,3:2|3:2|3:2,0:0:0:0:
155,135,180629,1,8,3:2:0:0:
187,228,180962,2,0,P|252:199|300:206,1,89.9999999999999,0|8,3:2|3:2,0:0:0:0:
359,239,181629,6,0,B|386:146|386:146|362:104,2,135,2|2|10,3:2|0:0|3:2,0:0:0:0:
327,333,182962,1,4,3:2:0:0:
238,289,183295,1,8,3:2:0:0:
154,342,183629,2,0,P|97:354|52:341,1,89.9999999999999,2|8,3:2|3:2,0:0:0:0:
45,250,184295,2,0,L|58:145,1,89.9999999999999,2|10,3:2|3:2,0:0:0:0:
150,131,184962,2,0,L|163:236,1,89.9999999999999,2|10,3:2|3:2,0:0:0:0:
172,318,185628,5,6,3:2:0:0:
454,51,196295,6,0,P|440:118|436:239,1,180,6|2,3:2|3:2,0:0:0:0:
463,324,197295,1,2,3:2:0:0:
370,360,197628,2,0,B|314:326|245:365|245:365|224:335|172:326,1,180,2|2,3:2|3:2,0:0:0:0:
112,307,198628,1,2,3:2:0:0:
144,213,198962,2,0,P|158:164|154:71,2,135,2|10|2,3:2|0:0|3:2,0:0:0:0:
213,282,200295,2,0,P|250:259|313:268,1,89.9999999999999,2|2,3:2|3:2,0:0:0:0:
378,315,200962,2,0,P|420:316|471:276,1,89.9999999999999,2|2,3:2|3:2,0:0:0:0:
472,194,201628,5,6,3:2:0:0:
284,258,202295,1,2,3:2:0:0:
322,63,202962,1,2,3:2:0:0:
134,127,203628,2,0,P|113:176|115:231,1,89.9999999999999,2|2,3:2|3:2,0:0:0:0:
103,311,204295,2,0,P|172:286|293:297,1,180,6|0,3:2|3:2,0:0:0:0:
363,340,205295,1,2,3:2:0:0:
445,285,205628,6,0,L|455:192,1,89.9999999999999,10|10,0:2|0:2,0:0:0:0:
375,135,206295,2,0,L|365:42,1,89.9999999999999,10|10,0:2|3:2,0:0:0:0:
269,19,206962,6,0,B|210:48|157:10|157:10|121:18|107:60,1,180,6|2,3:2|3:2,0:0:0:0:
108,147,207962,1,10,3:2:0:0:
151,235,208295,2,0,B|165:284|145:324|145:324|184:302|239:313,1,180,2|2,3:2|3:2,0:0:0:0:
316,360,209295,1,10,3:2:0:0:
401,309,209628,6,0,P|429:294|498:281,2,89.9999999999999,2|10|0,3:2|3:2|3:2,0:0:0:0:
311,266,210628,1,10,3:2:0:0:
222,310,210962,2,0,B|177:318|177:318|113:296,1,89.9999999999999,2|10,3:2|3:2,0:0:0:0:
36,304,211628,1,2,3:2:0:0:
2,210,211962,1,10,3:2:0:0:
65,134,212295,6,0,B|92:134|126:146|126:146|182:96|262:117,1,180,6|2,3:2|3:2,0:0:0:0:
305,181,213295,1,8,3:2:0:0:
255,266,213628,2,0,L|251:395,1,89.9999999999999,2|8,3:2|3:2,0:0:0:0:
348,379,214295,2,0,L|344:250,1,89.9999999999999,2|10,3:2|3:2,0:0:0:0:
314,194,214962,6,0,B|364:178|402:202|392:212|439:237|487:221,1,180,2|0,3:2|3:2,0:0:0:0:
512,127,215962,1,10,3:2:0:0:
423,86,216295,2,0,B|424:47|424:47|432:38|432:38|435:-3,2,89.9999999999999,2|10|2,3:2|3:2|3:2,0:0:0:0:
342,143,217295,1,10,3:2:0:0:
265,80,217628,6,0,B|207:53|147:80|147:80|188:150,1,180,6|2,3:2|3:2,0:0:0:0:
222,217,218628,1,10,3:2:0:0:
194,312,218962,2,0,B|149:299|107:329|107:329|49:320|24:260,1,180,2|2,3:2|3:2,0:0:0:0:
74,191,219962,1,10,3:2:0:0:
125,105,220295,6,0,P|118:53|121:4,2,89.9999999999999,2|10|0,3:2|3:2|3:2,0:0:0:0:
208,159,221295,1,10,3:2:0:0:
293,208,221628,2,0,B|335:192|335:192|378:204,1,89.9999999999999,2|10,3:2|3:2,0:0:0:0:
407,298,222295,1,2,3:2:0:0:
319,344,222628,1,10,3:2:0:0:
234,292,222962,6,0,B|171:238|138:285|55:221,1,180,6|2,3:2|3:2,0:0:0:0:
1,156,223962,1,8,3:2:0:0:
79,97,224295,2,0,L|77:-12,1,89.9999999999999,2|8,3:2|3:2,0:0:0:0:
174,24,224962,2,0,L|172:133,1,89.9999999999999,2|10,3:2|3:2,0:0:0:0:
212,204,225628,6,0,B|250:191|288:207|288:207|315:195|315:195|348:213|390:204,1,180,6|0,3:2|3:2,0:0:0:0:
466,147,226628,1,10,3:2:0:0:
499,240,226962,2,0,P|464:283|443:318,1,89.9999999999999,14|14,3:2|3:2,0:0:0:0:
357,355,227628,1,14,3:2:0:0:
265,315,227962,1,10,3:2:0:0:
178,362,228295,6,0,B|100:330|100:373|13:361|13:361|47:318|40:265,1,270,6|8,3:2|3:2,0:0:0:0:
84,177,229628,2,0,P|49:138|42:96,2,89.9999999999999,2|10|2,3:2|3:2|3:2,0:0:0:0:
182,186,230628,1,10,3:2:0:0:
259,123,230962,2,0,B|342:61|437:112|437:112|396:137|383:197,1,270,2|8,3:2|3:2,0:0:0:0:
429,265,232295,2,0,P|407:334|303:320,1,180,0|0,3:2|3:2,0:0:0:0:
290,236,233295,1,10,3:2:0:0:
200,278,233628,6,0,B|128:301|128:301|35:290|51:233|133:231|102:127,1,270,2|8,3:2|3:2,0:0:0:0:
151,66,234962,2,0,P|98:41|62:40,2,89.9999999999999,0|10|2,3:2|3:2|3:2,0:0:0:0:
223,133,235962,1,10,3:2:0:0:
307,81,236295,2,0,B|380:62|408:104|408:104|405:155|360:185,2,180,2|2|0,3:2|3:2|3:2,0:0:0:0:
223,133,237962,1,10,3:2:0:0:
275,216,238295,2,0,L|282:336,1,89.9999999999999,0|8,3:2|3:2,0:0:0:0:
360,363,238962,6,0,B|430:404|531:401|515:287|471:252|393:299,1,270,6|8,3:2|3:2,0:0:0:0:
366,201,240295,2,0,P|389:144|392:97,2,89.9999999999999,2|10|2,3:2|3:2|3:2,0:0:0:0:
279,249,241295,1,10,3:2:0:0:
195,196,241628,2,0,B|151:179|100:212|100:212|28:212|23:176|18:141|49:104|96:109,1,270,2|8,3:2|3:2,0:0:0:0:
152,48,242962,2,0,P|207:71|336:64,1,180,0|0,3:2|3:2,0:0:0:0:
407,14,243962,1,10,3:2:0:0:
478,82,244295,6,0,B|471:154|471:154|449:188|449:188|443:283,1,180,6|10,3:2|3:2,0:0:0:0:
439,354,245295,1,0,3:2:0:0:
351,307,245628,2,0,P|303:296|256:308,1,89.9999999999999,0|2,0:0|3:2,0:0:0:0:
184,363,246295,2,0,P|136:374|89:362,1,89.9999999999999,10|10,3:2|3:2,0:0:0:0:
24,298,246962,1,6,3:2:0:0:
81,108,247628,2,0,P|149:127|157:209,1,135,6|6,3:2|3:2,0:0:0:0:
466,357,249295,1,8,3:2:0:0:
428,265,249628,6,0,B|433:218|433:218|458:195|458:195|467:138,2,135,12|12|12,3:2|3:2|3:2,0:0:0:0:
