osu file format v14

[General]
AudioFilename: audio.mp3
AudioLeadIn: 0
PreviewTime: 32119
Countdown: 0
SampleSet: None
StackLeniency: 0.7
Mode: 3
LetterboxInBreaks: 0
SpecialStyle: 0
WidescreenStoryboard: 1

[Editor]
DistanceSpacing: 0.8
BeatDivisor: 4
GridSize: 32
TimelineZoom: 2.4

[Metadata]
Title:Prism lovely day
TitleUnicode:プリズム lovely day
Artist:solfa feat. Chata
ArtistUnicode:solfa feat.茶太
Creator:ExNeko
Version:~
Source:彼女と俺の恋愛日常
Tags:
BeatmapID:1871923
BeatmapSetID:895889

[Difficulty]
HPDrainRate:8
CircleSize:4
OverallDifficulty:8
ApproachRate:5
SliderMultiplier:1.4
SliderTickRate:1

[Events]
//Background and Video events
0,0,"EV_B04_01.jpg",0,0
//Break Periods
//Storyboard Layer 0 (Background)
//Storyboard Layer 1 (Fail)
//Storyboard Layer 2 (Pass)
//Storyboard Layer 3 (Foreground)
//Storyboard Sound Samples
Sample,91201,0,"normal-hitclap.wav",0
Sample,91368,0,"normal-hitclap.wav",0

[TimingPoints]
120,333.333333333333,4,1,1,50,1,0
32119,-100,4,1,1,25,0,0
53453,333.333333333333,3,1,1,50,1,0
53453,-100,3,1,1,50,0,0
59452,333.333333333333,4,1,1,50,1,0
59452,-100,4,1,1,50,0,0
64785,-100,4,1,1,50,0,1
86118,-100,4,1,1,50,0,0

[HitObjects]
64,192,120,128,2,453:0:0:0:0:
192,192,120,1,4,0:0:0:0:
448,192,120,1,0,0:0:0:0:
64,192,786,128,0,1119:0:0:0:0:
192,192,1119,128,0,1453:0:0:0:0:
64,192,1453,1,4,0:0:0:0:
320,192,1453,128,2,1786:0:0:0:0:
448,192,1453,1,0,0:0:0:0:
320,192,2119,128,0,2453:0:0:0:0:
192,192,2453,128,0,2786:0:0:0:0:
64,192,2786,1,2,0:0:0:0:
320,192,2786,1,4,0:0:0:0:
448,192,2786,128,0,3119:0:0:0:0:
192,192,3119,1,0,0:0:0:0:
448,192,3286,128,0,3453:0:0:0:0:
64,192,3786,128,0,3953:0:0:0:0:
192,192,4119,1,4,0:0:0:0:
320,192,4119,128,2,4453:0:0:0:0:
448,192,4119,1,0,0:0:0:0:
192,192,4453,128,0,4786:0:0:0:0:
64,192,4786,128,4,5119:0:0:0:0:
320,192,4786,1,2,0:0:0:0:
448,192,4786,1,0,0:0:0:0:
320,192,5119,1,8,0:0:0:0:
448,192,5119,1,0,0:0:0:0:
64,192,5203,1,8,0:0:0:0:
192,192,5203,1,0,0:0:0:0:
320,192,5286,1,8,0:0:0:0:
448,192,5286,1,0,0:0:0:0:
64,192,5369,1,8,0:0:0:0:
192,192,5369,1,0,0:0:0:0:
320,192,5453,1,4,0:0:0:0:
448,192,5453,1,2,0:0:0:0:
64,192,5619,1,0,0:0:0:0:
192,192,5786,1,2,0:0:0:0:
448,192,5786,1,0,0:0:0:0:
320,192,5953,1,0,0:0:0:0:
64,192,6119,1,2,0:0:0:0:
192,192,6119,1,0,0:0:0:0:
320,192,6286,1,0,0:0:0:0:
192,192,6369,1,0,0:0:0:0:
64,192,6453,1,2,0:0:0:0:
448,192,6453,1,0,0:0:0:0:
320,192,6619,1,0,0:0:0:0:
64,192,6786,1,2,0:0:0:0:
192,192,6786,1,0,0:0:0:0:
320,192,6953,1,0,0:0:0:0:
192,192,7036,1,0,0:0:0:0:
64,192,7119,1,2,0:0:0:0:
448,192,7119,1,0,0:0:0:0:
448,192,7286,1,0,0:0:0:0:
320,192,7369,1,0,0:0:0:0:
64,192,7453,1,2,0:0:0:0:
192,192,7453,1,0,0:0:0:0:
192,192,7619,1,0,0:0:0:0:
320,192,7703,1,0,0:0:0:0:
64,192,7786,1,2,0:0:0:0:
448,192,7786,1,0,0:0:0:0:
64,192,7953,1,0,0:0:0:0:
192,192,8036,1,0,0:0:0:0:
320,192,8119,1,2,0:0:0:0:
448,192,8119,1,0,0:0:0:0:
64,192,8286,1,0,0:0:0:0:
192,192,8286,1,0,0:0:0:0:
320,192,8369,1,0,0:0:0:0:
64,192,8453,1,2,0:0:0:0:
448,192,8453,1,0,0:0:0:0:
320,192,8619,1,0,0:0:0:0:
448,192,8619,1,0,0:0:0:0:
64,192,8703,1,0,0:0:0:0:
192,192,8786,1,2,0:0:0:0:
320,192,8786,1,0,0:0:0:0:
64,192,8953,1,0,0:0:0:0:
448,192,8953,1,0,0:0:0:0:
192,192,9036,1,0,0:0:0:0:
320,192,9119,1,8,0:0:0:0:
448,192,9119,1,0,0:0:0:0:
64,192,9203,1,8,0:0:0:0:
192,192,9203,1,0,0:0:0:0:
320,192,9286,1,8,0:0:0:0:
448,192,9286,1,0,0:0:0:0:
64,192,9369,1,8,0:0:0:0:
192,192,9369,1,0,0:0:0:0:
320,192,9453,1,2,0:0:0:0:
448,192,9453,1,4,0:0:0:0:
192,192,9786,1,0,0:0:0:0:
64,192,10119,1,0,0:0:0:0:
192,192,10286,1,2,0:0:0:0:
320,192,10286,1,0,0:0:0:0:
320,192,10453,1,8,0:0:0:0:
448,192,10453,1,0,0:0:0:0:
64,192,10536,1,8,0:0:0:0:
192,192,10536,1,0,0:0:0:0:
320,192,10619,1,8,0:0:0:0:
448,192,10619,1,0,0:0:0:0:
64,192,10703,1,8,0:0:0:0:
192,192,10703,1,0,0:0:0:0:
320,192,10786,1,4,0:0:0:0:
448,192,10786,128,2,11453:0:0:0:0:
64,192,10953,1,0,0:0:0:0:
64,192,11119,1,8,0:0:0:0:
192,192,11119,1,0,0:0:0:0:
320,192,11119,1,0,0:0:0:0:
192,192,11286,1,0,0:0:0:0:
64,192,11453,128,2,12119:0:0:0:0:
320,192,11453,1,0,0:0:0:0:
192,192,11619,1,0,0:0:0:0:
192,192,11786,1,8,0:0:0:0:
320,192,11786,1,0,0:0:0:0:
448,192,11786,1,0,0:0:0:0:
320,192,11953,1,0,0:0:0:0:
192,192,12119,128,2,12453:0:0:0:0:
448,192,12119,1,0,0:0:0:0:
320,192,12286,1,0,0:0:0:0:
64,192,12453,1,8,0:0:0:0:
320,192,12453,128,0,12786:0:0:0:0:
448,192,12453,1,0,0:0:0:0:
192,192,12619,1,0,0:0:0:0:
64,192,12786,1,2,0:0:0:0:
448,192,12786,128,0,13119:0:0:0:0:
192,192,12953,1,0,0:0:0:0:
64,192,13119,128,8,13453:0:0:0:0:
192,192,13119,1,0,0:0:0:0:
320,192,13119,1,0,0:0:0:0:
448,192,13286,1,0,0:0:0:0:
192,192,13453,1,2,0:0:0:0:
320,192,13453,128,0,14119:0:0:0:0:
448,192,13619,1,0,0:0:0:0:
64,192,13786,1,8,0:0:0:0:
192,192,13786,1,0,0:0:0:0:
448,192,13786,1,0,0:0:0:0:
64,192,13953,1,0,0:0:0:0:
192,192,14119,1,2,0:0:0:0:
448,192,14119,128,0,14619:0:0:0:0:
64,192,14286,1,0,0:0:0:0:
64,192,14453,1,8,0:0:0:0:
192,192,14453,1,0,0:0:0:0:
320,192,14453,1,0,0:0:0:0:
192,192,14619,128,0,15786:0:0:0:0:
64,192,14786,1,2,0:0:0:0:
448,192,14786,1,0,0:0:0:0:
320,192,14953,1,0,0:0:0:0:
64,192,15119,1,8,0:0:0:0:
320,192,15119,1,0,0:0:0:0:
448,192,15119,1,0,0:0:0:0:
448,192,15286,1,0,0:0:0:0:
64,192,15453,1,2,0:0:0:0:
320,192,15453,1,0,0:0:0:0:
448,192,15619,1,0,0:0:0:0:
64,192,15786,1,8,0:0:0:0:
320,192,15786,1,0,0:0:0:0:
448,192,15786,1,0,0:0:0:0:
320,192,15953,1,0,0:0:0:0:
192,192,16119,128,2,16786:0:0:0:0:
448,192,16119,1,0,0:0:0:0:
64,192,16286,1,0,0:0:0:0:
64,192,16453,1,8,0:0:0:0:
320,192,16453,1,0,0:0:0:0:
448,192,16453,1,0,0:0:0:0:
320,192,16619,1,0,0:0:0:0:
64,192,16786,1,2,0:0:0:0:
448,192,16786,128,0,17286:0:0:0:0:
192,192,16953,1,0,0:0:0:0:
64,192,17119,1,8,0:0:0:0:
192,192,17119,1,0,0:0:0:0:
320,192,17119,1,0,0:0:0:0:
320,192,17286,128,0,17786:0:0:0:0:
64,192,17453,1,2,0:0:0:0:
192,192,17453,1,0,0:0:0:0:
448,192,17619,1,0,0:0:0:0:
64,192,17786,1,8,0:0:0:0:
192,192,17786,128,0,18119:0:0:0:0:
448,192,17786,1,0,0:0:0:0:
320,192,17953,1,0,0:0:0:0:
64,192,18119,128,2,18453:0:0:0:0:
448,192,18119,1,0,0:0:0:0:
320,192,18286,1,0,0:0:0:0:
192,192,18453,1,8,0:0:0:0:
320,192,18453,128,0,18786:0:0:0:0:
448,192,18453,1,0,0:0:0:0:
64,192,18619,1,0,0:0:0:0:
192,192,18786,128,2,19119:0:0:0:0:
448,192,18786,1,0,0:0:0:0:
64,192,18953,1,0,0:0:0:0:
64,192,19119,1,8,0:0:0:0:
320,192,19119,1,0,0:0:0:0:
448,192,19119,128,0,19453:0:0:0:0:
320,192,19286,1,0,0:0:0:0:
64,192,19453,1,2,0:0:0:0:
192,192,19453,128,0,19619:0:0:0:0:
448,192,19619,128,0,19953:0:0:0:0:
64,192,19786,1,8,0:0:0:0:
192,192,19786,1,0,0:0:0:0:
320,192,19786,1,0,0:0:0:0:
64,192,19953,128,0,20286:0:0:0:0:
320,192,20119,1,2,0:0:0:0:
448,192,20119,1,0,0:0:0:0:
192,192,20286,128,0,20453:0:0:0:0:
64,192,20453,1,8,0:0:0:0:
320,192,20453,128,0,20619:0:0:0:0:
448,192,20453,1,0,0:0:0:0:
448,192,20619,128,0,21119:0:0:0:0:
192,192,20786,1,2,0:0:0:0:
320,192,20786,1,0,0:0:0:0:
320,192,20953,1,0,0:0:0:0:
64,192,21119,1,8,0:0:0:0:
192,192,21119,1,0,0:0:0:0:
320,192,21203,1,8,0:0:0:0:
448,192,21203,1,0,0:0:0:0:
64,192,21286,1,8,0:0:0:0:
192,192,21286,1,0,0:0:0:0:
320,192,21369,1,8,0:0:0:0:
448,192,21369,1,0,0:0:0:0:
64,192,21453,1,4,0:0:0:0:
192,192,21453,128,2,22119:0:0:0:0:
448,192,21619,1,0,0:0:0:0:
64,192,21786,1,8,0:0:0:0:
320,192,21786,1,0,0:0:0:0:
448,192,21786,1,0,0:0:0:0:
320,192,21953,1,0,0:0:0:0:
64,192,22119,1,2,0:0:0:0:
448,192,22119,128,0,22786:0:0:0:0:
192,192,22286,1,0,0:0:0:0:
64,192,22453,1,8,0:0:0:0:
192,192,22453,1,0,0:0:0:0:
320,192,22453,1,0,0:0:0:0:
64,192,22619,1,0,0:0:0:0:
192,192,22786,1,2,0:0:0:0:
320,192,22786,128,0,23119:0:0:0:0:
64,192,22953,1,0,0:0:0:0:
64,192,23119,1,8,0:0:0:0:
192,192,23119,128,0,23453:0:0:0:0:
448,192,23119,1,0,0:0:0:0:
320,192,23286,1,0,0:0:0:0:
64,192,23453,128,2,23786:0:0:0:0:
448,192,23453,1,0,0:0:0:0:
320,192,23619,1,0,0:0:0:0:
192,192,23786,1,8,0:0:0:0:
320,192,23786,1,0,0:0:0:0:
448,192,23786,128,0,24119:0:0:0:0:
64,192,23953,1,0,0:0:0:0:
192,192,24119,128,2,24786:0:0:0:0:
320,192,24119,1,0,0:0:0:0:
448,192,24286,1,0,0:0:0:0:
64,192,24453,1,8,0:0:0:0:
320,192,24453,1,0,0:0:0:0:
448,192,24453,1,0,0:0:0:0:
320,192,24619,1,0,0:0:0:0:
64,192,24786,128,2,25286:0:0:0:0:
448,192,24786,1,0,0:0:0:0:
192,192,24953,1,0,0:0:0:0:
192,192,25119,1,8,0:0:0:0:
320,192,25119,1,0,0:0:0:0:
448,192,25119,1,0,0:0:0:0:
320,192,25286,128,0,26453:0:0:0:0:
64,192,25453,1,2,0:0:0:0:
192,192,25453,1,0,0:0:0:0:
448,192,25619,1,0,0:0:0:0:
64,192,25786,1,8,0:0:0:0:
192,192,25786,1,0,0:0:0:0:
448,192,25786,1,0,0:0:0:0:
64,192,25953,1,0,0:0:0:0:
192,192,26119,1,2,0:0:0:0:
448,192,26119,1,0,0:0:0:0:
64,192,26286,1,0,0:0:0:0:
64,192,26453,1,8,0:0:0:0:
192,192,26453,1,0,0:0:0:0:
320,192,26536,1,8,0:0:0:0:
448,192,26536,1,0,0:0:0:0:
64,192,26619,1,8,0:0:0:0:
192,192,26619,1,0,0:0:0:0:
320,192,26703,1,8,0:0:0:0:
448,192,26703,1,0,0:0:0:0:
64,192,26786,128,2,27453:0:0:0:0:
192,192,26786,1,4,0:0:0:0:
320,192,27119,1,2,0:0:0:0:
448,192,27119,1,0,0:0:0:0:
192,192,27453,1,8,0:0:0:0:
320,192,27453,128,0,27953:0:0:0:0:
448,192,27453,1,0,0:0:0:0:
64,192,27786,1,2,0:0:0:0:
192,192,27786,1,0,0:0:0:0:
64,192,27953,1,8,0:0:0:0:
192,192,27953,128,0,28453:0:0:0:0:
448,192,27953,1,0,0:0:0:0:
320,192,28119,1,0,0:0:0:0:
64,192,28286,1,8,0:0:0:0:
320,192,28286,1,0,0:0:0:0:
448,192,28286,1,0,0:0:0:0:
64,192,28453,1,2,0:0:0:0:
448,192,28453,128,0,28786:0:0:0:0:
64,192,28786,1,8,0:0:0:0:
192,192,28786,1,0,0:0:0:0:
320,192,28786,128,0,29119:0:0:0:0:
64,192,29119,1,8,0:0:0:0:
192,192,29119,1,0,0:0:0:0:
320,192,29203,1,8,0:0:0:0:
448,192,29203,1,0,0:0:0:0:
64,192,29286,1,8,0:0:0:0:
192,192,29286,1,0,0:0:0:0:
320,192,29369,1,8,0:0:0:0:
448,192,29369,1,0,0:0:0:0:
64,192,29453,1,2,0:0:0:0:
192,192,29453,1,4,0:0:0:0:
64,192,29786,1,2,0:0:0:0:
320,192,29786,1,4,0:0:0:0:
448,192,29786,1,0,0:0:0:0:
64,192,30119,1,2,0:0:0:0:
192,192,30119,1,4,0:0:0:0:
320,192,30119,1,0,0:0:0:0:
64,192,30286,1,4,0:0:0:0:
320,192,30286,1,2,0:0:0:0:
448,192,30286,1,0,0:0:0:0:
64,192,30619,1,4,0:0:0:0:
192,192,30619,1,2,0:0:0:0:
320,192,30619,1,0,0:0:0:0:
192,192,30953,128,0,31286:0:0:0:0:
320,192,31119,128,0,31453:0:0:0:0:
448,192,31286,128,0,31619:0:0:0:0:
64,192,31453,128,0,31786:0:0:0:0:
192,192,31619,1,2,0:0:0:0:
320,192,31619,1,0,0:0:0:0:
320,192,31786,1,8,0:0:0:0:
448,192,31786,1,0,0:0:0:0:
64,192,31869,1,8,0:0:0:0:
192,192,31869,1,0,0:0:0:0:
320,192,31953,1,8,0:0:0:0:
448,192,31953,1,0,0:0:0:0:
64,192,32036,1,8,0:0:0:0:
192,192,32036,1,0,0:0:0:0:
320,192,32119,1,4,0:0:0:0:
448,192,32119,1,2,0:0:0:0:
320,192,32286,1,0,0:0:0:0:
64,192,32453,1,2,0:0:0:0:
192,192,32453,1,0,0:0:0:0:
448,192,32619,1,0,0:0:0:0:
64,192,32786,1,2,0:0:0:0:
320,192,32786,1,0,0:0:0:0:
192,192,32953,1,0,0:0:0:0:
320,192,33119,1,2,0:0:0:0:
448,192,33119,1,0,0:0:0:0:
64,192,33286,1,0,0:0:0:0:
192,192,33453,1,2,0:0:0:0:
448,192,33453,1,0,0:0:0:0:
320,192,33619,1,0,0:0:0:0:
64,192,33786,1,2,0:0:0:0:
192,192,33786,1,0,0:0:0:0:
448,192,33953,1,0,0:0:0:0:
64,192,34119,1,2,0:0:0:0:
320,192,34119,1,0,0:0:0:0:
192,192,34286,1,0,0:0:0:0:
192,192,34453,1,2,0:0:0:0:
448,192,34453,1,0,0:0:0:0:
192,192,34619,1,0,0:0:0:0:
320,192,34786,1,2,0:0:0:0:
448,192,34786,1,0,0:0:0:0:
448,192,34953,1,0,0:0:0:0:
64,192,35119,1,2,0:0:0:0:
192,192,35119,1,0,0:0:0:0:
320,192,35286,1,0,0:0:0:0:
64,192,35453,128,2,36119:0:0:0:0:
448,192,35453,1,0,0:0:0:0:
192,192,35619,1,0,0:0:0:0:
320,192,35786,1,2,0:0:0:0:
448,192,35786,1,0,0:0:0:0:
192,192,35953,1,0,0:0:0:0:
320,192,36119,128,2,36786:0:0:0:0:
448,192,36119,1,0,0:0:0:0:
64,192,36286,1,0,0:0:0:0:
192,192,36453,1,2,0:0:0:0:
448,192,36453,1,0,0:0:0:0:
64,192,36619,1,0,0:0:0:0:
192,192,36786,128,2,37453:0:0:0:0:
448,192,36786,1,0,0:0:0:0:
320,192,36953,1,0,0:0:0:0:
64,192,37119,1,2,0:0:0:0:
320,192,37119,1,0,0:0:0:0:
320,192,37286,1,0,0:0:0:0:
64,192,37453,1,2,0:0:0:0:
448,192,37453,128,0,38119:0:0:0:0:
64,192,37619,1,0,0:0:0:0:
192,192,37786,1,2,0:0:0:0:
320,192,37786,1,0,0:0:0:0:
64,192,37953,1,0,0:0:0:0:
192,192,38119,1,2,0:0:0:0:
320,192,38119,1,0,0:0:0:0:
448,192,38286,1,0,0:0:0:0:
64,192,38453,1,2,0:0:0:0:
192,192,38453,1,0,0:0:0:0:
320,192,38619,1,0,0:0:0:0:
192,192,38786,1,2,0:0:0:0:
448,192,38786,1,0,0:0:0:0:
64,192,38953,1,0,0:0:0:0:
192,192,39119,1,2,0:0:0:0:
320,192,39119,1,0,0:0:0:0:
448,192,39286,1,0,0:0:0:0:
64,192,39453,1,2,0:0:0:0:
192,192,39453,1,0,0:0:0:0:
320,192,39619,1,0,0:0:0:0:
64,192,39786,1,2,0:0:0:0:
320,192,39786,1,0,0:0:0:0:
320,192,39953,1,0,0:0:0:0:
192,192,40119,1,2,0:0:0:0:
448,192,40119,1,0,0:0:0:0:
192,192,40286,1,0,0:0:0:0:
320,192,40453,1,2,0:0:0:0:
448,192,40453,1,0,0:0:0:0:
64,192,40619,1,0,0:0:0:0:
192,192,40786,1,2,0:0:0:0:
448,192,40786,1,0,0:0:0:0:
320,192,40953,1,0,0:0:0:0:
64,192,41119,1,2,0:0:0:0:
192,192,41119,1,0,0:0:0:0:
320,192,41286,1,0,0:0:0:0:
64,192,41453,1,2,0:0:0:0:
448,192,41453,1,0,0:0:0:0:
192,192,41619,1,0,0:0:0:0:
320,192,41786,128,2,42119:0:0:0:0:
448,192,41786,1,0,0:0:0:0:
64,192,41953,1,0,0:0:0:0:
192,192,42119,128,2,42453:0:0:0:0:
448,192,42119,1,0,0:0:0:0:
320,192,42286,1,0,0:0:0:0:
64,192,42453,128,2,42786:0:0:0:0:
320,192,42453,1,0,0:0:0:0:
320,192,42619,1,0,0:0:0:0:
192,192,42786,1,2,0:0:0:0:
320,192,42786,1,4,0:0:0:0:
448,192,42786,128,0,43119:0:0:0:0:
64,192,42953,1,2,0:0:0:0:
192,192,42953,1,0,0:0:0:0:
64,192,43119,1,2,0:0:0:0:
320,192,43119,1,0,0:0:0:0:
192,192,43286,1,8,0:0:0:0:
448,192,43286,1,0,0:0:0:0:
320,192,43453,1,2,0:0:0:0:
448,192,43453,1,0,0:0:0:0:
64,192,43619,1,8,0:0:0:0:
192,192,43619,1,0,0:0:0:0:
192,192,43786,1,2,0:0:0:0:
448,192,43786,1,0,0:0:0:0:
64,192,43953,1,8,0:0:0:0:
320,192,43953,1,0,0:0:0:0:
192,192,44119,1,2,0:0:0:0:
320,192,44119,1,0,0:0:0:0:
64,192,44286,1,8,0:0:0:0:
448,192,44286,1,0,0:0:0:0:
64,192,44453,1,2,0:0:0:0:
192,192,44453,1,0,0:0:0:0:
320,192,44619,1,8,0:0:0:0:
448,192,44619,1,0,0:0:0:0:
64,192,44786,1,2,0:0:0:0:
320,192,44786,1,0,0:0:0:0:
192,192,44953,1,8,0:0:0:0:
448,192,44953,1,0,0:0:0:0:
64,192,45119,1,2,0:0:0:0:
448,192,45119,1,0,0:0:0:0:
192,192,45286,1,8,0:0:0:0:
448,192,45286,1,0,0:0:0:0:
64,192,45453,1,2,0:0:0:0:
192,192,45453,1,0,0:0:0:0:
64,192,45619,1,8,0:0:0:0:
320,192,45619,1,0,0:0:0:0:
320,192,45786,1,2,0:0:0:0:
448,192,45786,1,0,0:0:0:0:
64,192,45953,1,8,0:0:0:0:
192,192,45953,1,0,0:0:0:0:
192,192,46119,1,2,0:0:0:0:
448,192,46119,128,0,46786:0:0:0:0:
64,192,46286,1,8,0:0:0:0:
320,192,46286,1,0,0:0:0:0:
192,192,46453,1,2,0:0:0:0:
320,192,46453,1,0,0:0:0:0:
64,192,46619,1,8,0:0:0:0:
192,192,46619,1,0,0:0:0:0:
64,192,46786,1,2,0:0:0:0:
320,192,46786,128,0,47453:0:0:0:0:
192,192,46953,1,8,0:0:0:0:
448,192,46953,1,0,0:0:0:0:
64,192,47119,1,2,0:0:0:0:
192,192,47119,1,0,0:0:0:0:
64,192,47286,1,8,0:0:0:0:
448,192,47286,1,0,0:0:0:0:
192,192,47453,128,2,48119:0:0:0:0:
448,192,47453,1,0,0:0:0:0:
64,192,47619,1,8,0:0:0:0:
320,192,47619,1,0,0:0:0:0:
320,192,47786,1,2,0:0:0:0:
448,192,47786,1,0,0:0:0:0:
64,192,47953,1,8,0:0:0:0:
320,192,47953,1,0,0:0:0:0:
64,192,48119,128,2,48786:0:0:0:0:
448,192,48119,1,0,0:0:0:0:
192,192,48286,1,8,0:0:0:0:
448,192,48286,1,0,0:0:0:0:
192,192,48453,1,2,0:0:0:0:
320,192,48453,1,0,0:0:0:0:
320,192,48619,1,8,0:0:0:0:
448,192,48619,1,0,0:0:0:0:
192,192,48786,1,2,0:0:0:0:
448,192,48786,1,0,0:0:0:0:
64,192,48953,1,8,0:0:0:0:
320,192,48953,1,0,0:0:0:0:
320,192,49119,1,2,0:0:0:0:
448,192,49119,1,0,0:0:0:0:
64,192,49286,1,8,0:0:0:0:
192,192,49286,1,0,0:0:0:0:
192,192,49453,1,2,0:0:0:0:
320,192,49453,1,0,0:0:0:0:
64,192,49619,1,8,0:0:0:0:
448,192,49619,1,0,0:0:0:0:
192,192,49786,1,2,0:0:0:0:
448,192,49786,1,0,0:0:0:0:
64,192,49953,1,8,0:0:0:0:
320,192,49953,1,0,0:0:0:0:
320,192,50119,1,2,0:0:0:0:
448,192,50119,1,0,0:0:0:0:
64,192,50286,1,8,0:0:0:0:
192,192,50286,1,0,0:0:0:0:
64,192,50453,1,2,0:0:0:0:
320,192,50453,1,0,0:0:0:0:
64,192,50619,1,8,0:0:0:0:
192,192,50619,1,0,0:0:0:0:
192,192,50786,1,2,0:0:0:0:
448,192,50786,1,0,0:0:0:0:
320,192,50953,1,8,0:0:0:0:
448,192,50953,1,0,0:0:0:0:
64,192,51119,1,2,0:0:0:0:
320,192,51119,1,0,0:0:0:0:
192,192,51286,1,8,0:0:0:0:
448,192,51286,1,0,0:0:0:0:
64,192,51453,128,2,52119:0:0:0:0:
192,192,51453,1,0,0:0:0:0:
320,192,51619,1,8,0:0:0:0:
448,192,51619,1,0,0:0:0:0:
192,192,51786,1,2,0:0:0:0:
320,192,51786,1,0,0:0:0:0:
192,192,51953,1,8,0:0:0:0:
448,192,51953,1,0,0:0:0:0:
320,192,52119,1,2,0:0:0:0:
448,192,52119,128,0,52786:0:0:0:0:
64,192,52286,1,8,0:0:0:0:
320,192,52286,1,0,0:0:0:0:
64,192,52453,1,2,0:0:0:0:
192,192,52453,1,0,0:0:0:0:
192,192,52619,1,8,0:0:0:0:
320,192,52619,1,0,0:0:0:0:
64,192,52786,1,2,0:0:0:0:
320,192,52786,128,0,53119:0:0:0:0:
192,192,52953,1,8,0:0:0:0:
448,192,52953,1,0,0:0:0:0:
64,192,53119,1,8,0:0:0:0:
192,192,53119,1,0,0:0:0:0:
64,192,53286,1,8,0:0:0:0:
192,192,53286,1,0,0:0:0:0:
320,192,53369,1,8,0:0:0:0:
448,192,53369,1,0,0:0:0:0:
64,192,53453,1,2,0:0:0:0:
192,192,53453,1,4,0:0:0:0:
64,192,53786,1,0,0:0:0:0:
64,192,54008,1,2,0:0:0:0:
192,192,54008,1,0,0:0:0:0:
192,192,54119,1,8,0:0:0:0:
320,192,54119,1,0,0:0:0:0:
448,192,54119,1,0,0:0:0:0:
64,192,54341,1,2,0:0:0:0:
192,192,54341,1,0,0:0:0:0:
320,192,54453,1,2,0:0:0:0:
448,192,54453,1,0,0:0:0:0:
320,192,54675,1,2,0:0:0:0:
448,192,54675,1,0,0:0:0:0:
64,192,54786,1,0,0:0:0:0:
320,192,55008,1,2,0:0:0:0:
448,192,55008,1,0,0:0:0:0:
64,192,55119,1,8,0:0:0:0:
192,192,55119,1,0,0:0:0:0:
448,192,55119,1,0,0:0:0:0:
320,192,55341,1,2,0:0:0:0:
448,192,55341,1,0,0:0:0:0:
64,192,55453,1,2,0:0:0:0:
192,192,55453,1,0,0:0:0:0:
448,192,55786,1,0,0:0:0:0:
64,192,56008,1,2,0:0:0:0:
192,192,56008,1,0,0:0:0:0:
64,192,56119,1,8,0:0:0:0:
320,192,56119,1,0,0:0:0:0:
448,192,56119,1,0,0:0:0:0:
64,192,56341,1,2,0:0:0:0:
192,192,56341,1,0,0:0:0:0:
320,192,56453,1,2,0:0:0:0:
448,192,56453,1,0,0:0:0:0:
320,192,56675,1,2,0:0:0:0:
448,192,56675,1,0,0:0:0:0:
192,192,56786,1,0,0:0:0:0:
320,192,57008,1,2,0:0:0:0:
448,192,57008,1,0,0:0:0:0:
64,192,57119,1,8,0:0:0:0:
192,192,57119,1,0,0:0:0:0:
448,192,57119,1,0,0:0:0:0:
192,192,57341,1,8,0:0:0:0:
320,192,57341,1,0,0:0:0:0:
448,192,57341,1,0,0:0:0:0:
64,192,57452,1,4,0:0:0:0:
192,192,57452,1,2,0:0:0:0:
320,192,57452,1,0,0:0:0:0:
320,192,57675,1,2,0:0:0:0:
448,192,57675,1,0,0:0:0:0:
192,192,57786,1,0,0:0:0:0:
64,192,58008,1,2,0:0:0:0:
192,192,58008,1,0,0:0:0:0:
64,192,58119,1,8,0:0:0:0:
320,192,58119,1,0,0:0:0:0:
448,192,58119,1,0,0:0:0:0:
64,192,58341,1,2,0:0:0:0:
192,192,58341,1,0,0:0:0:0:
320,192,58452,1,2,0:0:0:0:
448,192,58452,1,0,0:0:0:0:
320,192,58675,1,2,0:0:0:0:
448,192,58675,1,0,0:0:0:0:
64,192,58786,1,0,0:0:0:0:
320,192,59008,1,2,0:0:0:0:
448,192,59008,1,0,0:0:0:0:
64,192,59119,1,8,0:0:0:0:
448,192,59119,1,0,0:0:0:0:
64,192,59341,1,2,0:0:0:0:
192,192,59341,1,0,0:0:0:0:
192,192,59452,1,2,0:0:0:0:
320,192,59452,1,4,0:0:0:0:
448,192,59452,1,0,0:0:0:0:
320,192,59618,1,0,0:0:0:0:
448,192,59618,1,0,0:0:0:0:
64,192,59785,1,8,0:0:0:0:
192,192,59785,1,0,0:0:0:0:
320,192,59785,1,0,0:0:0:0:
448,192,59785,1,0,0:0:0:0:
64,192,59952,1,0,0:0:0:0:
64,192,60118,1,8,0:0:0:0:
192,192,60118,1,0,0:0:0:0:
320,192,60118,1,0,0:0:0:0:
448,192,60118,1,0,0:0:0:0:
192,192,60285,1,2,0:0:0:0:
448,192,60285,1,0,0:0:0:0:
64,192,60452,1,8,0:0:0:0:
192,192,60452,1,0,0:0:0:0:
320,192,60452,1,0,0:0:0:0:
448,192,60452,1,0,0:0:0:0:
64,192,60618,1,2,0:0:0:0:
320,192,60618,1,0,0:0:0:0:
64,192,60785,1,8,0:0:0:0:
192,192,60785,1,0,0:0:0:0:
320,192,60785,1,0,0:0:0:0:
448,192,60785,1,0,0:0:0:0:
320,192,60952,1,2,0:0:0:0:
448,192,60952,1,0,0:0:0:0:
64,192,61118,1,8,0:0:0:0:
192,192,61118,1,0,0:0:0:0:
320,192,61118,1,0,0:0:0:0:
448,192,61118,1,0,0:0:0:0:
192,192,61285,1,0,0:0:0:0:
64,192,61452,1,8,0:0:0:0:
192,192,61452,1,0,0:0:0:0:
320,192,61452,1,0,0:0:0:0:
448,192,61452,1,0,0:0:0:0:
64,192,61618,1,2,0:0:0:0:
192,192,61618,1,0,0:0:0:0:
320,192,61785,1,8,0:0:0:0:
448,192,61785,1,0,0:0:0:0:
64,192,61868,1,8,0:0:0:0:
192,192,61868,1,0,0:0:0:0:
320,192,61952,1,8,0:0:0:0:
448,192,61952,1,0,0:0:0:0:
64,192,62035,1,8,0:0:0:0:
192,192,62035,1,0,0:0:0:0:
320,192,62118,1,4,0:0:0:0:
448,192,62118,1,2,0:0:0:0:
320,192,62285,1,0,0:0:0:0:
448,192,62285,1,0,0:0:0:0:
64,192,62452,1,2,0:0:0:0:
192,192,62452,1,0,0:0:0:0:
320,192,62452,1,0,0:0:0:0:
64,192,62618,1,0,0:0:0:0:
192,192,62618,1,0,0:0:0:0:
192,192,62785,1,2,0:0:0:0:
320,192,62785,1,0,0:0:0:0:
448,192,62785,1,0,0:0:0:0:
320,192,62952,1,0,0:0:0:0:
448,192,62952,1,0,0:0:0:0:
64,192,63118,1,2,0:0:0:0:
192,192,63118,1,0,0:0:0:0:
320,192,63118,1,0,0:0:0:0:
64,192,63285,1,0,0:0:0:0:
192,192,63285,1,0,0:0:0:0:
64,192,63451,1,2,0:0:0:0:
320,192,63451,1,0,0:0:0:0:
448,192,63451,1,0,0:0:0:0:
64,192,63618,1,2,0:0:0:0:
320,192,63618,1,0,0:0:0:0:
448,192,63618,1,0,0:0:0:0:
192,192,63785,1,2,0:0:0:0:
320,192,63785,1,0,0:0:0:0:
448,192,63785,1,0,0:0:0:0:
192,192,63951,1,2,0:0:0:0:
320,192,63951,1,0,0:0:0:0:
448,192,63951,1,0,0:0:0:0:
64,192,64118,1,2,0:0:0:0:
192,192,64118,1,0,0:0:0:0:
320,192,64118,1,0,0:0:0:0:
448,192,64118,1,0,0:0:0:0:
320,192,64451,1,8,0:0:0:0:
448,192,64451,1,0,0:0:0:0:
64,192,64535,1,8,0:0:0:0:
192,192,64535,1,0,0:0:0:0:
320,192,64618,1,8,0:0:0:0:
448,192,64618,1,0,0:0:0:0:
64,192,64701,1,8,0:0:0:0:
192,192,64701,1,0,0:0:0:0:
320,192,64785,1,4,0:0:0:0:
448,192,64785,1,2,0:0:0:0:
64,192,64951,1,0,0:0:0:0:
64,192,65118,1,8,0:0:0:0:
192,192,65118,1,0,0:0:0:0:
320,192,65118,1,0,0:0:0:0:
448,192,65118,1,0,0:0:0:0:
320,192,65285,1,0,0:0:0:0:
64,192,65451,1,2,0:0:0:0:
192,192,65451,1,0,0:0:0:0:
448,192,65451,1,0,0:0:0:0:
320,192,65618,1,0,0:0:0:0:
64,192,65785,1,8,0:0:0:0:
192,192,65785,1,0,0:0:0:0:
320,192,65785,1,0,0:0:0:0:
448,192,65785,1,0,0:0:0:0:
192,192,65952,1,0,0:0:0:0:
64,192,66118,1,2,0:0:0:0:
320,192,66118,1,0,0:0:0:0:
448,192,66118,1,0,0:0:0:0:
192,192,66285,1,0,0:0:0:0:
64,192,66452,1,8,0:0:0:0:
192,192,66452,1,0,0:0:0:0:
320,192,66452,1,0,0:0:0:0:
448,192,66452,1,0,0:0:0:0:
448,192,66618,1,0,0:0:0:0:
64,192,66785,1,2,0:0:0:0:
192,192,66785,1,0,0:0:0:0:
320,192,66785,1,0,0:0:0:0:
448,192,66951,1,0,0:0:0:0:
64,192,67118,1,8,0:0:0:0:
192,192,67118,1,0,0:0:0:0:
320,192,67118,1,0,0:0:0:0:
448,192,67118,1,0,0:0:0:0:
64,192,67285,1,0,0:0:0:0:
192,192,67451,1,2,0:0:0:0:
320,192,67451,1,0,0:0:0:0:
448,192,67451,1,0,0:0:0:0:
64,192,67618,1,0,0:0:0:0:
64,192,67785,1,8,0:0:0:0:
192,192,67785,1,0,0:0:0:0:
320,192,67785,1,0,0:0:0:0:
448,192,67785,1,0,0:0:0:0:
192,192,67951,1,0,0:0:0:0:
64,192,68118,1,2,0:0:0:0:
320,192,68118,1,0,0:0:0:0:
448,192,68118,1,0,0:0:0:0:
192,192,68285,1,0,0:0:0:0:
64,192,68451,1,8,0:0:0:0:
192,192,68451,1,0,0:0:0:0:
320,192,68451,1,0,0:0:0:0:
448,192,68451,1,0,0:0:0:0:
448,192,68618,1,0,0:0:0:0:
64,192,68785,1,2,0:0:0:0:
192,192,68785,1,0,0:0:0:0:
320,192,68785,1,0,0:0:0:0:
448,192,68951,1,0,0:0:0:0:
64,192,69118,1,8,0:0:0:0:
192,192,69118,1,0,0:0:0:0:
320,192,69118,1,0,0:0:0:0:
448,192,69118,1,0,0:0:0:0:
320,192,69285,1,0,0:0:0:0:
64,192,69451,1,2,0:0:0:0:
192,192,69451,1,0,0:0:0:0:
448,192,69451,1,0,0:0:0:0:
320,192,69618,1,0,0:0:0:0:
64,192,69785,1,8,0:0:0:0:
192,192,69785,1,0,0:0:0:0:
320,192,69785,1,0,0:0:0:0:
448,192,69785,1,0,0:0:0:0:
64,192,69951,1,0,0:0:0:0:
64,192,70118,1,2,0:0:0:0:
192,192,70118,1,4,0:0:0:0:
320,192,70118,1,0,0:0:0:0:
448,192,70118,1,0,0:0:0:0:
192,192,70285,1,0,0:0:0:0:
64,192,70451,1,8,0:0:0:0:
192,192,70451,1,0,0:0:0:0:
320,192,70451,1,0,0:0:0:0:
448,192,70451,1,0,0:0:0:0:
448,192,70618,1,0,0:0:0:0:
64,192,70785,1,2,0:0:0:0:
192,192,70785,1,0,0:0:0:0:
320,192,70785,1,0,0:0:0:0:
448,192,70951,1,0,0:0:0:0:
64,192,71118,1,8,0:0:0:0:
192,192,71118,1,0,0:0:0:0:
320,192,71118,1,0,0:0:0:0:
448,192,71118,1,0,0:0:0:0:
64,192,71285,1,0,0:0:0:0:
192,192,71451,1,2,0:0:0:0:
320,192,71451,1,0,0:0:0:0:
448,192,71451,1,0,0:0:0:0:
64,192,71618,1,0,0:0:0:0:
64,192,71785,1,8,0:0:0:0:
192,192,71785,1,0,0:0:0:0:
320,192,71785,1,0,0:0:0:0:
448,192,71785,1,0,0:0:0:0:
320,192,71951,1,0,0:0:0:0:
64,192,72118,1,2,0:0:0:0:
192,192,72118,1,0,0:0:0:0:
448,192,72118,1,0,0:0:0:0:
320,192,72285,1,0,0:0:0:0:
64,192,72451,1,8,0:0:0:0:
192,192,72451,1,0,0:0:0:0:
320,192,72451,1,0,0:0:0:0:
448,192,72451,1,0,0:0:0:0:
192,192,72618,1,0,0:0:0:0:
64,192,72785,1,2,0:0:0:0:
320,192,72785,1,0,0:0:0:0:
448,192,72785,1,0,0:0:0:0:
192,192,72951,1,0,0:0:0:0:
64,192,73118,1,8,0:0:0:0:
192,192,73118,1,0,0:0:0:0:
320,192,73118,1,0,0:0:0:0:
448,192,73118,1,0,0:0:0:0:
320,192,73285,1,0,0:0:0:0:
64,192,73451,1,2,0:0:0:0:
192,192,73451,1,0,0:0:0:0:
448,192,73451,1,0,0:0:0:0:
320,192,73618,1,0,0:0:0:0:
64,192,73785,1,8,0:0:0:0:
192,192,73785,1,0,0:0:0:0:
320,192,73785,1,0,0:0:0:0:
448,192,73785,1,0,0:0:0:0:
64,192,73951,1,0,0:0:0:0:
192,192,74118,1,2,0:0:0:0:
320,192,74118,1,0,0:0:0:0:
448,192,74118,1,0,0:0:0:0:
64,192,74285,1,0,0:0:0:0:
64,192,74451,1,8,0:0:0:0:
192,192,74451,1,0,0:0:0:0:
320,192,74451,1,0,0:0:0:0:
448,192,74451,1,0,0:0:0:0:
448,192,74618,1,0,0:0:0:0:
64,192,74785,1,2,0:0:0:0:
192,192,74785,1,0,0:0:0:0:
320,192,74785,1,0,0:0:0:0:
448,192,74951,1,0,0:0:0:0:
64,192,75118,1,8,0:0:0:0:
192,192,75118,1,0,0:0:0:0:
320,192,75118,1,0,0:0:0:0:
448,192,75118,1,0,0:0:0:0:
64,192,75285,1,8,0:0:0:0:
192,192,75285,1,0,0:0:0:0:
320,192,75368,1,8,0:0:0:0:
448,192,75368,1,0,0:0:0:0:
64,192,75451,1,4,0:0:0:0:
192,192,75451,1,2,0:0:0:0:
320,192,75618,1,0,0:0:0:0:
64,192,75785,1,8,0:0:0:0:
192,192,75785,1,0,0:0:0:0:
320,192,75785,1,0,0:0:0:0:
448,192,75785,1,0,0:0:0:0:
64,192,75951,1,0,0:0:0:0:
192,192,76118,1,2,0:0:0:0:
320,192,76118,1,0,0:0:0:0:
448,192,76118,1,0,0:0:0:0:
64,192,76285,1,0,0:0:0:0:
64,192,76451,1,8,0:0:0:0:
192,192,76451,1,0,0:0:0:0:
320,192,76451,1,0,0:0:0:0:
448,192,76451,1,0,0:0:0:0:
448,192,76618,1,0,0:0:0:0:
64,192,76785,1,2,0:0:0:0:
192,192,76785,1,0,0:0:0:0:
320,192,76785,1,0,0:0:0:0:
448,192,76951,1,0,0:0:0:0:
64,192,77118,1,8,0:0:0:0:
192,192,77118,1,0,0:0:0:0:
320,192,77118,1,0,0:0:0:0:
448,192,77118,1,0,0:0:0:0:
320,192,77285,1,0,0:0:0:0:
64,192,77451,1,2,0:0:0:0:
192,192,77451,1,0,0:0:0:0:
448,192,77451,1,0,0:0:0:0:
320,192,77618,1,0,0:0:0:0:
64,192,77785,1,8,0:0:0:0:
192,192,77785,1,0,0:0:0:0:
320,192,77785,1,0,0:0:0:0:
448,192,77785,1,0,0:0:0:0:
192,192,77951,1,0,0:0:0:0:
64,192,78118,1,2,0:0:0:0:
320,192,78118,1,0,0:0:0:0:
448,192,78118,1,0,0:0:0:0:
192,192,78285,1,0,0:0:0:0:
64,192,78451,1,8,0:0:0:0:
192,192,78451,1,0,0:0:0:0:
320,192,78451,1,0,0:0:0:0:
448,192,78451,1,0,0:0:0:0:
448,192,78618,1,0,0:0:0:0:
64,192,78785,1,2,0:0:0:0:
192,192,78785,1,0,0:0:0:0:
320,192,78785,1,0,0:0:0:0:
448,192,78951,1,0,0:0:0:0:
64,192,79118,1,8,0:0:0:0:
192,192,79118,1,0,0:0:0:0:
320,192,79118,1,0,0:0:0:0:
448,192,79118,1,0,0:0:0:0:
64,192,79285,1,0,0:0:0:0:
192,192,79451,1,2,0:0:0:0:
320,192,79451,1,0,0:0:0:0:
448,192,79451,1,0,0:0:0:0:
64,192,79618,1,0,0:0:0:0:
64,192,79785,1,8,0:0:0:0:
192,192,79785,1,0,0:0:0:0:
320,192,79785,1,0,0:0:0:0:
448,192,79785,1,0,0:0:0:0:
320,192,79951,1,0,0:0:0:0:
64,192,80118,1,2,0:0:0:0:
192,192,80118,1,0,0:0:0:0:
448,192,80118,1,0,0:0:0:0:
320,192,80285,1,0,0:0:0:0:
64,192,80451,1,8,0:0:0:0:
320,192,80451,1,0,0:0:0:0:
448,192,80451,1,0,0:0:0:0:
192,192,80535,1,8,0:0:0:0:
320,192,80618,1,8,0:0:0:0:
448,192,80618,1,0,0:0:0:0:
64,192,80701,1,8,0:0:0:0:
192,192,80701,1,0,0:0:0:0:
320,192,80785,1,2,0:0:0:0:
448,192,80785,1,4,0:0:0:0:
192,192,80951,1,0,0:0:0:0:
64,192,81118,1,8,0:0:0:0:
192,192,81118,1,0,0:0:0:0:
320,192,81118,1,0,0:0:0:0:
448,192,81118,1,0,0:0:0:0:
64,192,81285,1,0,0:0:0:0:
192,192,81451,1,2,0:0:0:0:
320,192,81451,1,0,0:0:0:0:
448,192,81451,1,0,0:0:0:0:
64,192,81618,1,0,0:0:0:0:
64,192,81785,1,8,0:0:0:0:
192,192,81785,1,0,0:0:0:0:
320,192,81785,1,0,0:0:0:0:
448,192,81785,1,0,0:0:0:0:
192,192,81951,1,0,0:0:0:0:
64,192,82118,1,2,0:0:0:0:
320,192,82118,1,0,0:0:0:0:
448,192,82118,1,0,0:0:0:0:
192,192,82285,1,0,0:0:0:0:
64,192,82451,1,8,0:0:0:0:
192,192,82451,1,0,0:0:0:0:
320,192,82451,1,0,0:0:0:0:
448,192,82451,1,0,0:0:0:0:
320,192,82618,1,0,0:0:0:0:
64,192,82785,1,2,0:0:0:0:
192,192,82785,1,0,0:0:0:0:
448,192,82785,1,0,0:0:0:0:
320,192,82951,1,0,0:0:0:0:
64,192,83118,1,8,0:0:0:0:
192,192,83118,1,0,0:0:0:0:
320,192,83118,1,0,0:0:0:0:
448,192,83118,1,0,0:0:0:0:
448,192,83285,1,0,0:0:0:0:
64,192,83451,1,2,0:0:0:0:
192,192,83451,1,4,0:0:0:0:
320,192,83451,1,0,0:0:0:0:
448,192,83451,1,0,0:0:0:0:
192,192,83618,1,0,0:0:0:0:
64,192,83785,1,8,0:0:0:0:
192,192,83785,1,0,0:0:0:0:
320,192,83785,1,0,0:0:0:0:
448,192,83785,1,0,0:0:0:0:
64,192,83951,1,0,0:0:0:0:
192,192,84118,1,2,0:0:0:0:
320,192,84118,1,0,0:0:0:0:
448,192,84118,1,0,0:0:0:0:
64,192,84285,1,0,0:0:0:0:
64,192,84451,1,8,0:0:0:0:
192,192,84451,1,0,0:0:0:0:
320,192,84451,1,0,0:0:0:0:
448,192,84451,1,0,0:0:0:0:
320,192,84618,1,0,0:0:0:0:
64,192,84785,1,2,0:0:0:0:
192,192,84785,1,0,0:0:0:0:
448,192,84785,1,0,0:0:0:0:
64,192,85118,1,8,0:0:0:0:
192,192,85118,1,0,0:0:0:0:
320,192,85118,1,0,0:0:0:0:
192,192,85451,1,2,0:0:0:0:
320,192,85451,1,0,0:0:0:0:
448,192,85451,1,0,0:0:0:0:
64,192,85785,1,8,0:0:0:0:
192,192,85785,1,0,0:0:0:0:
448,192,85785,1,0,0:0:0:0:
320,192,85868,1,0,0:0:0:0:
64,192,85951,1,0,0:0:0:0:
192,192,85951,1,0,0:0:0:0:
320,192,86035,1,0,0:0:0:0:
448,192,86035,1,0,0:0:0:0:
64,192,86118,1,2,0:0:0:0:
192,192,86118,128,0,86785:0:0:0:0:
448,192,86285,1,0,0:0:0:0:
64,192,86451,1,8,0:0:0:0:
320,192,86451,1,0,0:0:0:0:
448,192,86451,1,0,0:0:0:0:
320,192,86618,1,0,0:0:0:0:
64,192,86785,1,2,0:0:0:0:
448,192,86785,128,0,87451:0:0:0:0:
320,192,86951,1,0,0:0:0:0:
64,192,87118,1,8,0:0:0:0:
192,192,87118,1,0,0:0:0:0:
320,192,87118,1,0,0:0:0:0:
192,192,87285,1,0,0:0:0:0:
64,192,87451,1,2,0:0:0:0:
320,192,87451,128,0,87785:0:0:0:0:
192,192,87618,1,0,0:0:0:0:
64,192,87785,1,8,0:0:0:0:
192,192,87785,128,0,88118:0:0:0:0:
448,192,87785,1,0,0:0:0:0:
320,192,87951,1,0,0:0:0:0:
64,192,88118,128,2,88451:0:0:0:0:
448,192,88118,1,0,0:0:0:0:
320,192,88285,1,0,0:0:0:0:
192,192,88451,1,8,0:0:0:0:
320,192,88451,1,0,0:0:0:0:
448,192,88451,128,0,88785:0:0:0:0:
64,192,88618,1,0,0:0:0:0:
192,192,88785,128,2,89451:0:0:0:0:
320,192,88785,1,0,0:0:0:0:
64,192,88951,1,0,0:0:0:0:
64,192,89118,1,8,0:0:0:0:
320,192,89118,1,0,0:0:0:0:
448,192,89118,1,0,0:0:0:0:
448,192,89285,1,0,0:0:0:0:
64,192,89451,128,2,89951:0:0:0:0:
320,192,89451,1,0,0:0:0:0:
448,192,89618,1,0,0:0:0:0:
192,192,89785,1,8,0:0:0:0:
320,192,89785,1,0,0:0:0:0:
448,192,89785,1,0,0:0:0:0:
320,192,89951,128,0,91118:0:0:0:0:
64,192,90118,1,2,0:0:0:0:
448,192,90118,1,0,0:0:0:0:
192,192,90285,1,0,0:0:0:0:
64,192,90451,1,8,0:0:0:0:
192,192,90451,1,0,0:0:0:0:
448,192,90451,1,0,0:0:0:0:
64,192,90618,1,0,0:0:0:0:
192,192,90785,1,2,0:0:0:0:
448,192,90785,1,0,0:0:0:0:
64,192,90951,1,0,0:0:0:0:
64,192,91118,1,8,0:0:0:0:
192,192,91118,1,0,0:0:0:0:
448,192,91118,1,0,0:0:0:0:
192,192,91285,1,8,0:0:0:0:
64,192,91451,1,2,0:0:0:0:
320,192,91451,128,4,92118:0:0:0:0:
448,192,91618,1,0,0:0:0:0:
64,192,91785,1,8,0:0:0:0:
192,192,91785,1,0,0:0:0:0:
448,192,91785,1,0,0:0:0:0:
192,192,91951,1,0,0:0:0:0:
64,192,92118,128,2,92618:0:0:0:0:
448,192,92118,1,0,0:0:0:0:
320,192,92285,1,0,0:0:0:0:
192,192,92451,1,8,0:0:0:0:
320,192,92451,1,0,0:0:0:0:
448,192,92451,1,0,0:0:0:0:
192,192,92618,128,0,93118:0:0:0:0:
320,192,92785,1,2,0:0:0:0:
448,192,92785,1,0,0:0:0:0:
64,192,92951,1,0,0:0:0:0:
64,192,93118,1,8,0:0:0:0:
320,192,93118,128,0,93451:0:0:0:0:
448,192,93118,1,0,0:0:0:0:
192,192,93285,1,0,0:0:0:0:
64,192,93451,1,2,0:0:0:0:
448,192,93451,128,0,93785:0:0:0:0:
192,192,93618,1,0,0:0:0:0:
64,192,93785,1,8,0:0:0:0:
192,192,93785,128,0,94118:0:0:0:0:
320,192,93785,1,0,0:0:0:0:
448,192,93951,1,0,0:0:0:0:
64,192,94118,1,2,0:0:0:0:
320,192,94118,128,0,94451:0:0:0:0:
448,192,94285,1,0,0:0:0:0:
64,192,94451,128,8,94785:0:0:0:0:
192,192,94451,1,0,0:0:0:0:
448,192,94451,1,0,0:0:0:0:
192,192,94618,1,0,0:0:0:0:
320,192,94785,128,2,94951:0:0:0:0:
448,192,94785,1,0,0:0:0:0:
64,192,94951,128,0,95285:0:0:0:0:
192,192,95118,1,8,0:0:0:0:
320,192,95118,1,0,0:0:0:0:
448,192,95118,1,0,0:0:0:0:
448,192,95285,128,0,95618:0:0:0:0:
64,192,95451,1,2,0:0:0:0:
192,192,95451,1,0,0:0:0:0:
320,192,95618,128,0,95785:0:0:0:0:
64,192,95785,1,8,0:0:0:0:
192,192,95785,128,0,95951:0:0:0:0:
448,192,95785,1,0,0:0:0:0:
64,192,95951,128,0,96451:0:0:0:0:
192,192,96118,1,2,0:0:0:0:
320,192,96118,1,0,0:0:0:0:
192,192,96285,1,0,0:0:0:0:
320,192,96451,1,8,0:0:0:0:
448,192,96451,1,0,0:0:0:0:
64,192,96535,1,8,0:0:0:0:
192,192,96535,1,0,0:0:0:0:
320,192,96618,1,8,0:0:0:0:
448,192,96618,1,0,0:0:0:0:
64,192,96701,1,8,0:0:0:0:
192,192,96701,1,0,0:0:0:0:
320,192,96785,128,2,97451:0:0:0:0:
448,192,96785,1,4,0:0:0:0:
64,192,96951,1,0,0:0:0:0:
64,192,97118,1,8,0:0:0:0:
192,192,97118,1,0,0:0:0:0:
448,192,97118,1,0,0:0:0:0:
192,192,97285,1,0,0:0:0:0:
64,192,97451,128,2,98118:0:0:0:0:
448,192,97451,1,0,0:0:0:0:
320,192,97618,1,0,0:0:0:0:
192,192,97785,1,8,0:0:0:0:
320,192,97785,1,0,0:0:0:0:
448,192,97785,1,0,0:0:0:0:
448,192,97951,1,0,0:0:0:0:
192,192,98118,128,2,98451:0:0:0:0:
320,192,98118,1,0,0:0:0:0:
448,192,98285,1,0,0:0:0:0:
64,192,98451,1,8,0:0:0:0:
320,192,98451,128,0,98785:0:0:0:0:
448,192,98451,1,0,0:0:0:0:
192,192,98618,1,0,0:0:0:0:
64,192,98785,1,2,0:0:0:0:
448,192,98785,128,0,99118:0:0:0:0:
192,192,98951,1,0,0:0:0:0:
64,192,99118,128,8,99451:0:0:0:0:
192,192,99118,1,0,0:0:0:0:
320,192,99118,1,0,0:0:0:0:
448,192,99285,1,0,0:0:0:0:
192,192,99451,1,2,0:0:0:0:
320,192,99451,128,0,100118:0:0:0:0:
64,192,99618,1,0,0:0:0:0:
64,192,99785,1,8,0:0:0:0:
192,192,99785,1,0,0:0:0:0:
448,192,99785,1,0,0:0:0:0:
192,192,99951,1,0,0:0:0:0:
64,192,100118,1,2,0:0:0:0:
448,192,100118,128,0,100618:0:0:0:0:
320,192,100285,1,0,0:0:0:0:
64,192,100451,1,8,0:0:0:0:
192,192,100451,1,0,0:0:0:0:
320,192,100451,1,0,0:0:0:0:
192,192,100618,128,0,101785:0:0:0:0:
320,192,100785,1,2,0:0:0:0:
448,192,100785,1,0,0:0:0:0:
64,192,100951,1,0,0:0:0:0:
64,192,101118,1,8,0:0:0:0:
320,192,101118,1,0,0:0:0:0:
448,192,101118,1,0,0:0:0:0:
448,192,101285,1,0,0:0:0:0:
64,192,101451,1,2,0:0:0:0:
320,192,101451,1,0,0:0:0:0:
448,192,101618,1,0,0:0:0:0:
320,192,101785,1,8,0:0:0:0:
448,192,101785,1,0,0:0:0:0:
64,192,101868,1,8,0:0:0:0:
192,192,101868,1,0,0:0:0:0:
320,192,101951,1,8,0:0:0:0:
448,192,101951,1,0,0:0:0:0:
64,192,102035,1,8,0:0:0:0:
192,192,102035,1,0,0:0:0:0:
320,192,102118,1,4,0:0:0:0:
448,192,102118,128,2,102785:0:0:0:0:
64,192,102451,1,2,0:0:0:0:
192,192,102451,1,0,0:0:0:0:
64,192,102785,1,8,0:0:0:0:
192,192,102785,128,0,103285:0:0:0:0:
320,192,102785,1,0,0:0:0:0:
320,192,103118,1,2,0:0:0:0:
448,192,103118,1,0,0:0:0:0:
64,192,103285,1,8,0:0:0:0:
320,192,103285,128,0,103785:0:0:0:0:
448,192,103285,1,0,0:0:0:0:
192,192,103451,1,0,0:0:0:0:
64,192,103618,1,8,0:0:0:0:
192,192,103618,1,0,0:0:0:0:
448,192,103618,1,0,0:0:0:0:
64,192,103785,128,2,104118:0:0:0:0:
448,192,103785,1,0,0:0:0:0:
192,192,104118,128,8,104451:0:0:0:0:
320,192,104118,1,0,0:0:0:0:
448,192,104118,1,0,0:0:0:0:
320,192,104451,1,8,0:0:0:0:
448,192,104451,1,0,0:0:0:0:
64,192,104535,1,8,0:0:0:0:
192,192,104535,1,0,0:0:0:0:
320,192,104618,1,8,0:0:0:0:
448,192,104618,1,0,0:0:0:0:
64,192,104701,1,8,0:0:0:0:
192,192,104701,1,0,0:0:0:0:
320,192,104785,1,4,0:0:0:0:
448,192,104785,1,2,0:0:0:0:
64,192,105118,1,4,0:0:0:0:
192,192,105118,1,2,0:0:0:0:
448,192,105118,1,0,0:0:0:0:
192,192,105451,1,4,0:0:0:0:
320,192,105451,1,2,0:0:0:0:
448,192,105451,1,0,0:0:0:0:
64,192,105618,1,2,0:0:0:0:
192,192,105618,1,4,0:0:0:0:
448,192,105618,1,0,0:0:0:0:
192,192,105951,1,2,0:0:0:0:
320,192,105951,1,4,0:0:0:0:
448,192,105951,1,0,0:0:0:0:
320,192,106285,128,0,106618:0:0:0:0:
192,192,106451,128,0,106785:0:0:0:0:
64,192,106618,128,0,106951:0:0:0:0:
448,192,106785,128,0,107118:0:0:0:0:
192,192,106951,1,2,0:0:0:0:
320,192,106951,1,0,0:0:0:0:
64,192,107118,1,8,0:0:0:0:
192,192,107118,1,0,0:0:0:0:
320,192,107201,1,8,0:0:0:0:
448,192,107201,1,0,0:0:0:0:
64,192,107285,1,8,0:0:0:0:
192,192,107285,1,0,0:0:0:0:
320,192,107368,1,8,0:0:0:0:
448,192,107368,1,0,0:0:0:0:
64,192,107451,1,2,0:0:0:0:
192,192,107451,1,4,0:0:0:0:
64,192,107618,1,0,0:0:0:0:
320,192,107785,1,2,0:0:0:0:
448,192,107785,1,0,0:0:0:0:
64,192,107951,1,4,0:0:0:0:
192,192,107951,1,0,0:0:0:0:
448,192,107951,1,0,0:0:0:0:
64,192,108285,1,8,0:0:0:0:
448,192,108285,1,0,0:0:0:0:
320,192,108368,1,8,0:0:0:0:
64,192,108451,1,4,0:0:0:0:
192,192,108451,1,2,0:0:0:0:
448,192,108451,1,0,0:0:0:0:
64,192,108618,1,4,0:0:0:0:
192,192,108618,1,2,0:0:0:0:
448,192,108618,1,0,0:0:0:0:
