osu file format v14

[General]
AudioFilename: audio.ogg
AudioLeadIn: 0
PreviewTime: 65976
Countdown: 0
SampleSet: Soft
StackLeniency: 0.7
Mode: 0
LetterboxInBreaks: 0
WidescreenStoryboard: 1

[Editor]
Bookmarks: 565,11231,21898,32564,43231,61898,67231,77898,88564,99231,102731
DistanceSpacing: 0.9
BeatDivisor: 4
GridSize: 32
TimelineZoom: 3.700004

[Metadata]
Title:Miracle infinity
TitleUnicode:ミラクルinfinity
Artist:solfa feat. Chata
ArtistUnicode:solfa feat. 茶太
Creator:tomatas95
Version:Normal
Source:ゆめこい~夢見る魔法少女と恋の呪文~
Tags:eroge parasol Yumekoi ~Yume Miru Mahou Shoujo to Koi no Jumon~ iyuna galgame sister imouto video game visual novel vn opening op jpop j-pop japanese pop fa featured artist
BeatmapID:4249807
BeatmapSetID:1989275

[Difficulty]
HPDrainRate:3
CircleSize:3
OverallDifficulty:4
ApproachRate:5
SliderMultiplier:1.1
SliderTickRate:1

[Events]
//Background and Video events
Video,0,"ImoutoEroge.mp4"
0,0,"KurumiImoutoDate.jpg",0,0
//Break Periods
//Storyboard Layer 0 (Background)
//Storyboard Layer 1 (Fail)
//Storyboard Layer 2 (Pass)
//Storyboard Layer 3 (Foreground)
//Storyboard Layer 4 (Overlay)
//Storyboard Sound Samples

[TimingPoints]
560,335.195530726257,4,2,1,40,1,0
560,-111.111111111111,4,2,1,40,0,0
1397,-111.111111111111,4,2,1,40,0,0
1733,333.333333333333,4,2,1,40,1,0
1733,-111.111111111111,4,2,1,40,0,0
1899,333.333333333333,4,2,1,40,1,0
2065,-111.111111111111,4,2,1,40,0,0
2732,-111.111111111111,4,2,1,40,0,0
8565,-111.111111111111,4,2,1,45,0,0
9898,331.491712707182,4,2,1,40,1,0
10063,-111.111111111111,4,2,1,40,0,0
10893,-111.111111111111,4,2,1,50,0,0
10976,-111.111111111111,4,2,1,55,0,0
11059,-111.111111111111,4,2,1,60,0,0
11143,-111.111111111111,4,2,1,65,0,0
11226,333.333333333333,4,2,1,40,1,0
11226,-100,4,2,1,70,0,0
12393,-100,4,2,3,70,0,0
12559,-100,4,2,1,70,0,0
15059,-100,4,2,3,70,0,0
15225,-100,4,2,1,70,0,0
15726,-100,4,2,2,70,0,0
15976,-100,4,2,2,5,0,0
16059,-100,4,2,2,70,0,0
16309,-100,4,2,2,5,0,0
16393,-100,4,2,2,70,0,0
16726,-100,4,2,1,70,0,0
17059,-100,4,2,2,70,0,0
17226,-100,4,2,1,70,0,0
17726,-100,4,2,2,70,0,0
17893,-100,4,2,1,70,0,0
18393,-100,4,2,2,70,0,0
18560,-100,4,2,1,70,0,0
19226,-100,4,2,3,70,0,0
19559,-100,4,2,1,70,0,0
20559,-100,4,2,1,75,0,0
20893,-100,4,2,2,70,0,0
21059,-100,4,2,1,70,0,0
21393,-100,4,2,1,65,0,0
21559,-100,4,2,1,70,0,0
21726,-100,4,2,1,75,0,0
21893,-111.111111111111,4,2,3,60,0,0
22226,-111.111111111111,4,2,2,60,0,0
24226,-111.111111111111,4,2,1,60,0,0
24393,-111.111111111111,4,2,2,60,0,0
24559,-111.111111111111,4,2,2,65,0,0
24893,-111.111111111111,4,2,2,60,0,0
26893,-111.111111111111,4,2,1,60,0,0
27060,-111.111111111111,4,2,2,60,0,0
27226,-111.111111111111,4,2,2,65,0,0
27559,-111.111111111111,4,2,1,60,0,0
27726,-111.111111111111,4,2,2,60,0,0
28226,-111.111111111111,4,2,1,60,0,0
29226,-111.111111111111,4,2,2,60,0,0
30226,-111.111111111111,4,2,1,60,0,0
30393,-111.111111111111,4,2,2,60,0,0
32393,-111.111111111111,4,2,1,60,0,0
32559,-111.111111111111,4,2,2,65,0,0
35226,-111.111111111111,4,2,2,70,0,0
35559,-111.111111111111,4,2,2,65,0,0
37726,-111.111111111111,4,2,1,65,0,0
37893,-111.111111111111,4,2,2,70,0,0
38226,-111.111111111111,4,2,2,65,0,0
39559,-111.111111111111,4,2,1,60,0,0
39893,-111.111111111111,4,2,2,65,0,0
40393,-111.111111111111,4,2,1,65,0,0
40560,-111.111111111111,4,2,3,65,0,0
41726,-111.111111111111,4,2,2,70,0,0
41976,-111.111111111111,4,2,2,5,0,0
42059,-111.111111111111,4,2,2,70,0,0
42309,-111.111111111111,4,2,2,5,0,0
42393,-111.111111111111,4,2,2,70,0,0
42643,-111.111111111111,4,2,2,5,0,0
42726,-111.111111111111,4,2,2,70,0,0
42893,-111.111111111111,4,2,1,60,0,0
42976,-111.111111111111,4,2,2,60,0,0
43059,-111.111111111111,4,2,3,60,0,0
43226,-100,4,2,1,70,0,0
48059,-100,4,2,1,65,0,0
48393,-100,4,2,1,70,0,0
48559,-100,4,2,2,70,0,0
48893,-100,4,2,1,70,0,0
52559,-100,4,2,3,70,0,0
53726,-100,4,2,1,70,0,0
53893,-100,4,2,2,70,0,0
54226,-100,4,2,1,65,0,0
56559,-100,4,2,1,70,0,0
56892,-100,4,2,1,65,0,0
59143,-100,4,2,1,5,0,0
59226,-100,4,2,3,70,0,0
59559,-100,4,2,1,70,0,0
60559,-100,4,2,3,70,0,0
61893,-100,4,2,3,75,0,0
62226,-100,4,2,2,75,0,0
66898,-100,4,2,1,60,0,0
66976,-100,4,2,1,65,0,0
67059,-100,4,2,1,70,0,0
67143,-100,4,2,1,75,0,0
67225,-90.9090909090909,4,2,3,80,0,1
67393,-90.9090909090909,4,2,1,75,0,1
72559,-90.9090909090909,4,2,3,75,0,1
72726,-90.9090909090909,4,2,1,75,0,1
76893,-90.9090909090909,4,2,2,75,0,1
77309,-90.9090909090909,4,2,2,5,0,1
77393,-90.9090909090909,4,2,2,75,0,1
77476,-90.9090909090909,4,2,2,5,0,1
77559,-100,4,2,1,60,0,0
77643,-100,4,2,1,65,0,0
77726,-100,4,2,1,70,0,0
77809,-100,4,2,1,75,0,0
77892,-90.9090909090909,4,2,3,80,0,1
78059,-90.9090909090909,4,2,1,75,0,1
83226,-90.9090909090909,4,2,3,75,0,1
83393,-90.9090909090909,4,2,1,75,0,1
87393,-90.9090909090909,4,2,1,70,0,1
87559,-90.9090909090909,4,2,1,75,0,1
87726,-90.9090909090909,4,2,2,75,0,1
87976,-90.9090909090909,4,2,2,5,0,1
88060,-90.9090909090909,4,2,2,75,0,1
88143,-90.9090909090909,4,2,2,5,0,1
88226,-90.9090909090909,4,2,1,60,0,1
88309,-90.9090909090909,4,2,1,65,0,1
88392,-90.9090909090909,4,2,1,70,0,1
88475,-90.9090909090909,4,2,1,75,0,1
88559,-100,4,2,3,70,0,0
88726,-100,4,2,1,65,0,0
90226,-100,4,2,1,70,0,0
90893,-100,4,2,1,75,0,0
91726,-100,4,2,1,65,0,0
93893,-100,4,2,3,65,0,0
94059,-100,4,2,1,65,0,0
96393,-100,4,2,1,60,0,0
96559,-100,4,2,1,65,0,0
97893,-100,4,2,1,60,0,0
98226,-100,4,2,1,65,0,0
98559,-100,4,2,1,70,0,0
98893,-100,4,2,1,75,0,0
99226,-100,4,2,4,75,0,0
99559,-100,4,2,1,70,0,0
99893,-100,4,2,1,65,0,0
100226,-100,4,2,1,60,0,0
100559,-100,4,2,1,55,0,0
100893,-100,4,2,1,50,0,0
101226,-100,4,2,1,40,0,0
101559,-100,4,2,1,30,0,0
101893,-100,4,2,1,20,0,0
102226,-100,4,2,1,15,0,0
102559,-100,4,2,1,10,0,0
102726,-100,4,2,1,5,0,0

[Colours]
Combo1 : 201,184,199
Combo2 : 255,128,128
Combo3 : 238,211,196
Combo4 : 169,223,235

[HitObjects]
113,29,560,6,0,P|64:15|16:94,1,148.49999546814,2|0,0:0|0:0,0:0:0:0:
3,173,1397,1,0,0:0:0:0:
92,181,1733,2,0,P|129:188|174:143,1,98.9999969787599,2|0,0:0|0:0,0:0:0:0:
210,69,2398,1,2,0:0:0:0:
298,76,2732,2,0,L|306:124,2,49.4999984893799,0|2|0,0:0|0:0|0:0,0:0:0:0:
327,42,3232,6,0,L|474:23,1,148.49999546814,2|2,0:0|0:0,0:0:0:0:
496,109,4065,2,0,L|397:121,2,98.9999969787599,2|2|0,0:0|0:0|0:0,0:0:0:0:
500,198,5065,1,2,0:0:0:0:
463,279,5398,2,0,L|521:286,2,49.4999984893799,0|2|0,0:0|0:0|0:0,0:0:0:0:
424,298,5898,6,0,P|372:310|270:337,1,148.49999546814,2|2,0:0|0:0,0:0:0:0:
275,244,6732,2,0,P|323:231|372:219,2,98.9999969787599,0|2|0,0:0|0:0|0:0,0:0:0:0:
200,293,7732,1,2,0:0:0:0:
115,264,8065,2,0,L|107:322,2,49.4999984893799,2|2|2,0:0|0:0|0:0,0:0:0:0:
103,220,8565,6,0,P|75:226|43:235,1,49.4999984893799,2|2,0:0|0:0,0:0:0:0:
13,152,9065,2,0,P|7:124|-2:92,1,49.4999984893799,2|2,0:0|0:0,0:0:0:0:
81,62,9565,2,0,P|109:56|141:47,1,49.4999984893799,2|2,0:0|0:0,0:0:0:0:
171,130,10063,2,0,P|177:158|186:190,1,49.4999984893799,2|2,0:0|0:0,0:0:0:0:
103,220,10560,1,2,0:0:0:0:
259,341,11226,6,0,P|309:333|382:319,1,110,4|10,3:2|0:0,0:0:0:0:
419,315,11726,1,2,0:0:0:0:
419,315,11893,2,0,L|433:375,2,55,2|2|8,3:2|3:2|0:0,0:0:0:0:
448,275,12393,2,0,L|420:164,1,110,4|0,3:2|3:0,0:0:0:0:
436,120,12893,1,8,0:0:0:0:
374,42,13226,1,2,3:2:0:0:
276,57,13559,1,10,0:0:0:0:
240,150,13893,6,0,P|190:158|117:172,1,110,6|10,3:2|0:0,0:0:0:0:
84,183,14393,1,2,0:0:0:0:
84,183,14559,2,0,P|90:217|99:251,2,55,2|2|8,3:2|3:2|0:0,0:0:0:0:
45,152,15059,2,0,P|38:107|18:32,1,110,4|0,3:2|3:0,0:0:0:0:
59,12,15559,1,8,0:0:0:0:
59,12,15726,1,4,3:2:0:0:
143,63,16059,1,4,3:2:0:0:
227,12,16393,6,0,L|356:33,1,110,6|2,3:2|3:2,0:0:0:0:
389,38,16893,1,10,0:0:0:0:
389,38,17059,1,6,3:2:0:0:
488,39,17393,2,0,P|474:78|470:96,1,55,2|10,3:2|0:0,0:0:0:0:
473,140,17726,1,6,3:2:0:0:
376,162,18059,2,0,P|390:201|394:219,1,55,2|10,3:2|0:0,0:0:0:0:
391,263,18392,1,6,3:2:0:0:
455,338,18726,2,0,P|494:324|512:320,2,55,2|10|2,3:2|0:0|3:2,0:0:0:0:
413,365,19226,6,0,L|284:344,1,110,4|10,3:2|0:0,0:0:0:0:
217,299,19893,2,0,L|207:359,2,55,0|0|8,3:0|3:0|0:0,0:0:0:0:
245,258,20393,1,2,3:2:0:0:
245,258,20559,2,0,L|253:203,1,55,0|0,0:0|3:0,0:0:0:0:
263,154,20893,1,12,0:0:0:0:
259,55,21226,2,0,L|203:45,1,55,2|0,0:0|3:0,0:0:0:0:
164,17,21559,2,0,L|108:7,1,55,8|8,0:0|0:0,0:0:0:0:
75,36,21893,5,4,3:2:0:0:
69,124,22226,2,0,P|115:130|175:146,2,98.9999969787599,2|2|2,0:0|0:0|0:0,0:0:0:0:
70,213,23226,2,0,P|93:216|123:224,2,49.4999984893799,2|0|2,0:0|0:0|0:0,0:0:0:0:
33,239,23726,1,2,0:0:0:0:
4,323,24059,1,2,0:0:0:0:
85,371,24393,1,0,3:0:0:0:
85,371,24559,6,0,P|133:359|181:351,1,98.9999969787599,2|2,3:2|0:0,0:0:0:0:
269,331,25226,2,0,P|277:357|278:385,2,49.4999984893799,2|0|2,0:0|0:0|0:0,0:0:0:0:
256,293,25726,1,2,0:0:0:0:
256,293,25893,2,0,P|242:221|222:133,1,148.49999546814,2|0,0:0|0:0,0:0:0:0:
174,74,26726,2,0,P|216:59|272:77,1,98.9999969787599,2|0,0:0|0:0,0:0:0:0:
300,103,27226,6,0,P|346:116|394:103,1,98.9999969787599,2|2,3:2|0:0,0:0:0:0:
419,17,27893,2,0,B|485:13|485:13|539:64|493:134,1,197.99999395752,2|0,0:0|0:0,0:0:0:0:
397,303,29226,2,0,L|515:322,1,98.9999969787599,2|2,0:0|0:0,0:0:0:0:
508,230,29893,6,0,L|390:211,1,98.9999969787599,2|0,3:2|0:0,0:0:0:0:
383,186,30393,1,2,0:0:0:0:
383,186,30559,2,0,L|285:170,1,98.9999969787599,2|0,0:0|0:0,0:0:0:0:
240,166,31059,1,2,0:0:0:0:
154,139,31393,1,2,0:0:0:0:
75,182,31726,1,2,0:0:0:0:
69,270,32059,2,0,L|20:277,2,49.4999984893799,2|2|0,0:0|0:0|3:2,0:0:0:0:
96,305,32559,5,6,3:2:0:0:
174,348,32893,2,0,L|183:289,1,49.4999984893799,2|0,0:0|0:0,0:0:0:0:
193,256,33226,2,0,P|239:275|294:256,1,98.9999969787599,10|2,0:0|0:0,0:0:0:0:
314,228,33726,1,10,0:0:0:0:
382,284,34059,2,0,L|430:276,1,49.4999984893799,2|2,0:0|0:0,0:0:0:0:
474,266,34393,2,0,L|491:373,2,98.9999969787599,2|2|0,0:0|0:0|3:0,0:0:0:0:
500,230,35226,5,0,3:0:0:0:
486,141,35559,1,2,0:0:0:0:
403,108,35893,1,10,0:0:0:0:
326,152,36226,2,0,P|298:159|273:167,1,49.4999984893799,0|10,0:0|0:0,0:0:0:0:
242,183,36559,2,0,L|255:232,2,49.4999984893799,2|0|2,0:0|0:0|0:0,0:0:0:0:
228,140,37059,1,2,0:0:0:0:
143,169,37393,2,0,L|173:282,1,98.9999969787599,2|0,0:0|3:0,0:0:0:0:
160,308,37893,6,0,P|119:294|58:320,1,98.9999969787599,2|0,3:2|0:0,0:0:0:0:
5,247,38559,2,0,P|37:218|21:120,1,148.49999546814,8|8,0:0|0:0,0:0:0:0:
212,3,39893,6,0,P|221:44|238:115,1,98.9999969787599,10|2,0:0|0:0,0:0:0:0:
300,157,40559,2,0,P|290:198|274:269,1,98.9999969787599,2|2,3:2|0:0,0:0:0:0:
296,299,41059,1,0,0:0:0:0:
296,299,41226,2,0,L|404:320,1,98.9999969787599,2|2,0:0|0:0,0:0:0:0:
435,331,41726,1,6,3:2:0:0:
481,254,42059,1,6,3:2:0:0:
435,177,42393,1,6,3:2:0:0:
464,92,42726,2,0,L|516:100,2,49.4999984893799,6|8|8,3:2|3:0|3:0,0:0:0:0:
435,51,43226,6,0,P|383:65|326:40,1,110,4|8,3:2|0:0,0:0:0:0:
288,35,43726,1,2,0:0:0:0:
288,35,43893,2,0,P|236:17|174:40,1,110,2|8,0:0|0:0,0:0:0:0:
235,116,44559,2,0,P|245:165|258:229,1,110,2|8,0:0|0:0,0:0:0:0:
267,272,45059,1,2,0:0:0:0:
267,272,45226,2,0,L|330:262,2,55,2|0|10,3:2|3:0|0:0,0:0:0:0:
206,350,45893,6,0,L|91:331,1,110,0|8,3:0|0:0,0:0:0:0:
48,339,46393,1,2,0:2:0:0:
48,339,46559,2,0,P|57:292|22:229,1,110,2|8,3:2|0:0,0:0:0:0:
4,195,47059,1,0,3:0:0:0:
81,132,47393,1,0,3:0:0:0:
81,132,47559,1,8,0:0:0:0:
31,45,47893,2,0,L|85:35,1,55,2|0,0:0|3:0,0:0:0:0:
137,41,48226,2,0,L|191:31,1,55,10|8,0:0|0:0,0:0:0:0:
240,36,48559,6,0,P|258:81|235:154,1,110,6|8,3:2|0:0,0:0:0:0:
168,201,49226,1,2,0:0:0:0:
211,289,49559,2,0,L|281:300,1,55,8|0,0:0|3:0,0:0:0:0:
288,341,49893,2,0,L|406:322,1,110,2|8,0:0|0:0,0:0:0:0:
492,347,50559,1,2,3:2:0:0:
473,249,50893,1,10,0:0:0:0:
500,154,51226,6,0,P|490:106|525:38,1,110,2|8,3:2|0:0,0:0:0:0:
425,2,51893,2,0,P|388:34|312:37,1,110,2|8,3:2|0:0,0:0:0:0:
283,18,52393,1,0,3:0:0:0:
196,67,52726,1,0,3:0:0:0:
196,67,52893,2,0,P|207:104|214:131,1,55,10|0,0:0|3:0,0:0:0:0:
254,144,53226,2,0,P|243:181|236:208,1,55,2|0,3:2|3:0,0:0:0:0:
260,241,53559,1,10,0:0:0:0:
282,337,53893,6,0,P|231:322|175:344,1,110,6|8,3:2|0:0,0:0:0:0:
133,349,54393,1,2,0:0:0:0:
133,349,54559,2,0,P|82:363|26:342,1,110,2|8,0:0|0:0,0:0:0:0:
7,300,55059,1,0,3:0:0:0:
98,256,55393,1,0,3:0:0:0:
98,256,55559,2,0,L|114:136,2,110,8|2|10,0:0|3:2|0:0,0:0:0:0:
13,203,56559,6,0,L|29:83,1,110,0|8,3:0|0:0,0:0:0:0:
41,49,57059,1,2,0:0:0:0:
41,49,57226,2,0,P|89:66|154:45,1,110,2|10,3:2|0:0,0:0:0:0:
185,24,57726,1,0,3:2:0:0:
257,99,58059,1,0,3:0:0:0:
257,99,58226,2,0,P|309:84|360:101,2,110,10|2|10,0:0|0:0|0:0,0:0:0:0:
169,144,59226,6,0,P|180:190|196:272,1,110,4|8,3:2|0:0,0:0:0:0:
202,304,59726,1,2,0:0:0:0:
202,304,59893,2,0,P|252:288|321:321,1,110,2|8,3:2|0:0,0:0:0:0:
340,335,60393,1,0,3:0:0:0:
433,367,60726,1,0,3:0:0:0:
508,303,61059,1,0,0:0:0:0:
491,207,61393,1,0,3:0:0:0:
491,207,61559,2,0,L|481:144,1,55,10|8,0:0|0:0,0:0:0:0:
474,92,61893,5,4,3:2:0:0:
385,26,62226,1,8,0:0:0:0:
294,90,62559,1,8,0:0:0:0:
326,196,62893,1,8,0:0:0:0:
358,302,63226,5,8,0:0:0:0:
267,366,63559,1,8,0:0:0:0:
185,302,63892,1,8,0:0:0:0:
218,197,64226,1,8,0:0:0:0:
144,114,64559,6,0,P|117:123|86:113,1,55,14|8,3:2|0:0,0:0:0:0:
20,200,65059,2,0,P|20:228|1:254,1,55,14|8,3:2|0:0,0:0:0:0:
63,344,65559,2,0,P|90:351|109:378,1,55,14|8,3:2|0:0,0:0:0:0:
213,347,66059,2,0,P|228:323|260:313,1,55,14|8,3:2|0:0,0:0:0:0:
225,207,66559,1,10,0:0:0:0:
372,332,67226,6,0,P|417:334|426:254,1,121.000003692627,6|8,3:2|0:0,0:0:0:0:
415,221,67726,1,2,0:0:0:0:
415,221,67893,2,0,P|424:161|446:87,1,121.000003692627,2|8,3:2|0:0,0:0:0:0:
436,53,68393,1,0,3:0:0:0:
436,53,68559,1,2,0:0:0:0:
343,23,68893,1,10,0:0:0:0:
271,89,69226,1,2,3:2:0:0:
307,178,69559,1,10,0:0:0:0:
238,246,69893,6,0,P|184:255|101:271,1,121.000003692627,2|10,3:2|0:0,0:0:0:0:
74,271,70393,1,2,0:0:0:0:
74,271,70559,2,0,P|79:212|34:150,1,121.000003692627,2|8,3:2|0:0,0:0:0:0:
11,139,71059,1,2,3:2:0:0:
11,139,71226,2,0,P|64:113|95:43,1,121.000003692627,2|10,0:0|0:0,0:0:0:0:
103,12,71726,1,2,0:0:0:0:
198,15,72059,1,2,3:2:0:0:
235,110,72393,1,2,3:2:0:0:
235,110,72559,6,0,L|260:253,1,121.000003692627,4|8,3:2|0:0,0:0:0:0:
269,280,73059,1,2,0:0:0:0:
269,280,73226,2,0,P|327:292|395:313,1,121.000003692627,2|8,3:2|0:0,0:0:0:0:
435,331,73726,1,2,3:2:0:0:
435,331,73893,1,2,0:0:0:0:
495,255,74226,1,8,0:0:0:0:
427,185,74559,1,2,3:2:0:0:
491,112,74893,1,10,0:0:0:0:
422,44,75226,6,0,L|286:26,1,121.000003692627,2|8,3:2|0:0,0:0:0:0:
254,17,75726,1,2,0:0:0:0:
207,101,76059,1,2,3:2:0:0:
270,174,76393,2,0,P|257:231|245:306,1,121.000003692627,2|0,3:2|3:0,0:0:0:0:
235,339,76893,1,8,0:0:0:0:
235,339,77059,1,4,3:2:0:0:
144,319,77393,1,4,3:2:0:0:
144,319,77559,2,0,P|109:325|75:333,1,55,8|8,0:0|0:0,0:0:0:0:
43,344,77893,6,0,P|33:284|19:225,1,121.000003692627,4|8,3:2|0:0,0:0:0:0:
59,196,78393,1,2,0:0:0:0:
59,196,78559,2,0,P|45:137|35:77,1,121.000003692627,2|8,3:2|0:0,0:0:0:0:
35,33,79059,1,0,3:0:0:0:
35,33,79226,1,2,0:0:0:0:
128,8,79559,1,10,0:0:0:0:
197,77,79893,1,2,3:2:0:0:
172,172,80226,1,10,0:0:0:0:
240,240,80559,6,0,P|294:225|360:253,1,121.000003692627,2|10,3:2|0:0,0:0:0:0:
369,297,81059,1,2,0:0:0:0:
369,297,81226,2,0,P|423:312|489:284,1,121.000003692627,2|8,3:2|0:0,0:0:0:0:
505,247,81726,1,2,3:2:0:0:
505,247,81893,2,0,L|482:109,1,121.000003692627,2|10,0:0|0:0,0:0:0:0:
478,79,82393,1,2,0:0:0:0:
399,22,82726,1,2,3:2:0:0:
336,96,83059,1,2,3:2:0:0:
336,96,83226,6,0,P|271:84|200:72,1,121.000003692627,4|8,3:2|0:0,0:0:0:0:
194,38,83726,1,2,0:0:0:0:
194,38,83893,2,0,P|134:48|74:59,1,121.000003692627,2|8,3:2|0:0,0:0:0:0:
11,131,84559,2,0,P|34:185|7:262,1,121.000003692627,0|8,0:0|0:0,0:0:0:0:
13,295,85059,1,2,0:0:0:0:
13,295,85226,2,0,P|72:305|132:316,1,121.000003692627,2|8,3:2|0:0,0:0:0:0:
229,315,85893,6,0,P|217:255|268:191,1,121.000003692627,2|8,3:2|0:0,0:0:0:0:
229,164,86393,1,2,0:0:0:0:
229,164,86559,2,0,P|171:144|141:68,1,121.000003692627,2|8,3:2|0:0,0:0:0:0:
235,70,87226,2,0,P|294:59|354:48,1,121.000003692627,2|8,0:0|0:0,0:0:0:0:
402,48,87726,1,4,3:2:0:0:
502,47,88059,1,4,3:2:0:0:
502,47,88226,2,0,P|493:76|487:109,1,60.5000018463135,8|10,0:0|0:0,0:0:0:0:
488,149,88559,6,0,B|524:180|529:240|516:302|442:321|442:321|388:277|402:224,1,330,4|0,3:2|0:0,0:0:0:0:
348,152,89893,2,0,P|371:138|403:136,2,55,2|2|2,0:0|0:0|3:2,0:0:0:0:
306,135,90393,1,2,3:2:0:0:
306,135,90559,2,0,P|307:108|321:79,2,55,10|2|2,0:0|3:2|0:0,0:0:0:0:
213,169,91226,6,0,P|135:150|28:131,1,165,2|0,3:2|3:0,0:0:0:0:
1,131,91893,1,8,0:0:0:0:
0,229,92226,1,0,0:0:0:0:
69,299,92559,2,0,P|123:308|176:321,1,110,2|2,0:0|3:2,0:0:0:0:
221,343,93059,1,2,3:2:0:0:
275,260,93393,1,2,3:2:0:0:
347,336,93726,1,8,0:0:0:0:
347,336,93893,6,0,B|419:346|419:346|484:295|417:217,1,220,4|8,3:2|0:0,0:0:0:0:
433,135,94893,1,2,0:0:0:0:
433,135,95059,2,0,P|423:81|413:27,1,110,10|8,0:0|0:0,0:0:0:0:
325,36,95726,2,0,P|333:90|343:144,2,110,2|0|10,3:2|3:0|0:0,0:0:0:0:
283,20,96559,6,0,P|228:8|170:44,1,110,2|2,3:2|0:0,0:0:0:0:
185,74,97059,2,0,P|198:127|208:188,1,110,2|0,3:2|0:0,0:0:0:0:
223,222,97559,1,2,3:2:0:0:
259,302,97893,2,0,P|286:294|322:301,2,55,2|8|2,0:0|0:0|3:2,0:0:0:0:
243,343,98393,2,0,P|186:326|130:313,1,110,10|10,0:0|0:0,0:0:0:0:
105,284,98893,2,0,P|78:292|51:298,1,55,8|10,0:0|0:0,0:0:0:0:
13,320,99226,1,4,3:2:0:0:
256,192,99393,12,0,102726,0:0:0:0:
