osu file format v14

[General]
AudioFilename: audio.ogg
AudioLeadIn: 0
PreviewTime: 65976
Countdown: 0
SampleSet: Soft
StackLeniency: 0.3
Mode: 0
LetterboxInBreaks: 0
WidescreenStoryboard: 1

[Editor]
Bookmarks: 565,11231,21898,32564,43231,61898,67231,77898,77981,88564,99231,102731
DistanceSpacing: 0.2
BeatDivisor: 4
GridSize: 32
TimelineZoom: 1.8

[Metadata]
Title:Miracle infinity
TitleUnicode:ミラクルinfinity
Artist:solfa feat. Chata
ArtistUnicode:solfa feat. 茶太
Creator:tomatas95
Version:Lustful Desire and Love Magic that goes beyond Infinity
Source:ゆめこい~夢見る魔法少女と恋の呪文~
Tags:eroge parasol Yumekoi ~Yume Miru Mahou Shoujo to Koi no Jumon~ iyuna galgame sister imouto video game visual novel vn opening op jpop j-pop japanese pop fa featured artist
BeatmapID:4249806
BeatmapSetID:1989275

[Difficulty]
HPDrainRate:5
CircleSize:3.8
OverallDifficulty:8
ApproachRate:9
SliderMultiplier:1.8
SliderTickRate:1

[Events]
//Background and Video events
Video,0,"ImoutoEroge.mp4"
0,0,"ImoutoDaisukidesuu.jpg",0,0
//Break Periods
//Storyboard Layer 0 (Background)
//Storyboard Layer 1 (Fail)
//Storyboard Layer 2 (Pass)
//Storyboard Layer 3 (Foreground)
//Storyboard Layer 4 (Overlay)
//Storyboard Sound Samples

[TimingPoints]
560,335.195530726257,4,2,1,40,1,0
560,-142.857142857143,4,2,1,40,0,0
1733,333.333333333333,4,2,1,40,1,0
1733,-142.857142857143,4,2,1,40,0,0
1899,333.333333333333,4,2,1,40,1,0
2565,-142.857142857143,4,2,1,40,0,0
8565,-142.857142857143,4,2,1,45,0,0
9898,331.491712707182,4,2,1,40,1,0
10893,-142.857142857143,4,2,1,50,0,0
10976,-142.857142857143,4,2,1,55,0,0
11059,-142.857142857143,4,2,1,60,0,0
11143,-142.857142857143,4,2,1,65,0,0
11226,333.333333333333,4,2,1,40,1,0
11226,-100,4,2,1,70,0,0
12393,-100,4,2,3,70,0,0
12559,-100,4,2,1,70,0,0
15059,-100,4,2,3,70,0,0
15225,-100,4,2,1,70,0,0
15726,-100,4,2,2,70,0,0
15976,-100,4,2,2,5,0,0
16059,-100,4,2,2,70,0,0
16309,-100,4,2,2,5,0,0
16393,-100,4,2,2,70,0,0
16726,-100,4,2,1,70,0,0
17059,-100,4,2,2,70,0,0
17226,-100,4,2,1,70,0,0
17726,-100,4,2,2,70,0,0
17893,-100,4,2,1,70,0,0
18393,-100,4,2,2,70,0,0
18560,-100,4,2,1,70,0,0
19226,-100,4,2,3,70,0,0
19559,-100,4,2,1,70,0,0
20559,-100,4,2,1,75,0,0
20893,-100,4,2,2,70,0,0
21059,-100,4,2,1,70,0,0
21393,-100,4,2,1,65,0,0
21559,-100,4,2,1,70,0,0
21726,-100,4,2,1,75,0,0
21893,-142.857142857143,4,2,3,60,0,0
22226,-142.857142857143,4,2,2,60,0,0
23143,-142.857142857143,4,2,2,5,0,0
23226,-142.857142857143,4,2,2,60,0,0
24226,-142.857142857143,4,2,1,60,0,0
24393,-142.857142857143,4,2,2,60,0,0
24559,-142.857142857143,4,2,2,65,0,0
24893,-142.857142857143,4,2,2,60,0,0
26893,-142.857142857143,4,2,1,60,0,0
27060,-142.857142857143,4,2,2,60,0,0
27226,-142.857142857143,4,2,2,65,0,0
27559,-142.857142857143,4,2,1,60,0,0
27726,-142.857142857143,4,2,2,60,0,0
28226,-142.857142857143,4,2,1,60,0,0
29226,-142.857142857143,4,2,2,60,0,0
30226,-142.857142857143,4,2,1,60,0,0
30393,-142.857142857143,4,2,2,60,0,0
32393,-142.857142857143,4,2,1,60,0,0
32559,-125,4,2,2,65,0,0
35226,-125,4,2,2,70,0,0
35559,-125,4,2,2,65,0,0
37726,-125,4,2,1,65,0,0
37893,-125,4,2,2,70,0,0
38226,-125,4,2,2,65,0,0
39559,-125,4,2,1,60,0,0
39893,-125,4,2,2,65,0,0
40393,-125,4,2,1,65,0,0
40560,-125,4,2,3,65,0,0
41726,-125,4,2,2,70,0,0
41976,-125,4,2,2,5,0,0
42059,-125,4,2,2,70,0,0
42309,-125,4,2,2,5,0,0
42393,-125,4,2,2,70,0,0
42643,-125,4,2,2,5,0,0
42726,-125,4,2,2,70,0,0
42893,-125,4,2,1,60,0,0
42976,-125,4,2,2,60,0,0
43059,-125,4,2,3,60,0,0
43226,-111.111111111111,4,2,1,70,0,0
48059,-111.111111111111,4,2,1,65,0,0
48393,-111.111111111111,4,2,1,70,0,0
48559,-111.111111111111,4,2,2,70,0,0
48893,-111.111111111111,4,2,1,70,0,0
52559,-111.111111111111,4,2,3,70,0,0
53726,-111.111111111111,4,2,1,70,0,0
53893,-111.111111111111,4,2,2,70,0,0
54226,-111.111111111111,4,2,1,65,0,0
56559,-111.111111111111,4,2,1,70,0,0
56892,-111.111111111111,4,2,1,65,0,0
58893,-111.111111111111,4,2,1,65,0,0
59143,-111.111111111111,4,2,1,5,0,0
59226,-111.111111111111,4,2,3,70,0,0
59559,-111.111111111111,4,2,1,70,0,0
60559,-111.111111111111,4,2,3,70,0,0
61893,-100,4,2,3,75,0,0
62226,-100,4,2,2,75,0,0
66559,-100,4,2,2,75,0,0
66893,-100,4,2,2,60,0,0
66898,-100,4,2,1,60,0,0
66976,-100,4,2,1,65,0,0
67059,-100,4,2,1,70,0,0
67143,-100,4,2,1,75,0,0
67225,-83.3333333333333,4,2,3,80,0,1
67393,-83.3333333333333,4,2,1,75,0,1
67559,-90.9090909090909,4,2,1,75,0,1
72559,-90.9090909090909,4,2,3,75,0,1
72726,-90.9090909090909,4,2,1,75,0,1
76893,-90.9090909090909,4,2,2,75,0,1
77309,-90.9090909090909,4,2,2,5,0,1
77393,-90.9090909090909,4,2,2,75,0,1
77476,-90.9090909090909,4,2,2,5,0,1
77559,-100,4,2,1,60,0,0
77643,-100,4,2,1,65,0,0
77726,-100,4,2,1,70,0,0
77809,-100,4,2,1,75,0,0
77892,-83.3333333333333,4,2,3,80,0,1
78059,-83.3333333333333,4,2,1,75,0,1
78226,-90.9090909090909,4,2,1,75,0,1
83226,-90.9090909090909,4,2,3,75,0,1
83393,-90.9090909090909,4,2,1,75,0,1
87393,-90.9090909090909,4,2,1,70,0,1
87559,-90.9090909090909,4,2,1,75,0,1
87726,-90.9090909090909,4,2,2,75,0,1
87976,-90.9090909090909,4,2,2,5,0,1
88060,-90.9090909090909,4,2,2,75,0,1
88143,-90.9090909090909,4,2,2,5,0,1
88226,-90.9090909090909,4,2,1,60,0,1
88309,-90.9090909090909,4,2,1,65,0,1
88392,-90.9090909090909,4,2,1,70,0,1
88475,-90.9090909090909,4,2,1,75,0,1
88559,-125,4,2,3,70,0,0
88726,-125,4,2,1,65,0,0
90226,-125,4,2,1,70,0,0
90893,-125,4,2,1,75,0,0
91726,-125,4,2,1,65,0,0
93893,-125,4,2,3,65,0,0
94059,-125,4,2,1,65,0,0
96393,-125,4,2,1,60,0,0
96559,-125,4,2,1,65,0,0
97893,-125,4,2,1,60,0,0
98226,-125,4,2,1,65,0,0
98559,-125,4,2,1,70,0,0
98893,-125,4,2,1,75,0,0
99226,-100,4,2,4,75,0,0
99559,-100,4,2,1,70,0,0
99893,-100,4,2,1,65,0,0
100226,-100,4,2,1,60,0,0
100559,-100,4,2,1,55,0,0
100893,-100,4,2,1,50,0,0
101226,-100,4,2,1,40,0,0
101559,-100,4,2,1,30,0,0
101893,-100,4,2,1,20,0,0
102226,-100,4,2,1,15,0,0
102559,-100,4,2,1,10,0,0
102726,-100,4,2,1,5,0,0

[Colours]
Combo1 : 201,184,199
Combo2 : 255,128,128
Combo3 : 238,211,196
Combo4 : 169,223,235

[HitObjects]
4,93,560,6,0,P|24:38|81:48,1,125.999996154785,2|0,0:0|0:0,0:0:0:0:
76,134,1062,2,0,L|51:257,1,125.999996154785,2|0,0:0|0:0,0:0:0:0:
146,282,1565,1,2,0:0:0:0:
146,282,1733,6,0,L|171:159,2,125.999996154785,2|0|2,0:0|0:0|0:0,0:0:0:0:
224,329,2565,2,0,P|254:322|293:315,1,62.9999980773926
339,243,2898,2,0,P|369:236|408:229,1,62.9999980773926,2|0,0:0|0:0,0:0:0:0:
489,207,3232,6,0,L|513:344,1,125.999996154785,2|0,0:0|0:0,0:0:0:0:
422,354,3732,2,0,L|398:217,1,125.999996154785,2|0,0:0|0:0,0:0:0:0:
371,136,4232,1,2,0:0:0:0:
371,136,4398,6,0,P|435:154|491:126,2,125.999996154785,2|0|2,0:0|0:0|0:0,0:0:0:0:
427,72,5232,2,0,L|439:3,2,62.9999980773926,0|0|2,0:0|0:0|0:0,0:0:0:0:
283,179,5898,6,0,P|273:123|261:49,1,125.999996154785,2|0,0:0|0:0,0:0:0:0:
173,68,6398,2,0,P|183:124|195:198,1,125.999996154785,2|0,0:0|0:0,0:0:0:0:
254,267,6898,1,2,0:0:0:0:
254,267,7065,6,0,L|386:248,2,125.999996154785,2|0|2,0:0|0:0|0:0,0:0:0:0:
220,347,7898,2,0,L|157:338,1,62.9999980773926,0|2,0:0|0:0,0:0:0:0:
91,280,8232,2,0,L|28:288,1,62.9999980773926,2|2,0:0|0:0,0:0:0:0:
28,88,8565,5,2,0:0:0:0:
28,88,8732,1,2,0:0:0:0:
188,197,9065,5,2,0:0:0:0:
188,197,9232,1,2,0:0:0:0:
13,283,9565,5,2,0:0:0:0:
13,283,9732,1,2,0:0:0:0:
201,367,10063,5,2,0:0:0:0:
201,367,10229,1,2,0:0:0:0:
71,185,10560,5,2,0:0:0:0:
71,185,10893,5,2,0:0:0:0:
73,169,10976,1,2,0:0:0:0:
75,153,11059,1,2,0:0:0:0:
77,138,11141,1,2,0:0:0:0:
80,123,11226,6,0,P|122:114|185:100,1,90,4|0,3:2|0:0,0:0:0:0:
311,196,11559,2,0,P|269:205|206:219,1,90,10|2,0:0|0:0,0:0:0:0:
256,122,11893,5,2,3:2:0:0:
279,287,12059,1,2,3:2:0:0:
255,111,12226,1,8,0:0:0:0:
384,266,12393,6,0,P|463:263|490:156,1,180,4|0,3:2|3:0,0:0:0:0:
396,106,12893,2,0,P|405:149|415:193,1,90,8|0,0:0|0:0,0:0:0:0:
456,44,13226,5,2,3:2:0:0:
319,153,13393,1,0,3:0:0:0:
498,178,13559,1,10,0:0:0:0:
342,33,13726,1,0,3:0:0:0:
340,239,13893,6,0,P|291:247|226:257,1,90,6|0,3:2|0:0,0:0:0:0:
84,166,14226,5,10,0:0:0:0:
143,243,14393,1,2,0:0:0:0:
121,76,14559,5,2,3:2:0:0:
46,255,14726,1,2,3:2:0:0:
0,72,14893,1,8,0:0:0:0:
181,150,15059,6,0,P|210:114|172:-5,1,180,4|0,3:2|3:0,0:0:0:0:
121,76,15559,5,8,0:0:0:0:
228,235,15726,1,4,3:2:0:0:
230,248,16059,1,4,3:2:0:0:
232,260,16393,6,0,B|273:279|273:279|319:257,1,90,6|0,3:2|0:0,0:0:0:0:
393,99,16726,5,2,3:2:0:0:
280,184,16893,1,10,0:0:0:0:
382,298,17059,2,0,P|391:251|357:192,1,90,6|0,3:2|0:0,0:0:0:0:
303,81,17393,5,2,3:2:0:0:
445,167,17559,1,10,0:0:0:0:
280,184,17726,2,0,P|232:176|184:168,1,90,6|0,3:2|0:0,0:0:0:0:
393,99,18059,5,2,3:2:0:0:
313,259,18226,1,10,0:0:0:0:
398,88,18393,2,0,P|404:43|412:-1,1,90,6|0,3:2|0:0,0:0:0:0:
458,173,18726,5,2,3:2:0:0:
310,84,18893,2,0,P|265:75|221:70,1,90,10|0,0:2|3:2,0:0:0:0:
279,327,19226,6,0,P|339:334|391:231,1,180,6|8,3:2|0:0,0:0:0:0:
330,167,19726,2,0,P|322:211|313:255,1,90,2|0,0:0|3:0,0:0:0:0:
141,283,20059,2,0,P|148:241|159:185,1,90,0|8,3:0|0:0,0:0:0:0:
82,52,20393,6,0,P|100:42|126:46,1,45,2|2,3:2|0:0,0:0:0:0:
237,107,20559,1,0,0:0:0:0:
58,279,20726,5,0,3:0:0:0:
58,279,20809,1,0,3:0:0:0:
58,279,20893,1,12,0:0:0:0:
159,115,21059,1,0,3:0:0:0:
223,299,21226,1,2,0:0:0:0:
63,163,21393,5,0,3:0:0:0:
66,144,21476,1,0,3:0:0:0:
69,126,21559,1,8,0:0:0:0:
72,107,21642,1,8,0:0:0:0:
76,89,21726,1,8,0:0:0:0:
79,70,21809,1,8,0:0:0:0:
82,52,21893,1,4,3:2:0:0:
82,52,22226,6,0,P|48:45|10:39,1,62.9999980773926,2|0,0:0|0:0,0:0:0:0:
1,151,22559,2,0,P|32:156|62:162,1,62.9999980773926,2|0,0:0|0:0,0:0:0:0:
150,209,22893,2,0,L|164:99,1,94.499997116089,2|0,0:0|0:0,0:0:0:0:
167,107,23226,6,0,P|198:112|236:119,2,62.9999980773926,2|0|2,0:0|0:0|0:0,0:0:0:0:
179,20,23726,2,0,P|210:25|248:32,1,62.9999980773926,2|0,0:0|0:0,0:0:0:0:
416,73,24059,2,0,P|388:53|303:98,1,125.999996154785,2|0,0:0|3:0,0:0:0:0:
381,205,24559,5,2,3:2:0:0:
381,205,24893,2,0,L|368:127,1,62.9999980773926,2|0,0:0|0:0,0:0:0:0:
281,171,25226,2,0,L|294:249,1,62.9999980773926,2|0,0:0|0:0,0:0:0:0:
201,261,25559,2,0,L|191:199,1,62.9999980773926,2|0,0:0|0:0,0:0:0:0:
208,116,25893,6,0,P|176:123|137:113,2,62.9999980773926,2|0|2,0:0|0:0|0:0,0:0:0:0:
177,38,26393,2,0,L|34:20,1,125.999996154785,2|2,0:0|0:0,0:0:0:0:
28,109,26893,2,0,P|39:140|43:181,1,62.9999980773926,2|0,0:0|3:0,0:0:0:0:
11,308,27226,6,0,B|50:315|91:323|91:323|139:280|100:226,1,188.999994232178,2|2,3:2|0:0,0:0:0:0:
156,164,27893,2,0,P|117:145|36:176,2,125.999996154785,2|2|0,0:0|0:0|0:0,0:0:0:0:
231,296,28893,1,2,0:0:0:0:
231,296,29226,6,0,P|238:260|222:219,1,62.9999980773926,2|0,0:0|0:0,0:0:0:0:
298,185,29559,2,0,P|270:160|226:154,1,62.9999980773926,2|0,0:0|3:0,0:0:0:0:
235,154,29809,1,0,3:0:0:0:
225,153,29893,6,0,P|217:95|268:36,1,125.999996154785,2|0,3:2|0:0,0:0:0:0:
161,7,30393,1,2,0:0:0:0:
161,7,30559,2,0,P|114:42|38:28,1,125.999996154785,2|0,0:0|0:0,0:0:0:0:
21,121,31059,6,0,P|32:154|39:185,1,62.9999980773926,2|0,0:0|0:0,0:0:0:0:
125,212,31393,2,0,P|101:238|78:259,1,62.9999980773926,2|0,0:0|0:0,0:0:0:0:
98,347,31726,2,0,P|63:340|33:330,1,62.9999980773926,2|0,0:0|0:0,0:0:0:0:
108,121,32059,5,2,0:0:0:0:
125,212,32226,1,2,0:0:0:0:
38,181,32393,1,0,3:2:0:0:
196,152,32559,6,0,P|262:142|355:129,1,144,6|0,3:2|0:0,0:0:0:0:
414,81,33059,1,0,0:0:0:0:
493,250,33226,2,0,P|441:243|428:149,1,144,10|2,0:0|0:0,0:0:0:0:
485,26,33726,6,0,L|508:168,1,144,10|0,0:0|0:0,0:0:0:0:
479,334,34226,1,2,0:0:0:0:
421,238,34393,2,0,L|492:249,1,72,2|8,0:0|0:0,0:0:0:0:
393,322,34726,2,0,L|243:297,1,144,2|0,0:0|3:0,0:0:0:0:
93,202,35226,5,0,3:0:0:0:
93,202,35559,2,0,P|84:246|76:286,1,72,2|0,0:0|0:0,0:0:0:0:
157,333,35893,2,0,P|171:260|186:187,1,144,10|0,0:0|0:0,0:0:0:0:
151,33,36393,1,10,0:0:0:0:
151,33,36559,6,0,L|228:23,2,72,2|0|2,0:0|0:0|0:0,0:0:0:0:
125,118,37059,2,0,L|270:99,1,144,2|2,0:0|0:0,0:0:0:0:
334,38,37559,1,0,0:0:0:0:
353,126,37726,5,0,3:0:0:0:
353,126,37809,1,0,3:0:0:0:
353,125,37893,2,0,P|417:152|429:220,1,144,2|0,3:2|0:0,0:0:0:0:
339,214,38393,1,2,0:0:0:0:
339,214,38559,2,0,P|270:225|190:239,1,144,8|0,0:0|0:0,0:0:0:0:
105,234,39059,5,8,0:0:0:0:
105,234,39559,2,0,P|113:272|122:317,1,72,2|0,0:0|0:0,0:0:0:0:
43,349,39893,2,0,P|28:278|14:207,1,144,10|2,0:0|0:0,0:0:0:0:
0,76,40393,1,0,3:0:0:0:
0,76,40476,1,0,3:0:0:0:
0,76,40559,6,0,P|49:124|118:115,1,144,2|2,3:2|0:0,0:0:0:0:
196,74,41059,1,0,0:0:0:0:
196,74,41225,2,0,P|146:25|77:34,1,144,2|2,0:0|0:0,0:0:0:0:
96,254,41726,5,6,3:2:0:0:
359,191,42059,5,6,3:2:0:0:
118,115,42393,5,6,3:2:0:0:
212,285,42726,5,6,3:2:0:0:
264,121,42893,1,8,3:0:0:0:
238,203,43059,1,8,3:0:0:0:
197,67,43226,6,0,P|287:84|367:101,1,161.999995056153,4|8,3:2|0:0,0:0:0:0:
512,126,43726,1,2,0:0:0:0:
447,42,43893,2,0,L|415:204,1,161.999995056153,2|8,0:0|0:0,0:0:0:0:
395,356,44393,1,0,3:0:0:0:
463,308,44559,6,0,P|417:276|322:312,1,161.999995056153,2|8,0:0|0:0,0:0:0:0:
210,172,45059,1,2,0:0:0:0:
182,259,45226,6,0,L|263:247,1,80.9999975280763,2|0,3:2|3:0,0:0:0:0:
233,86,45559,2,0,L|151:97,1,80.9999975280763,10|0,0:0|3:0,0:0:0:0:
49,195,45893,2,0,L|214:171,1,161.999995056153,0|8,3:0|0:0,0:0:0:0:
300,160,46393,1,2,0:2:0:0:
342,286,46559,5,2,3:2:0:0:
342,286,46726,1,0,3:0:0:0:
426,309,46893,1,8,0:0:0:0:
459,232,47059,6,0,P|444:156|423:44,1,161.999995056153,0|0,3:0|3:0,0:0:0:0:
288,80,47559,2,0,P|295:119|303:159,1,80.9999975280763,8|0,0:0|0:0,0:0:0:0:
348,19,47893,1,2,0:0:0:0:
208,141,48059,1,0,3:0:0:0:
208,141,48143,1,0,3:0:0:0:
208,141,48226,1,10,0:0:0:0:
13,29,48393,5,8,0:0:0:0:
13,29,48476,1,8,0:0:0:0:
13,29,48559,2,0,P|82:17|125:100,1,161.999995056153,6|8,3:2|0:0,0:0:0:0:
16,191,49059,1,2,0:0:0:0:
75,261,49226,2,0,L|44:101,1,161.999995056153,2|8,0:0|0:0,0:0:0:0:
189,19,49726,1,0,3:0:0:0:
164,172,49893,6,0,P|219:161|323:140,1,161.999995056153,2|8,0:0|0:0,0:0:0:0:
471,117,50393,1,2,0:0:0:0:
389,85,50559,2,0,L|376:6,1,80.9999975280763,2|0,3:2|3:0,0:0:0:0:
403,171,50893,2,0,L|417:251,1,80.9999975280763,10|0,0:0|3:0,0:0:0:0:
470,348,51226,6,0,P|390:331|311:316,1,161.999995056153,2|8,3:2|0:0,0:0:0:0:
227,325,51726,1,0,0:0:0:0:
168,223,51893,5,2,3:2:0:0:
168,223,52059,1,0,3:0:0:0:
129,300,52226,1,8,0:0:0:0:
43,305,52393,1,0,3:0:0:0:
81,227,52559,6,0,P|72:185|55:132,1,80.9999975280763,2|0,0:0|3:0,0:0:0:0:
183,24,52893,2,0,P|191:65|209:119,1,80.9999975280763,10|0,0:0|3:0,0:0:0:0:
243,268,53226,5,2,3:2:0:0:
287,118,53393,1,0,3:0:0:0:
244,284,53559,5,10,0:0:0:0:
147,159,53726,1,0,3:0:0:0:
245,301,53893,6,0,P|328:288|432:277,1,161.999995056153,6|8,3:2|0:0,0:0:0:0:
484,221,54393,1,2,0:0:0:0:
391,75,54559,5,2,0:0:0:0:
391,75,54726,1,0,3:0:0:0:
445,145,54893,1,8,0:0:0:0:
463,26,55059,6,0,P|380:39|276:50,1,161.999995056153,0|0,3:0|3:0,0:0:0:0:
238,136,55559,2,0,P|278:140|318:146,1,80.9999975280763,8|2,0:0|0:0,0:0:0:0:
80,88,55893,2,0,P|39:94|0:98,1,80.9999975280763,2|0,3:2|3:0,0:0:0:0:
168,76,56226,2,0,L|148:174,1,80.9999975280763,10|0,0:0|3:0,0:0:0:0:
21,315,56559,6,0,P|7:252|83:192,1,161.999995056153,0|8,3:0|0:0,0:0:0:0:
159,318,57059,1,2,0:0:0:0:
248,292,57226,2,0,L|87:269,1,161.999995056153,2|10,3:2|0:0,0:0:0:0:
151,155,57726,2,0,L|231:166,1,80.9999975280763,0|0,3:2|0:0,0:0:0:0:
395,186,58059,5,0,3:0:0:0:
320,126,58226,2,0,L|309:206,1,80.9999975280763,10|0,0:0|0:0,0:0:0:0:
475,224,58559,2,0,L|486:144,1,80.9999975280763,2|0,0:0|3:0,0:0:0:0:
488,131,58809,1,0,3:0:0:0:
489,118,58893,2,0,P|433:117|412:55,1,121.499996292114,10|0,0:0|0:0,0:0:0:0:
476,12,59226,6,0,P|402:25|305:38,1,161.999995056153,4|8,3:2|0:0,0:0:0:0:
231,33,59726,1,2,0:0:0:0:
286,192,59893,5,2,3:2:0:0:
254,106,60059,1,0,3:0:0:0:
344,121,60226,1,8,0:0:0:0:
196,177,60393,2,0,L|101:192,1,80.9999975280763,0|2,3:2|0:0,0:0:0:0:
1,74,60726,5,0,3:2:0:0:
91,99,60893,1,10,0:0:0:0:
37,244,61059,2,0,L|24:160,1,80.9999975280763,8|2,0:0|3:2,0:0:0:0:
64,15,61393,5,0,3:2:0:0:
115,189,61559,1,10,0:0:0:0:
0,84,61726,1,8,0:0:0:0:
184,70,61893,6,0,L|292:89,1,90,4|0,3:2|0:0,0:0:0:0:
386,17,62226,5,8,0:0:0:0:
308,233,62393,1,0,3:0:0:0:
374,11,62559,5,8,0:0:0:0:
393,234,62726,1,0,3:0:0:0:
360,11,62892,5,8,0:0:0:0:
474,211,63059,1,0,3:0:0:0:
345,16,63226,6,0,L|365:129,1,90,8|0,0:0|3:2,0:0:0:0:
308,232,63559,5,8,0:0:0:0:
233,30,63726,1,2,3:2:0:0:
218,222,63893,5,8,0:0:0:0:
142,19,64060,1,2,3:2:0:0:
153,286,64226,5,8,0:0:0:0:
77,83,64393,1,0,3:0:0:0:
333,113,64559,5,14,3:2:0:0:
130,197,64726,2,0,L|34:213,1,90,8|0,0:0|0:0,0:0:0:0:
340,122,65059,5,14,3:2:0:0:
130,185,65226,2,0,L|33:193,1,90,8|0,0:0|0:0,0:0:0:0:
346,132,65559,5,14,3:2:0:0:
131,175,65726,2,0,L|33:174,1,90,8|0,0:0|0:0,0:0:0:0:
352,142,66059,5,14,3:2:0:0:
132,163,66226,2,0,L|35:153,1,90,8|0,0:0|0:0,0:0:0:0:
316,247,66559,2,0,L|412:256,1,90,10|0,0:0|0:0,0:0:0:0:
207,337,66893,5,0,0:0:0:0:
209,318,66976,1,0,0:0:0:0:
212,299,67059,1,0,0:0:0:0:
215,281,67142,1,0,0:0:0:0:
218,262,67226,6,0,P|223:204|245:42,1,215.999993408203,6|8,3:2|0:0,0:0:0:0:
400,0,67726,1,2,0:0:0:0:
447,170,67893,6,0,P|375:167|339:53,1,198.000006042481,2|8,3:2|0:0,0:0:0:0:
414,92,68393,1,0,3:0:0:0:
407,274,68559,6,0,P|460:269|525:253,1,99.0000030212403,2|0,0:0|3:0,0:0:0:0:
247,214,68893,2,0,P|194:209|129:193,1,99.0000030212403,10|0,0:0|0:0,0:0:0:0:
408,290,69226,6,0,P|460:298|527:300,1,99.0000030212403,2|0,3:2|3:0,0:0:0:0:
251,198,69560,2,0,P|201:179|142:147,1,99.0000030212403,10|0,0:0|3:0,0:0:0:0:
344,138,69893,6,0,L|313:352,1,198.000006042481,2|10,3:2|0:0,0:0:0:0:
430,196,70393,1,2,0:0:0:0:
263,108,70559,2,0,P|272:56|389:71,1,198.000006042481,2|8,3:2|0:0,0:0:0:0:
331,234,71059,1,2,3:2:0:0:
160,158,71226,6,0,L|174:44,1,99.0000030212403,2|0,0:0|3:0,0:0:0:0:
212,233,71559,5,10,0:0:0:0:
61,122,71726,1,2,0:0:0:0:
54,304,71893,1,0,3:0:0:0:
172,59,72059,5,2,3:2:0:0:
106,226,72226,1,8,0:0:0:0:
61,21,72393,1,2,3:2:0:0:
212,233,72559,6,0,P|301:219|418:201,1,198.000006042481,4|8,3:2|0:0,0:0:0:0:
334,112,73059,1,2,0:0:0:0:
388,292,73226,6,0,P|461:281|488:161,1,198.000006042481,2|8,3:2|0:0,0:0:0:0:
330,97,73726,1,2,3:2:0:0:
407,202,73893,6,0,L|415:103,1,99.0000030212403,2|0,0:0|3:0,0:0:0:0:
246,13,74226,2,0,L|237:111,1,99.0000030212403,8|0,0:0|0:0,0:0:0:0:
315,230,74559,5,2,3:2:0:0:
137,156,74726,1,0,3:0:0:0:
330,97,74893,1,10,0:0:0:0:
196,263,75059,1,0,3:0:0:0:
196,263,75143,1,0,0:0:0:0:
196,263,75226,6,0,L|64:283,1,99.0000030212403,2|0,3:2|3:0,0:0:0:0:
79,99,75559,1,8,0:0:0:0:
47,175,75726,2,0,P|99:180|142:149,1,99.0000030212403,2|0,0:0|3:0,0:0:0:0:
109,24,76059,2,0,P|57:19|14:50,1,99.0000030212403,2|10,3:2|0:0,0:0:0:0:
196,263,76393,5,2,3:2:0:0:
210,64,76559,1,0,0:0:0:0:
47,175,76726,1,0,3:0:0:0:
47,175,76809,1,0,3:0:0:0:
47,175,76893,5,8,0:0:0:0:
289,154,77059,1,4,3:2:0:0:
81,309,77393,1,4,3:2:0:0:
178,175,77559,5,8,0:0:0:0:
182,197,77642,1,8,0:0:0:0:
187,219,77725,1,8,0:0:0:0:
192,241,77808,1,8,0:0:0:0:
196,266,77893,6,0,P|302:254|435:234,1,215.999993408203,4|8,3:2|0:0,0:0:0:0:
291,144,78393,1,2,0:0:0:0:
433,319,78559,2,0,P|490:271|451:168,1,198.000006042481,2|8,3:2|0:0,0:0:0:0:
290,134,79059,1,0,3:0:0:0:
388,25,79226,6,0,L|375:124,1,99.0000030212403,2|0,0:0|3:0,0:0:0:0:
193,257,79559,2,0,L|208:149,1,99.0000030212403,10|0,0:0|0:0,0:0:0:0:
173,44,79893,6,0,L|281:59,1,99.0000030212403,2|0,3:2|3:0,0:0:0:0:
410,239,80226,2,0,L|302:224,1,99.0000030212403,10|0,0:0|3:0,0:0:0:0:
102,266,80559,6,0,P|187:257|202:151,1,198.000006042481,2|10,3:2|0:0,0:0:0:0:
44,101,81059,1,2,0:0:0:0:
110,0,81226,6,0,L|138:204,1,198.000006042481,2|8,3:2|0:0,0:0:0:0:
38,88,81726,1,2,3:2:0:0:
202,46,81893,2,0,P|251:53|321:62,1,99.0000030212403,2|0,0:0|3:0,0:0:0:0:
508,129,82226,5,10,0:0:0:0:
311,148,82393,1,2,0:0:0:0:
443,14,82559,1,0,3:0:0:0:
425,215,82726,5,2,3:2:0:0:
300,59,82893,1,8,0:0:0:0:
508,129,83059,1,2,3:2:0:0:
327,244,83226,6,0,P|260:230|225:102,1,198.000006042481,4|8,3:2|0:0,0:0:0:0:
364,1,83726,1,2,0:0:0:0:
508,129,83893,6,0,L|310:147,1,198.000006042481,2|8,3:2|0:0,0:0:0:0:
141,163,84393,1,2,3:2:0:0:
251,313,84559,6,0,P|240:245|217:115,1,198.000006042481,0|8,0:0|0:0,0:0:0:0:
197,23,85059,1,2,0:0:0:0:
145,249,85226,6,0,P|91:229|84:99,1,198.000006042481,2|8,3:2|0:0,0:0:0:0:
217,117,85726,1,0,3:0:0:0:
143,340,85893,6,0,L|358:313,1,198.000006042481,2|8,3:2|0:0,0:0:0:0:
472,302,86393,1,2,0:0:0:0:
283,206,86559,5,2,3:2:0:0:
283,206,86643,1,0,3:0:0:0:
283,206,86726,1,0,3:0:0:0:
446,122,86893,1,8,0:0:0:0:
472,302,87059,1,2,3:2:0:0:
452,108,87226,1,2,0:0:0:0:
343,311,87393,1,0,3:0:0:0:
343,311,87476,1,0,3:0:0:0:
343,311,87559,5,8,0:0:0:0:
337,57,87726,5,4,3:2:0:0:
99,161,88059,5,4,3:2:0:0:
220,18,88226,5,8,0:0:0:0:
224,42,88309,1,8,0:0:0:0:
228,66,88392,1,10,0:0:0:0:
233,91,88475,1,8,0:0:0:0:
238,116,88559,6,0,B|278:183|223:251|223:251|162:216,1,216,4|0,3:2|3:0,0:0:0:0:
12,181,89226,2,0,B|-28:114|27:46|27:46|87:80,1,216,8|8,0:0|0:0,0:0:0:0:
99,161,89893,6,0,L|76:248,1,72,2|2,0:0|0:0,0:0:0:0:
221,298,90226,2,0,L|244:211,1,72,2|2,3:2|3:2,0:0:0:0:
194,49,90559,5,10,0:0:0:0:
218,133,90726,1,2,3:2:0:0:
301,32,90893,5,2,0:0:0:0:
334,142,91060,1,8,0:0:0:0:
411,0,91226,6,0,P|426:61|463:215,1,216,2|0,3:2|3:0,0:0:0:0:
495,299,91893,2,0,B|449:308|400:317|400:317|344:267|377:204,1,216,8|8,0:0|0:0,0:0:0:0:
443,128,92559,5,2,3:2:0:0:
443,128,92726,1,8,0:0:0:0:
383,60,92893,1,2,3:2:0:0:
383,60,93059,1,2,3:2:0:0:
288,73,93226,1,8,0:0:0:0:
251,161,93393,2,0,L|105:176,1,144,2|8,3:2|0:0,0:0:0:0:
0,235,93892,6,0,B|30:343|30:343|75:365|127:325,1,216,6|0,3:2|3:0,0:0:0:0:
211,296,94559,1,8,0:0:0:0:
211,296,94726,2,0,L|284:303,1,72,0|2,3:0|0:0,0:0:0:0:
355,262,95059,6,0,P|366:295|361:331,1,72,10|0,0:0|0:0,0:0:0:0:
282,223,95393,2,0,P|270:189|275:153,1,72,8|0,0:0|3:2,0:0:0:0:
352,179,95726,5,2,3:2:0:0:
426,218,95893,1,8,0:0:0:0:
497,174,96059,2,0,P|486:119|465:8,1,144,0|0,3:0|0:0,0:0:0:0:
465,26,96476,1,8,0:0:0:0:
458,22,96559,6,0,L|316:47,1,144,2|2,3:2|0:0,0:0:0:0:
248,118,97059,1,2,3:2:0:0:
248,118,97226,2,0,L|178:130,1,72,10|0,0:0|0:0,0:0:0:0:
135,54,97559,2,0,L|205:42,1,72,2|8,3:2|0:0,0:0:0:0:
346,150,97893,5,2,0:0:0:0:
316,46,98059,1,8,0:0:0:0:
248,118,98226,5,2,3:2:0:0:
423,81,98393,1,10,0:0:0:0:
284,249,98559,5,10,0:0:0:0:
316,46,98726,1,10,0:0:0:0:
435,180,98893,5,8,0:0:0:0:
190,169,99059,1,10,0:0:0:0:
423,81,99226,1,4,3:2:0:0:
256,192,99393,12,0,102725,0:0:0:0:
