osu file format v14

[General]
AudioFilename: audio.ogg
AudioLeadIn: 0
PreviewTime: 65976
Countdown: 0
SampleSet: Soft
StackLeniency: 0.3
Mode: 0
LetterboxInBreaks: 0
WidescreenStoryboard: 1

[Editor]
Bookmarks: 565,11231,21898,32564,43231,61898,67231,77898,77981,88564,99231,102731
DistanceSpacing: 0.9
BeatDivisor: 4
GridSize: 32
TimelineZoom: 1.8

[Metadata]
Title:Miracle infinity
TitleUnicode:ミラクルinfinity
Artist:solfa feat. Chata
ArtistUnicode:solfa feat. 茶太
Creator:tomatas95
Version:Insane
Source:ゆめこい~夢見る魔法少女と恋の呪文~
Tags:eroge parasol Yumekoi ~Yume Miru Mahou Shoujo to Koi no Jumon~ iyuna galgame sister imouto video game visual novel vn opening op jpop j-pop japanese pop fa featured artist
BeatmapID:4249804
BeatmapSetID:1989275

[Difficulty]
HPDrainRate:5
CircleSize:3.8
OverallDifficulty:8
ApproachRate:8.7
SliderMultiplier:1.6
SliderTickRate:1

[Events]
//Background and Video events
Video,0,"ImoutoEroge.mp4"
0,0,"HoshizakiKawaiidesuu.jpg",0,0
//Break Periods
//Storyboard Layer 0 (Background)
//Storyboard Layer 1 (Fail)
//Storyboard Layer 2 (Pass)
//Storyboard Layer 3 (Foreground)
//Storyboard Layer 4 (Overlay)
//Storyboard Sound Samples

[TimingPoints]
560,335.195530726257,4,2,1,40,1,0
560,-125,4,2,1,40,0,0
1733,333.333333333333,4,2,1,40,1,0
1733,-125,4,2,1,40,0,0
1899,333.333333333333,4,2,1,40,1,0
2565,-125,4,2,1,40,0,0
8565,-125,4,2,1,45,0,0
9898,331.491712707182,4,2,1,40,1,0
10063,-125,4,2,1,40,0,0
10893,-125,4,2,1,50,0,0
10976,-125,4,2,1,55,0,0
11059,-125,4,2,1,60,0,0
11143,-125,4,2,1,65,0,0
11226,333.333333333333,4,2,1,40,1,0
11226,-100,4,2,1,70,0,0
12393,-100,4,2,3,70,0,0
12559,-100,4,2,1,70,0,0
15059,-100,4,2,3,70,0,0
15225,-100,4,2,1,70,0,0
15726,-100,4,2,2,70,0,0
15976,-100,4,2,2,5,0,0
16059,-100,4,2,2,70,0,0
16309,-100,4,2,2,5,0,0
16393,-100,4,2,2,70,0,0
16726,-100,4,2,1,70,0,0
17059,-100,4,2,2,70,0,0
17226,-100,4,2,1,70,0,0
17726,-100,4,2,2,70,0,0
17893,-100,4,2,1,70,0,0
18393,-100,4,2,2,70,0,0
18560,-100,4,2,1,70,0,0
19226,-100,4,2,3,70,0,0
19559,-100,4,2,1,70,0,0
20559,-100,4,2,1,75,0,0
20893,-100,4,2,2,70,0,0
21059,-100,4,2,1,70,0,0
21393,-100,4,2,1,65,0,0
21559,-100,4,2,1,70,0,0
21726,-100,4,2,1,75,0,0
21893,-142.857142857143,4,2,3,60,0,0
22226,-142.857142857143,4,2,2,60,0,0
24226,-142.857142857143,4,2,1,60,0,0
24393,-142.857142857143,4,2,2,60,0,0
24559,-142.857142857143,4,2,2,65,0,0
24893,-142.857142857143,4,2,2,60,0,0
26893,-142.857142857143,4,2,1,60,0,0
27060,-142.857142857143,4,2,2,60,0,0
27226,-142.857142857143,4,2,2,65,0,0
27559,-142.857142857143,4,2,1,60,0,0
27726,-142.857142857143,4,2,2,60,0,0
28226,-142.857142857143,4,2,1,60,0,0
29226,-142.857142857143,4,2,2,60,0,0
30226,-142.857142857143,4,2,1,60,0,0
30393,-142.857142857143,4,2,2,60,0,0
32393,-142.857142857143,4,2,1,60,0,0
32559,-125,4,2,2,65,0,0
35226,-125,4,2,2,70,0,0
35559,-125,4,2,2,65,0,0
37726,-125,4,2,1,65,0,0
37893,-125,4,2,2,70,0,0
38226,-125,4,2,2,65,0,0
39559,-125,4,2,1,60,0,0
39893,-125,4,2,2,65,0,0
40393,-125,4,2,1,65,0,0
40560,-125,4,2,3,65,0,0
41726,-125,4,2,2,70,0,0
41976,-125,4,2,2,5,0,0
42059,-125,4,2,2,70,0,0
42309,-125,4,2,2,5,0,0
42393,-125,4,2,2,70,0,0
42643,-125,4,2,2,5,0,0
42726,-125,4,2,2,70,0,0
42893,-125,4,2,1,60,0,0
42976,-125,4,2,2,60,0,0
43059,-125,4,2,3,60,0,0
43226,-99.9999999999999,4,2,1,70,0,0
48059,-99.9999999999999,4,2,1,65,0,0
48393,-99.9999999999999,4,2,1,70,0,0
48559,-99.9999999999999,4,2,2,70,0,0
48893,-99.9999999999999,4,2,1,70,0,0
52559,-99.9999999999999,4,2,3,70,0,0
53726,-99.9999999999999,4,2,1,70,0,0
53893,-99.9999999999999,4,2,2,70,0,0
54226,-99.9999999999999,4,2,1,65,0,0
56559,-99.9999999999999,4,2,1,70,0,0
56892,-99.9999999999999,4,2,1,65,0,0
59143,-99.9999999999999,4,2,1,5,0,0
59226,-99.9999999999999,4,2,3,70,0,0
59559,-99.9999999999999,4,2,1,70,0,0
60559,-99.9999999999999,4,2,3,70,0,0
61893,-100,4,2,3,75,0,0
62226,-100,4,2,2,75,0,0
66893,-125,4,2,2,60,0,0
66976,-100,4,2,1,65,0,0
67059,-125,4,2,1,70,0,0
67143,-100,4,2,1,75,0,0
67225,-83.3333333333333,4,2,3,80,0,1
67393,-83.3333333333333,4,2,1,75,0,1
67559,-90.9090909090909,4,2,1,75,0,1
72559,-90.9090909090909,4,2,3,75,0,1
72726,-90.9090909090909,4,2,1,75,0,1
76893,-90.9090909090909,4,2,2,75,0,1
77309,-90.9090909090909,4,2,2,5,0,1
77393,-90.9090909090909,4,2,2,75,0,1
77476,-90.9090909090909,4,2,2,5,0,1
77559,-100,4,2,1,60,0,0
77643,-100,4,2,1,65,0,0
77726,-100,4,2,1,70,0,0
77809,-100,4,2,1,75,0,0
77892,-83.3333333333333,4,2,3,80,0,1
78059,-83.3333333333333,4,2,1,75,0,1
78226,-90.9090909090909,4,2,1,75,0,1
83226,-90.9090909090909,4,2,3,75,0,1
83393,-90.9090909090909,4,2,1,75,0,1
87393,-90.9090909090909,4,2,1,70,0,1
87559,-90.9090909090909,4,2,1,75,0,1
87726,-90.9090909090909,4,2,2,75,0,1
87976,-90.9090909090909,4,2,2,5,0,1
88060,-90.9090909090909,4,2,2,75,0,1
88143,-90.9090909090909,4,2,2,5,0,1
88226,-90.9090909090909,4,2,1,60,0,1
88309,-90.9090909090909,4,2,1,65,0,1
88392,-90.9090909090909,4,2,1,70,0,1
88475,-90.9090909090909,4,2,1,75,0,1
88559,-111.111111111111,4,2,3,70,0,0
88726,-111.111111111111,4,2,1,65,0,0
90226,-111.111111111111,4,2,1,70,0,0
90893,-111.111111111111,4,2,1,75,0,0
91726,-111.111111111111,4,2,1,65,0,0
93893,-111.111111111111,4,2,3,65,0,0
94059,-111.111111111111,4,2,1,65,0,0
96393,-111.111111111111,4,2,1,60,0,0
96559,-111.111111111111,4,2,1,65,0,0
97893,-111.111111111111,4,2,1,60,0,0
98226,-111.111111111111,4,2,1,65,0,0
98559,-111.111111111111,4,2,1,70,0,0
98893,-111.111111111111,4,2,1,75,0,0
99226,-100,4,2,4,75,0,0
99559,-100,4,2,1,70,0,0
99893,-100,4,2,1,65,0,0
100226,-100,4,2,1,60,0,0
100559,-100,4,2,1,55,0,0
100893,-100,4,2,1,50,0,0
101226,-100,4,2,1,40,0,0
101559,-100,4,2,1,30,0,0
101893,-100,4,2,1,20,0,0
102226,-100,4,2,1,15,0,0
102559,-100,4,2,1,10,0,0
102726,-100,4,2,1,5,0,0

[Colours]
Combo1 : 201,184,199
Combo2 : 255,128,128
Combo3 : 238,211,196
Combo4 : 169,223,235

[HitObjects]
128,24,560,6,0,P|66:40|3:52,1,128,2|0,0:0|0:0,0:0:0:0:
29,140,1062,2,0,P|90:123|153:111,1,128,2|0,0:0|0:0,0:0:0:0:
216,46,1565,1,2,0:0:0:0:
291,98,1733,2,0,L|270:245,2,128,2|0|2,0:0|0:0|0:0,0:0:0:0:
373,141,2565,2,0,L|362:214,2,64,0|0|2,0:0|0:0|0:0,0:0:0:0:
371,49,3065,5,0,0:0:0:0:
371,49,3232,2,0,P|427:75|498:38,1,128,2|0,0:0|0:0,0:0:0:0:
511,137,3732,2,0,P|460:172|457:252,1,128,2|0,0:0|0:0,0:0:0:0:
384,302,4232,1,2,0:0:0:0:
384,302,4398,2,0,L|511:329,2,128,2|0|2,0:0|0:0|0:0,0:0:0:0:
309,275,5232,2,0,P|300:313|292:355,1,64
209,316,5565,2,0,P|218:278|226:236,1,64,2|0,0:0|0:0,0:0:0:0:
285,195,5898,6,0,P|233:169|159:202,1,128,2|0,0:0|0:0,0:0:0:0:
147,106,6398,2,0,P|98:138|90:218,1,128,2|0,0:0|0:0,0:0:0:0:
53,282,6898,1,2,0:0:0:0:
53,282,7065,2,0,P|5:242|0:180,2,128,2|0|2,0:0|0:0|0:0,0:0:0:0:
138,271,7898,2,0,L|149:341,1,64,0|2,0:0|0:0,0:0:0:0:
241,323,8232,2,0,L|230:253,1,64,2|2,0:0|0:0,0:0:0:0:
226,133,8565,6,0,P|194:140|159:146,1,64,2|2,0:0|0:0,0:0:0:0:
228,152,9065,2,0,P|196:159|161:165,1,64,2|2,0:0|0:0,0:0:0:0:
230,171,9565,2,0,P|198:178|163:184,1,64,2|2,0:0|0:0,0:0:0:0:
232,190,10063,2,0,P|200:197|165:203,1,64,2|2,0:0|0:0,0:0:0:0:
39,163,10560,1,2,0:0:0:0:
169,202,10893,6,0,P|177:228|185:255,1,32,2|0,0:0|0:0,0:0:0:0:
187,316,11059,2,0,P|161:324|134:332,1,32,2|0,0:0|0:0,0:0:0:0:
69,319,11226,6,0,P|61:263|32:137,1,160,4|10,3:2|0:0,0:0:0:0:
36,61,11726,5,2,0:0:0:0:
36,61,11893,1,2,3:2:0:0:
176,95,12059,1,2,3:2:0:0:
125,15,12226,1,8,0:0:0:0:
158,189,12393,6,0,P|214:186|268:90,1,160,4|0,3:2|3:0,0:0:0:0:
176,95,12893,6,0,L|98:113,1,80,8|0,0:0|0:0,0:0:0:0:
327,31,13226,2,0,L|423:10,1,80,2|0,3:2|3:0,0:0:0:0:
239,32,13559,1,10,0:0:0:0:
239,32,13726,1,0,3:0:0:0:
365,184,13893,6,0,P|437:185|483:100,1,160,6|10,3:2|0:0,0:0:0:0:
327,31,14393,5,2,0:0:0:0:
250,190,14559,1,2,3:2:0:0:
401,110,14726,1,2,3:2:0:0:
215,101,14893,1,8,0:0:0:0:
342,272,15059,6,0,L|310:99,1,160,4|0,3:2|3:0,0:0:0:0:
416,209,15559,1,8,0:0:0:0:
258,301,15726,6,0,L|179:286,1,80,4|0,3:2|0:0,0:0:0:0:
4,130,16059,2,0,L|82:144,1,80,4|0,3:2|0:0,0:0:0:0:
114,342,16393,6,0,P|94:278|162:204,1,160,6|2,3:2|3:2,0:0:0:0:
302,167,16893,1,10,0:0:0:0:
259,300,17059,2,0,P|246:255|234:207,1,80,6|0,3:2|0:0,0:0:0:0:
245,79,17393,5,2,3:2:0:0:
147,209,17559,1,10,0:0:0:0:
257,73,17726,2,0,P|295:63|334:54,1,80,6|0,3:2|0:0,0:0:0:0:
174,34,18059,5,2,3:2:0:0:
301,166,18225,1,10,0:0:0:0:
119,128,18392,2,0,P|73:138|37:148,1,80,6|0,3:2|0:0,0:0:0:0:
219,147,18726,5,2,3:2:0:0:
68,231,18893,1,10,0:0:0:0:
88,47,19059,1,2,3:2:0:0:
173,214,19226,6,0,P|229:228|302:165,2,160,4|10|0,3:2|0:0|3:0,0:0:0:0:
208,66,20059,2,0,L|222:145,1,80,0|8,3:0|0:0,0:0:0:0:
152,6,20393,1,2,3:2:0:0:
303,82,20559,6,0,L|382:68,1,80,0|0,0:0|3:0,0:0:0:0:
393,70,20809,1,0,3:0:0:0:
404,74,20893,1,12,0:0:0:0:
362,259,21060,1,0,3:0:0:0:
510,137,21225,1,2,0:0:0:0:
301,166,21392,1,0,3:0:0:0:
474,277,21559,5,8,0:0:0:0:
474,277,21643,1,8,0:0:0:0:
474,277,21726,2,0,L|463:219,1,40,8|8,0:0|0:0,0:0:0:0:
420,167,21893,1,4,3:2:0:0:
356,276,22226,6,0,P|303:287|226:302,2,111.999996582031,2|2|2,0:0|0:0|0:0,0:0:0:0:
356,276,23226,2,0,L|369:336,2,55.9999982910157,2|0|2,0:0|0:0|0:0,0:0:0:0:
447,260,23726,2,0,L|460:320,1,55.9999982910157,2|0,0:0|0:0,0:0:0:0:
392,198,24059,2,0,P|429:179|504:200,1,111.999996582031,2|0,0:0|3:0,0:0:0:0:
512,102,24559,6,0,P|477:79|457:4,1,111.999996582031,2|2,3:2|0:0,0:0:0:0:
379,70,25059,1,0,0:0:0:0:
379,70,25226,2,0,P|366:101|350:117,1,55.9999982910157,2|0,0:0|0:0,0:0:0:0:
392,198,25559,2,0,P|358:202|335:197,1,55.9999982910157,2|0,0:0|0:0,0:0:0:0:
260,225,25893,2,0,P|269:251|287:273,2,55.9999982910157,2|0|2,0:0|0:0|0:0,0:0:0:0:
274,144,26393,1,2,0:0:0:0:
274,144,26726,2,0,P|265:87|254:20,1,111.999996582031,2|0,0:0|3:0,0:0:0:0:
162,35,27226,6,0,P|171:90|179:145,1,111.999996582031,2|2,3:2|0:0,0:0:0:0:
173,240,27726,1,2,0:0:0:0:
173,240,27893,2,0,B|124:243|81:253|81:253|18:192|64:113,1,223.999993164063,2|0,0:0|0:0,0:0:0:0:
54,134,29226,2,0,P|27:126|0:119,1,55.9999982910157,2|0,0:0|0:0,0:0:0:0:
23,26,29559,2,0,P|50:33|77:40,1,55.9999982910157,2|0,0:0|3:0,0:0:0:0:
143,128,29893,6,0,P|194:145|243:123,1,111.999996582031,2|0,3:2|0:0,0:0:0:0:
294,50,30393,1,2,0:0:0:0:
294,50,30559,2,0,P|345:32|394:54,1,111.999996582031,2|0,0:0|0:0,0:0:0:0:
348,169,31059,6,0,P|344:141|340:113,1,55.9999982910157,2|0,0:0|0:0,0:0:0:0:
418,224,31393,2,0,P|441:207|462:189,1,55.9999982910157,2|0,0:0|0:0,0:0:0:0:
266,203,31726,2,0,P|241:192|140:171,1,111.999996582031,2|2,0:0|0:0,0:0:0:0:
73,159,32226,1,2,0:0:0:0:
127,92,32393,1,0,3:2:0:0:
103,235,32559,6,0,P|54:240|-4:176,1,128,6|0,3:2|0:0,0:0:0:0:
158,172,33059,1,0,0:0:0:0:
228,223,33226,2,0,P|218:277|204:367,1,128,10|2,0:0|0:0,0:0:0:0:
304,365,33726,6,0,P|313:301|325:238,1,128,10|0,0:0|0:0,0:0:0:0:
320,77,34226,1,2,0:0:0:0:
372,140,34393,2,0,P|325:158|253:119,2,128,2|2|0,0:0|0:0|3:0,0:0:0:0:
381,137,35143,1,0,3:0:0:0:
390,137,35226,6,0,L|504:163,1,96,0|0,3:0|0:0,0:0:0:0:
492,160,35559,2,0,P|483:201|478:228,1,64,2|0,0:0|0:0,0:0:0:0:
472,321,35893,2,0,P|411:306|338:290,1,128,10|0,0:0|0:0,0:0:0:0:
262,247,36393,1,10,0:0:0:0:
262,247,36559,6,0,L|251:310,2,64,2|0|2,0:0|0:0|0:0,0:0:0:0:
101,219,37059,2,0,L|90:282,1,64,2|8,0:0|0:0,0:0:0:0:
177,264,37393,2,0,L|199:137,1,128,2|0,0:0|3:0,0:0:0:0:
200,128,37809,1,0,3:0:0:0:
201,118,37893,6,0,P|277:130|408:152,1,192,2|2,3:2|0:0,0:0:0:0:
375,63,38559,2,0,P|311:52|248:42,1,128,8|0,0:0|0:0,0:0:0:0:
145,62,39059,1,8,0:0:0:0:
145,62,39893,2,0,P|138:27|130:-10,1,64,10|0,0:0|0:0,0:0:0:0:
39,24,40226,2,0,P|46:59|54:96,1,64,2|0,0:0|3:0,0:0:0:0:
93,166,40559,6,0,L|220:151,1,128,2|2,3:2|0:0,0:0:0:0:
239,247,41059,1,0,0:0:0:0:
239,247,41226,2,0,L|101:263,1,128,2|2,0:0|0:0,0:0:0:0:
241,75,41726,5,6,3:2:0:0:
111,261,42059,1,6,3:2:0:0:
297,384,42393,1,6,3:2:0:0:
408,205,42726,5,6,3:2:0:0:
347,140,42893,1,8,0:0:0:0:
439,123,43059,1,8,3:0:0:0:
361,274,43226,6,0,P|320:224|360:132,1,160,4|8,3:2|0:0,0:0:0:0:
439,123,43726,1,2,0:0:0:0:
408,205,43893,2,0,P|353:216|249:239,1,160,2|8,0:0|0:0,0:0:0:0:
87,282,44393,1,0,3:0:0:0:
183,331,44559,6,0,P|170:255|147:159,1,160,2|8,0:0|0:0,0:0:0:0:
128,14,45059,1,2,0:0:0:0:
94,101,45226,2,0,L|0:118,1,80,2|0,3:2|3:0,0:0:0:0:
186,84,45559,2,0,L|280:67,1,80,10|0,0:0|3:0,0:0:0:0:
439,75,45893,6,0,P|416:13|315:31,1,160,0|8,3:0|0:0,0:0:0:0:
305,182,46393,1,2,0:2:0:0:
346,98,46559,1,2,3:2:0:0:
357,259,46726,1,0,3:0:0:0:
397,175,46893,1,8,0:0:0:0:
269,264,47059,6,0,L|105:288,1,160,0|0,3:0|3:0,0:0:0:0:
180,116,47559,2,0,L|259:104,1,80,8|0,0:0|0:0,0:0:0:0:
228,190,47893,5,2,0:0:0:0:
206,18,48059,1,0,3:0:0:0:
206,18,48143,1,0,3:0:0:0:
206,18,48226,1,10,0:0:0:0:
143,193,48393,1,8,0:0:0:0:
143,193,48476,1,8,0:0:0:0:
143,193,48559,6,0,P|100:146|137:47,1,160,6|8,3:2|0:0,0:0:0:0:
228,190,49059,1,2,0:0:0:0:
189,266,49226,2,0,P|112:280|25:297,1,160,2|8,0:0|0:0,0:0:0:0:
143,193,49726,1,0,3:0:0:0:
274,261,49893,6,0,P|350:275|438:292,1,160,2|8,0:0|0:0,0:0:0:0:
498,137,50393,5,2,0:0:0:0:
426,194,50559,1,2,3:2:0:0:
341,161,50726,1,0,3:0:0:0:
397,24,50893,2,0,L|414:114,1,80,10|0,0:0|3:0,0:0:0:0:
360,242,51226,6,0,P|303:234|260:134,1,160,2|8,3:2|0:0,0:0:0:0:
411,102,51726,1,0,0:0:0:0:
311,3,51893,2,0,L|340:160,1,160,2|8,3:2|0:0,0:0:0:0:
174,151,52393,2,0,L|159:72,1,80,0|2,3:0|0:0,0:0:0:0:
225,11,52726,5,0,3:0:0:0:
79,101,52893,2,0,L|0:115,1,80,10|0,0:0|3:0,0:0:0:0:
98,19,53226,5,2,3:2:0:0:
89,181,53393,1,0,3:0:0:0:
14,31,53559,1,10,0:0:0:0:
174,151,53726,1,0,3:0:0:0:
174,151,53809,1,8,0:0:0:0:
174,151,53893,6,0,P|249:138|336:120,1,160,6|8,3:2|0:0,0:0:0:0:
394,24,54393,1,2,0:0:0:0:
394,24,54559,2,0,L|428:196,1,160,2|8,0:0|0:0,0:0:0:0:
369,308,55059,6,0,P|369:264|349:230,1,80,0|0,3:0|0:0,0:0:0:0:
286,290,55393,1,0,3:0:0:0:
286,290,55559,2,0,L|206:300,1,80,8|2,0:0|0:0,0:0:0:0:
424,180,55893,2,0,L|504:191,1,80,2|0,3:2|3:0,0:0:0:0:
352,234,56226,2,0,L|336:155,1,80,10|0,0:0|3:0,0:0:0:0:
217,47,56559,6,0,L|249:211,1,160,0|8,3:0|0:0,0:0:0:0:
308,77,57059,1,2,0:0:0:0:
159,157,57226,2,0,L|80:172,1,80,2|0,3:2|3:0,0:0:0:0:
98,83,57559,1,10,0:0:0:0:
83,259,57726,6,0,P|40:248|10:137,1,160,0|0,3:2|3:0,0:0:0:0:
81,4,58226,2,0,P|88:43|97:82,1,80,10|0,0:0|0:0,0:0:0:0:
175,235,58559,2,0,P|167:196|159:157,1,80,2|0,0:0|3:0,0:0:0:0:
159,144,58809,1,0,3:0:0:0:
162,132,58893,2,0,L|271:145,1,80,10|0,0:0|0:0,0:0:0:0:
453,101,59226,6,0,P|387:71|310:131,1,160,4|8,3:2|0:0,0:0:0:0:
484,200,59726,1,2,0:0:0:0:
413,309,59893,2,0,L|388:135,1,160,2|8,3:2|0:0,0:0:0:0:
241,141,60393,2,0,L|252:220,1,80,0|2,3:0|0:0,0:0:0:0:
196,339,60726,6,0,P|236:333|290:323,1,80,0|10,3:0|0:0,0:0:0:0:
94,288,61059,2,0,P|64:295|10:305,1,80,0|2,0:0|3:2,0:0:0:0:
167,89,61393,5,0,3:0:0:0:
50,202,61559,1,10,0:0:0:0:
62,45,61726,1,8,0:0:0:0:
173,237,61893,6,0,P|212:229|251:220,1,80,4|0,3:2|0:0,0:0:0:0:
421,98,62226,5,8,0:0:0:0:
392,268,62393,1,0,3:0:0:0:
364,39,62559,5,8,0:0:0:0:
335,210,62726,1,0,3:0:0:0:
511,51,62893,6,0,P|503:90|496:129,1,80,8|0,0:0|3:0,0:0:0:0:
335,209,63226,2,0,P|342:170|349:131,1,80,8|0,0:0|0:0,0:0:0:0:
241,6,63559,5,8,0:0:0:0:
150,164,63726,1,2,3:2:0:0:
289,83,63893,5,8,0:0:0:0:
104,83,64059,1,2,3:2:0:0:
244,164,64226,5,8,0:0:0:0:
150,2,64393,1,2,3:2:0:0:
265,243,64559,5,14,0:0:0:0:
197,82,64726,1,8,0:2:0:0:
197,82,65059,5,14,3:2:0:0:
358,14,65226,1,8,0:0:0:0:
358,14,65559,5,14,3:2:0:0:
426,175,65726,1,8,0:0:0:0:
426,175,66059,5,14,3:2:0:0:
265,243,66226,1,8,0:0:0:0:
197,82,66559,1,10,0:0:0:0:
344,35,66893,6,0,P|352:54|351:81,1,32
424,102,67059,2,0,P|410:119|387:132,1,32
327,139,67226,6,0,P|234:161|123:189,1,191.999994140625,6|8,3:2|0:0,0:0:0:0:
43,167,67726,1,2,0:0:0:0:
43,167,67893,2,0,L|66:280,1,88.000002685547,2|0,3:2|3:0,0:0:0:0:
252,254,68226,2,0,L|229:141,1,88.000002685547,8|0,0:0|3:0,0:0:0:0:
235,14,68559,6,0,P|199:42|149:40,1,88.000002685547,2|0,0:0|3:0,0:0:0:0:
351,91,68893,2,0,P|386:119|436:117,1,88.000002685547,10|0,0:0|0:0,0:0:0:0:
235,168,69226,2,0,P|199:196|149:194,1,88.000002685547,2|0,3:2|3:0,0:0:0:0:
351,245,69559,2,0,P|386:273|436:271,1,88.000002685547,10|0,0:0|3:0,0:0:0:0:
351,91,69893,6,0,P|266:104|159:123,1,176.000005371094,2|10,3:2|0:0,0:0:0:0:
15,114,70393,1,2,0:0:0:0:
75,54,70559,2,0,P|96:91|94:134,1,88.000002685547,2|0,3:2|3:0,0:0:0:0:
88,228,70893,1,8,0:0:0:0:
15,123,71059,1,2,3:2:0:0:
91,242,71226,6,0,L|197:257,1,88.000002685547,2|0,0:0|3:0,0:0:0:0:
360,249,71559,1,10,0:0:0:0:
262,217,71726,2,0,P|269:260|276:303,1,88.000002685547,2|0,0:0|3:0,0:0:0:0:
458,288,72059,2,0,P|450:244|443:201,1,88.000002685547,2|8,3:2|0:0,0:0:0:0:
285,91,72393,1,2,3:2:0:0:
370,329,72559,6,0,L|345:145,1,176.000005371094,4|8,3:2|0:0,0:0:0:0:
348,30,73059,1,2,0:0:0:0:
409,93,73226,2,0,L|501:80,1,88.000002685547,2|0,3:2|3:0,0:0:0:0:
285,91,73559,2,0,L|193:103,1,88.000002685547,8|2,0:0|3:2,0:0:0:0:
34,34,73893,6,0,P|48:86|58:138,1,88.000002685547,2|0,0:0|3:0,0:0:0:0:
219,187,74226,2,0,P|204:134|194:82,1,88.000002685547,8|0,0:0|0:0,0:0:0:0:
201,19,74559,2,0,P|148:33|96:43,1,88.000002685547,2|0,3:2|3:0,0:0:0:0:
48,208,74893,2,0,P|100:193|152:183,1,88.000002685547,10|0,0:0|3:0,0:0:0:0:
306,198,75226,6,0,P|249:267|170:262,1,176.000005371094,2|8,3:2|0:0,0:0:0:0:
196,102,75726,2,0,P|207:144|217:187,1,88.000002685547,2|0,0:0|3:0,0:0:0:0:
376,277,76059,2,0,P|385:234|397:191,1,88.000002685547,2|10,3:2|0:0,0:0:0:0:
375,30,76393,5,2,3:2:0:0:
306,198,76559,1,0,0:0:0:0:
472,106,76726,1,0,3:0:0:0:
472,106,76809,1,0,3:0:0:0:
472,106,76893,1,8,0:0:0:0:
274,41,77059,5,4,3:2:0:0:
396,191,77393,1,4,3:2:0:0:
357,114,77559,5,8,0:0:0:0:
357,114,77643,1,8,0:0:0:0:
357,114,77726,1,8,0:0:0:0:
357,114,77809,1,8,0:0:0:0:
357,114,77893,6,0,P|263:129|147:149,1,191.999994140625,4|8,3:2|0:0,0:0:0:0:
13,168,78393,1,2,0:0:0:0:
73,109,78559,2,0,P|92:147|93:191,1,88.000002685547,2|0,3:2|3:0,0:0:0:0:
20,333,78893,2,0,P|12:289|25:248,1,88.000002685547,8|0,0:0|3:0,0:0:0:0:
179,278,79226,6,0,L|86:296,1,88.000002685547,2|0,0:0|3:0,0:0:0:0:
267,338,79559,2,0,L|360:320,1,88.000002685547,10|0,0:0|0:0,0:0:0:0:
277,157,79893,2,0,L|260:243,1,88.000002685547,2|0,3:2|3:0,0:0:0:0:
463,315,80226,2,0,L|479:228,1,88.000002685547,10|0,0:0|3:0,0:0:0:0:
387,148,80559,6,0,L|351:331,1,176.000005371094,2|10,3:2|0:0,0:0:0:0:
277,157,81059,5,2,0:0:0:0:
426,54,81226,2,0,L|512:70,1,88.000002685547,2|0,3:2|3:0,0:0:0:0:
333,65,81559,1,8,0:0:0:0:
472,150,81726,1,2,3:2:0:0:
319,69,81893,6,0,L|232:85,1,88.000002685547,2|0,0:0|3:0,0:0:0:0:
37,75,82226,1,10,0:0:0:0:
105,23,82393,2,0,P|119:64|114:107,1,88.000002685547,2|0,0:0|3:0,0:0:0:0:
48,245,82726,2,0,P|36:202|43:159,1,88.000002685547,2|8,3:2|0:0,0:0:0:0:
105,23,83059,1,2,3:2:0:0:
292,177,83226,6,0,L|117:198,1,176.000005371094,4|8,3:2|0:0,0:0:0:0:
219,78,83726,1,2,0:0:0:0:
273,263,83893,2,0,P|331:258|373:152,1,176.000005371094,2|8,3:2|0:0,0:0:0:0:
219,65,84393,1,2,3:2:0:0:
321,3,84559,6,0,L|288:200,1,176.000005371094,0|8,0:0|0:0,0:0:0:0:
262,336,85059,1,2,0:0:0:0:
111,275,85226,2,0,P|122:207|228:219,1,176.000005371094,2|8,3:2|0:0,0:0:0:0:
197,286,85726,1,0,3:0:0:0:
41,349,85893,6,0,P|29:277|5:160,1,176.000005371094,2|8,3:2|0:0,0:0:0:0:
94,16,86393,1,2,0:0:0:0:
174,115,86559,2,0,L|0:90,1,176.000005371094,2|8,3:2|0:0,0:0:0:0:
107,16,87059,5,2,3:2:0:0:
150,195,87226,1,2,0:0:0:0:
249,37,87393,1,0,3:0:0:0:
249,37,87476,1,0,3:0:0:0:
249,37,87559,5,8,0:0:0:0:
288,286,87726,1,4,3:2:0:0:
460,113,88059,1,4,3:2:0:0:
389,231,88226,5,8,0:0:0:0:
389,231,88309,1,8,0:0:0:0:
389,231,88393,1,10,0:0:0:0:
389,231,88476,1,8,0:0:0:0:
389,231,88559,6,0,P|365:126|340:21,1,215.999993408203,4|0,3:2|3:0,0:0:0:0:
249,37,89226,2,0,P|265:107|281:177,1,143.999995605469,8|0,0:0|0:0,0:0:0:0:
302,266,89726,1,8,0:0:0:0:
235,328,89893,6,0,L|149:314,1,71.9999978027344,2|2,0:0|0:0,0:0:0:0:
33,362,90226,2,0,L|78:306,1,71.9999978027344,2|2,3:2|3:2,0:0:0:0:
105,169,90559,2,0,L|130:236,1,71.9999978027344,10|2,0:0|3:2,0:0:0:0:
65,87,90893,5,2,0:0:0:0:
18,159,91059,1,8,0:0:0:0:
0,29,91226,6,0,P|91:46|225:71,1,215.999993408203,2|0,3:2|3:0,0:0:0:0:
284,160,91893,2,0,L|311:19,1,143.999995605469,8|0,0:0|0:0,0:0:0:0:
417,42,92393,1,8,0:0:0:0:
417,42,92559,6,0,L|391:184,1,143.999995605469,2|2,0:0|3:2,0:0:0:0:
430,273,93059,1,2,3:2:0:0:
430,273,93226,1,8,0:0:0:0:
366,336,93393,2,0,P|295:321|224:307,1,143.999995605469,2|8,3:2|0:0,0:0:0:0:
25,294,93893,6,0,P|78:316|103:190,1,215.999993408203,4|0,3:2|3:0,0:0:0:0:
21,138,94559,2,0,L|35:209,1,71.9999978027344,8|0,0:0|3:0,0:0:0:0:
118,200,94893,1,2,0:0:0:0:
118,200,95059,6,0,L|104:129,1,71.9999978027344,10|0,0:0|0:0,0:0:0:0:
215,218,95393,2,0,L|201:147,1,71.9999978027344,8|0,0:0|3:2,0:0:0:0:
102,39,95726,2,0,P|173:52|243:66,1,143.999995605469,2|0,3:2|0:0,0:0:0:0:
363,162,96393,2,0,L|369:125,1,35.9999989013672,10|10,3:2|0:0,0:0:0:0:
345,167,96559,6,0,L|373:23,1,143.999995605469,2|2,3:2|0:0,0:0:0:0:
475,44,97059,2,0,L|446:187,1,143.999995605469,2|0,3:2|0:0,0:0:0:0:
418,269,97559,2,0,L|332:250,1,71.9999978027344,2|8,3:2|0:0,0:0:0:0:
184,205,97892,5,2,0:0:0:0:
278,182,98059,1,8,0:0:0:0:
347,253,98226,1,2,3:2:0:0:
238,348,98393,2,0,L|253:263,1,72.2500013780594,10|10,0:0|0:0,0:0:0:0:
285,76,98726,5,10,0:0:0:0:
181,214,98893,1,8,0:0:0:0:
285,65,99059,1,10,0:0:0:0:
350,241,99226,1,4,3:2:0:0:
256,192,99393,12,0,102726,0:0:0:0:
