osu file format v14

[General]
AudioFilename: audio.ogg
AudioLeadIn: 0
PreviewTime: 65976
Countdown: 0
SampleSet: Soft
StackLeniency: 0.3
Mode: 0
LetterboxInBreaks: 0
WidescreenStoryboard: 1

[Editor]
Bookmarks: 565,11231,21898,32564,43231,61898,67231,77898,88564,99231,102731
DistanceSpacing: 0.3
BeatDivisor: 4
GridSize: 32
TimelineZoom: 1.8

[Metadata]
Title:Miracle infinity
TitleUnicode:ミラクルinfinity
Artist:solfa feat. Chata
ArtistUnicode:solfa feat. 茶太
Creator:tomatas95
Version:Hard
Source:ゆめこい~夢見る魔法少女と恋の呪文~
Tags:eroge parasol Yumekoi ~Yume Miru Mahou Shoujo to Koi no Jumon~ iyuna galgame sister imouto video game visual novel vn opening op jpop j-pop japanese pop fa featured artist
BeatmapID:4249803
BeatmapSetID:1989275

[Difficulty]
HPDrainRate:3.5
CircleSize:3.3
OverallDifficulty:6
ApproachRate:8
SliderMultiplier:1.3
SliderTickRate:1

[Events]
//Background and Video events
Video,0,"ImoutoEroge.mp4"
0,0,"SakuyaBride.jpg",0,0
//Break Periods
//Storyboard Layer 0 (Background)
//Storyboard Layer 1 (Fail)
//Storyboard Layer 2 (Pass)
//Storyboard Layer 3 (Foreground)
//Storyboard Layer 4 (Overlay)
//Storyboard Sound Samples

[TimingPoints]
560,335.195530726257,4,2,1,40,1,0
560,-125,4,2,1,40,0,0
1733,333.333333333333,4,2,1,40,1,0
1733,-125,4,2,1,40,0,0
1899,333.333333333333,4,2,1,40,1,0
2565,-125,4,2,1,40,0,0
8565,-125,4,2,1,45,0,0
9898,331.491712707182,4,2,1,40,1,0
10063,-125,4,2,1,40,0,0
10893,-125,4,2,1,50,0,0
10976,-125,4,2,1,55,0,0
11059,-125,4,2,1,60,0,0
11143,-125,4,2,1,65,0,0
11226,333.333333333333,4,2,1,40,1,0
11226,-100,4,2,1,70,0,0
12393,-100,4,2,3,70,0,0
12559,-100,4,2,1,70,0,0
15059,-100,4,2,3,70,0,0
15225,-100,4,2,1,70,0,0
15726,-100,4,2,2,70,0,0
15976,-100,4,2,2,5,0,0
16059,-100,4,2,2,70,0,0
16309,-100,4,2,2,5,0,0
16393,-100,4,2,2,70,0,0
16726,-100,4,2,1,70,0,0
17059,-100,4,2,2,70,0,0
17226,-100,4,2,1,70,0,0
17726,-100,4,2,2,70,0,0
17893,-100,4,2,1,70,0,0
18393,-100,4,2,2,70,0,0
18560,-100,4,2,1,70,0,0
19226,-100,4,2,3,70,0,0
19559,-100,4,2,1,70,0,0
20559,-100,4,2,1,75,0,0
20893,-100,4,2,2,70,0,0
21059,-100,4,2,1,70,0,0
21393,-100,4,2,1,65,0,0
21559,-100,4,2,1,70,0,0
21726,-100,4,2,1,75,0,0
21893,-125,4,2,3,60,0,0
22226,-125,4,2,2,60,0,0
24226,-125,4,2,1,60,0,0
24393,-125,4,2,2,60,0,0
24559,-125,4,2,2,65,0,0
24893,-125,4,2,2,60,0,0
26893,-125,4,2,1,60,0,0
27060,-125,4,2,2,60,0,0
27226,-125,4,2,2,65,0,0
27559,-125,4,2,1,60,0,0
27726,-125,4,2,2,60,0,0
28226,-125,4,2,1,60,0,0
29226,-125,4,2,2,60,0,0
30226,-125,4,2,1,60,0,0
30393,-125,4,2,2,60,0,0
32393,-125,4,2,1,60,0,0
32559,-111.111111111111,4,2,2,65,0,0
35226,-111.111111111111,4,2,2,70,0,0
35559,-111.111111111111,4,2,2,65,0,0
37726,-111.111111111111,4,2,1,65,0,0
37893,-111.111111111111,4,2,2,70,0,0
38226,-111.111111111111,4,2,2,65,0,0
39559,-111.111111111111,4,2,1,60,0,0
39893,-111.111111111111,4,2,2,65,0,0
40393,-111.111111111111,4,2,1,65,0,0
40560,-111.111111111111,4,2,3,65,0,0
41726,-111.111111111111,4,2,2,70,0,0
41976,-111.111111111111,4,2,2,5,0,0
42059,-111.111111111111,4,2,2,70,0,0
42309,-111.111111111111,4,2,2,5,0,0
42393,-111.111111111111,4,2,2,70,0,0
42643,-111.111111111111,4,2,2,5,0,0
42726,-111.111111111111,4,2,2,70,0,0
42893,-111.111111111111,4,2,1,60,0,0
42976,-111.111111111111,4,2,2,60,0,0
43059,-111.111111111111,4,2,3,60,0,0
43226,-100,4,2,1,70,0,0
48059,-100,4,2,1,65,0,0
48393,-100,4,2,1,70,0,0
48559,-100,4,2,2,70,0,0
48893,-100,4,2,1,70,0,0
52559,-100,4,2,3,70,0,0
53726,-100,4,2,1,70,0,0
53893,-100,4,2,2,70,0,0
54226,-100,4,2,1,65,0,0
56559,-100,4,2,1,70,0,0
56892,-100,4,2,1,65,0,0
59143,-100,4,2,1,5,0,0
59226,-100,4,2,3,70,0,0
59559,-100,4,2,1,70,0,0
60559,-100,4,2,3,70,0,0
61893,-100,4,2,3,75,0,0
62226,-100,4,2,2,75,0,0
66898,-100,4,2,1,60,0,0
66976,-100,4,2,1,65,0,0
67059,-100,4,2,1,70,0,0
67143,-100,4,2,1,75,0,0
67225,-90.9090909090909,4,2,3,80,0,1
67393,-90.9090909090909,4,2,1,75,0,1
72559,-90.9090909090909,4,2,3,75,0,1
72726,-90.9090909090909,4,2,1,75,0,1
76893,-90.9090909090909,4,2,2,75,0,1
77309,-90.9090909090909,4,2,2,5,0,1
77393,-90.9090909090909,4,2,2,75,0,1
77476,-90.9090909090909,4,2,2,5,0,1
77559,-100,4,2,1,60,0,0
77643,-100,4,2,1,65,0,0
77726,-100,4,2,1,70,0,0
77809,-100,4,2,1,75,0,0
77892,-90.9090909090909,4,2,3,80,0,1
78059,-90.9090909090909,4,2,1,75,0,1
83226,-90.9090909090909,4,2,3,75,0,1
83393,-90.9090909090909,4,2,1,75,0,1
87393,-90.9090909090909,4,2,1,70,0,1
87559,-90.9090909090909,4,2,1,75,0,1
87726,-90.9090909090909,4,2,2,75,0,1
87976,-90.9090909090909,4,2,2,5,0,1
88060,-90.9090909090909,4,2,2,75,0,1
88143,-90.9090909090909,4,2,2,5,0,1
88226,-90.9090909090909,4,2,1,60,0,1
88309,-90.9090909090909,4,2,1,65,0,1
88392,-90.9090909090909,4,2,1,70,0,1
88475,-90.9090909090909,4,2,1,75,0,1
88559,-100,4,2,3,70,0,0
88726,-100,4,2,1,65,0,0
90226,-100,4,2,1,70,0,0
90893,-100,4,2,1,75,0,0
91726,-100,4,2,1,65,0,0
93893,-100,4,2,3,65,0,0
94059,-100,4,2,1,65,0,0
96393,-100,4,2,1,60,0,0
96559,-100,4,2,1,65,0,0
97893,-100,4,2,1,60,0,0
98226,-100,4,2,1,65,0,0
98559,-100,4,2,1,70,0,0
98893,-100,4,2,1,75,0,0
99226,-100,4,2,4,75,0,0
99559,-100,4,2,1,70,0,0
99893,-100,4,2,1,65,0,0
100226,-100,4,2,1,60,0,0
100559,-100,4,2,1,55,0,0
100893,-100,4,2,1,50,0,0
101226,-100,4,2,1,40,0,0
101559,-100,4,2,1,30,0,0
101893,-100,4,2,1,20,0,0
102226,-100,4,2,1,15,0,0
102559,-100,4,2,1,10,0,0
102726,-100,4,2,1,5,0,0

[Colours]
Combo1 : 201,184,199
Combo2 : 255,128,128
Combo3 : 238,211,196
Combo4 : 169,223,235

[HitObjects]
170,45,560,6,0,P|117:35|65:27,1,104,2|0,0:0|0:0,0:0:0:0:
0,83,1062,2,0,P|17:132|36:181,1,104,2|0,0:0|0:0,0:0:0:0:
118,209,1565,1,2,0:0:0:0:
118,209,1733,2,0,P|151:167|185:127,2,104,2|0|2,0:0|0:0|0:0,0:0:0:0:
114,296,2565,2,0,P|87:289|61:294,2,52,0|0|2,0:0|0:0|0:0,0:0:0:0:
259,360,3232,6,0,P|247:312|287:255,1,104,2|0,0:0|0:0,0:0:0:0:
198,220,3732,2,0,P|233:185|302:191,1,104,2|0,0:0|0:0,0:0:0:0:
363,154,4232,1,2,0:0:0:0:
363,154,4398,2,0,P|336:111|288:97,2,104,2|0|2,0:0|0:0|0:0,0:0:0:0:
349,236,5232,2,0,L|420:254,1,52
451,320,5565,2,0,L|501:307,1,52,2|0,0:0|0:0,0:0:0:0:
482,218,5898,6,0,P|470:167|504:114,1,104,2|0,0:0|0:0,0:0:0:0:
474,38,6398,2,0,P|430:45|350:59,1,104,2|0,0:0|0:0,0:0:0:0:
288,30,6898,1,2,0:0:0:0:
288,30,7065,2,0,P|236:21|185:11,2,104,2|0|2,0:0|0:0|0:0,0:0:0:0:
307,117,7898,2,0,P|301:141|296:167,1,52,0|2,0:0|0:0,0:0:0:0:
227,220,8232,2,0,P|232:244|237:270,1,52,2|2,0:0|0:0,0:0:0:0:
290,345,8565,6,0,L|239:355,1,52,2|2,0:0|0:0,0:0:0:0:
392,273,9065,2,0,L|442:283,1,52,2|2,0:0|0:0,0:0:0:0:
277,209,9565,2,0,L|226:219,1,52,2|2,0:0|0:0,0:0:0:0:
392,145,10063,2,0,L|442:155,1,52,2|2,0:0|0:0,0:0:0:0:
277,209,10560,1,2,0:0:0:0:
511,59,11226,6,0,P|450:49|382:38,1,130,4|10,3:2|0:0,0:0:0:0:
289,11,11726,1,2,0:0:0:0:
219,77,11893,2,0,P|188:72|154:66,2,65,2|2|8,3:2|3:2|0:0,0:0:0:0:
312,105,12393,6,0,P|301:156|283:245,1,130,4|0,3:2|3:0,0:0:0:0:
300,322,12893,2,0,P|267:323|238:313,1,65,8|0,0:0|0:0,0:0:0:0:
163,368,13226,2,0,P|145:339|139:309,1,65,2|0,3:2|3:0,0:0:0:0:
53,275,13559,2,0,P|68:245|91:225,1,65,10|0,0:0|3:0,0:0:0:0:
192,226,13893,6,0,P|179:162|165:98,1,130,6|10,3:2|0:0,0:0:0:0:
141,2,14393,1,2,0:0:0:0:
69,70,14559,2,0,P|37:76|5:83,2,65,2|2|8,3:2|3:2|0:0,0:0:0:0:
165,98,15059,6,0,P|232:83|300:69,1,130,4|0,3:2|3:0,0:0:0:0:
387,90,15559,1,8,0:0:0:0:
360,1,15726,1,4,3:2:0:0:
324,156,16059,1,4,3:2:0:0:
477,110,16393,6,0,P|483:168|496:264,1,130,6|2,3:2|3:2,0:0:0:0:
489,337,16893,1,10,0:0:0:0:
406,286,17059,2,0,L|268:308,1,130,6|2,3:2|3:2,0:0:0:0:
195,352,17559,1,10,0:0:0:0:
114,303,17726,6,0,P|104:240|75:154,1,130,6|2,3:2|3:2,0:0:0:0:
80,85,18226,1,10,0:0:0:0:
168,102,18393,2,0,P|219:135|301:120,1,130,6|2,3:2|3:2,0:0:0:0:
344,55,18893,1,10,0:0:0:0:
437,69,19059,1,2,3:2:0:0:
472,157,19226,6,0,L|439:309,2,130,4|10|0,3:2|0:0|3:0,0:0:0:0:
378,142,20059,1,0,3:0:0:0:
378,142,20226,2,0,L|357:234,1,65,8|2,0:0|3:2,0:0:0:0:
290,255,20559,6,0,L|310:347,1,65,0|0,0:0|3:0,0:0:0:0:
306,328,20809,1,0,3:0:0:0:
309,337,20893,2,0,L|163:318,1,130,12|2,0:0|0:0,0:0:0:0:
71,287,21393,1,0,3:0:0:0:
71,287,21476,1,0,3:0:0:0:
71,287,21559,2,0,L|75:323,3,32.5,8|8|8|8,0:0|0:0|0:0|0:0,0:0:0:0:
81,355,21893,1,4,3:2:0:0:
107,207,22226,6,0,P|56:199|0:230,2,104,2|2|2,0:0|0:0|0:0,0:0:0:0:
270,158,23226,2,0,L|278:210,2,52,2|0|2,0:0|0:0|0:0,0:0:0:0:
183,137,23726,2,0,L|198:241,2,104,2|2|0,0:0|0:0|3:0,0:0:0:0:
245,68,24559,5,2,3:2:0:0:
103,34,24893,2,0,P|77:40|51:43,1,52,2|0,0:0|0:0,0:0:0:0:
0,114,25226,2,0,P|6:140|9:166,1,52,2|0,0:0|0:0,0:0:0:0:
80,218,25559,2,0,P|106:211|132:208,1,52,2|0,0:0|0:0,0:0:0:0:
183,137,25893,2,0,P|176:111|173:85,2,52,2|0|2,0:0|0:0|0:0,0:0:0:0:
218,216,26393,1,2,0:0:0:0:
261,104,26726,2,0,P|308:96|381:85,1,104,2|0,0:0|3:0,0:0:0:0:
370,3,27226,6,0,P|421:10|472:19,1,104,2|2,3:2|0:0,0:0:0:0:
502,106,27726,1,2,0:0:0:0:
502,106,27893,2,0,B|449:121|444:180|444:180|486:237|456:288,1,208,2|0,0:0|0:0,0:0:0:0:
461,281,29226,2,0,P|486:288|510:295,1,52,2|0,0:0|0:0,0:0:0:0:
483,376,29559,2,0,P|457:368|433:361,1,52,2|0,0:0|3:0,0:0:0:0:
375,294,29893,6,0,P|321:304|267:314,1,104,2|0,3:2|0:0,0:0:0:0:
192,342,30393,1,2,0:0:0:0:
192,342,30559,2,0,P|140:332|89:322,1,104,2|0,0:0|0:0,0:0:0:0:
29,264,31059,2,0,P|7:310|18:360,2,104,2|2|2,0:0|0:0|0:0,0:0:0:0:
62,104,32059,2,0,P|88:109|114:114,2,52,2|2|0,0:0|0:2|3:2,0:0:0:0:
15,179,32559,6,0,P|72:190|129:201,1,116.999996429443,6|0,3:2|0:0,0:0:0:0:
198,261,33059,1,0,0:0:0:0:
198,261,33226,2,0,P|217:210|197:148,1,116.999996429443,10|2,0:0|0:0,0:0:0:0:
287,123,33726,2,0,P|253:80|189:66,1,116.999996429443,10|0,0:0|0:0,0:0:0:0:
114,114,34226,1,2,0:0:0:0:
114,114,34393,2,0,P|42:100|-28:86,2,116.999996429443,2|2|0,0:0|0:0|3:0,0:0:0:0:
194,65,35226,1,0,3:0:0:0:
335,127,35559,6,0,P|330:92|325:69,1,58.4999982147217,2|0,0:0|0:0,0:0:0:0:
410,16,35893,2,0,P|419:73|427:131,1,116.999996429443,10|0,0:0|0:0,0:0:0:0:
512,104,36393,1,10,0:0:0:0:
512,104,36559,2,0,P|507:75|502:46,2,58.4999982147217,2|0|2,0:0|0:0|0:0,0:0:0:0:
493,192,37059,1,2,0:0:0:0:
489,315,37393,2,0,P|429:305|366:291,1,116.999996429443,2|0,0:0|3:0,0:0:0:0:
307,350,37893,6,0,B|257:353|257:353|204:296|248:238,1,175.499994644165,2|2,3:2|0:0,0:0:0:0:
338,211,38559,2,0,B|381:154|328:97|328:97|278:100,1,175.499994644165,8|8,0:0|0:0,0:0:0:0:
278,100,39893,2,0,P|248:93|220:81,1,58.4999982147217,10|0,0:0|0:0,0:0:0:0:
162,19,40226,2,0,P|135:30|106:36,1,58.4999982147217,2|0,0:0|3:0,0:0:0:0:
13,0,40559,6,0,P|25:53|40:128,1,116.999996429443,2|2,3:2|0:0,0:0:0:0:
125,145,41059,1,0,0:0:0:0:
125,145,41226,2,0,P|112:198|98:273,1,116.999996429443,2|2,0:0|0:0,0:0:0:0:
11,293,41726,1,6,3:2:0:0:
37,114,42059,1,6,3:2:0:0:
216,141,42393,1,6,3:2:0:0:
189,319,42726,1,6,3:2:0:0:
189,319,42893,2,0,P|159:326|126:333,1,58.4999982147217,8|8,3:0|3:0,0:0:0:0:
246,245,43226,6,0,P|310:260|381:275,1,130,4|8,3:2|0:0,0:0:0:0:
455,226,43726,1,2,0:0:0:0:
455,226,43893,2,0,P|444:165|483:103,1,130,2|8,0:0|0:0,0:0:0:0:
412,43,44393,1,0,3:0:0:0:
412,43,44559,2,0,P|364:83|291:80,1,130,2|8,0:0|0:0,0:0:0:0:
219,39,45059,1,2,0:0:0:0:
219,39,45226,2,0,L|202:105,1,65,2|0,3:2|3:0,0:0:0:0:
266,171,45559,2,0,L|283:237,1,65,10|0,0:0|3:0,0:0:0:0:
342,302,45893,6,0,P|276:322|212:288,1,130,0|8,3:0|0:0,0:0:0:0:
125,304,46393,1,2,0:2:0:0:
125,304,46559,2,0,L|142:230,2,65,2|0|8,3:2|3:0|0:0,0:0:0:0:
27,330,47059,2,0,L|57:196,1,130,0|0,3:0|3:0,0:0:0:0:
78,119,47559,2,0,P|46:112|14:105,1,65,8|0,0:0|0:0,0:0:0:0:
35,23,47893,2,0,P|66:29|98:36,1,65,2|0,0:0|3:0,0:0:0:0:
107,40,48143,1,0,3:0:0:0:
116,41,48226,2,0,P|147:33|179:27,1,65,10|8,0:0|0:0,0:0:0:0:
278,12,48559,6,0,P|266:66|252:154,1,130,6|8,3:2|0:0,0:0:0:0:
165,156,49059,1,2,0:0:0:0:
165,156,49226,2,0,P|177:210|191:298,1,130,2|8,0:0|0:0,0:0:0:0:
246,358,49726,1,0,3:0:0:0:
282,271,49893,2,0,P|341:281|431:301,1,130,2|8,0:0|0:0,0:0:0:0:
478,352,50393,1,2,0:0:0:0:
478,352,50559,2,0,P|498:300|457:223,1,130,2|10,3:2|0:0,0:0:0:0:
366,65,51226,6,0,L|512:46,1,130,2|8,3:2|0:0,0:0:0:0:
506,140,51726,1,0,0:0:0:0:
506,140,51893,2,0,L|360:159,1,130,2|8,3:2|0:0,0:0:0:0:
290,146,52393,2,0,P|299:182|311:225,1,65,0|2,3:0|0:0,0:0:0:0:
219,219,52726,1,0,3:0:0:0:
219,219,52893,2,0,P|209:182|198:140,1,65,10|0,0:0|3:0,0:0:0:0:
223,75,53226,2,0,P|255:67|285:59,1,65,2|0,3:2|3:0,0:0:0:0:
176,0,53559,2,0,P|144:8|113:15,1,65,10|0,0:0|3:0,0:0:0:0:
20,19,53893,6,0,P|36:68|51:147,1,130,6|8,3:2|0:0,0:0:0:0:
128,224,54393,1,2,0:0:0:0:
128,224,54559,2,0,L|-15:246,1,130,2|8,0:0|0:0,0:0:0:0:
29,327,55059,2,0,L|172:305,1,130,0|0,3:0|3:0,0:0:0:0:
234,268,55559,6,0,P|244:299|244:332,1,65,8|2,0:0|0:0,0:0:0:0:
237,182,55893,2,0,P|268:188|296:205,1,65,2|0,3:2|3:0,0:0:0:0:
162,136,56226,2,0,P|183:111|212:96,1,65,10|0,0:0|3:0,0:0:0:0:
246,0,56559,6,0,P|282:34|364:36,1,130,0|8,3:0|0:0,0:0:0:0:
377,133,57059,1,2,0:0:0:0:
377,133,57226,2,0,P|413:99|495:97,1,130,2|10,3:2|0:0,0:0:0:0:
455,186,57726,2,0,L|428:329,1,130,0|0,3:2|3:0,0:0:0:0:
339,291,58226,2,0,L|351:227,1,65,10|0,0:0|0:0,0:0:0:0:
274,174,58559,2,0,L|286:110,1,65,2|0,0:0|3:0,0:0:0:0:
288,100,58809,1,0,3:0:0:0:
290,90,58893,2,0,P|259:97|216:86,1,65,10|0,0:0|0:0,0:0:0:0:
126,150,59226,6,0,L|157:0,1,130,4|8,3:2|0:0,0:0:0:0:
56,8,59726,1,2,0:0:0:0:
56,8,59893,2,0,L|29:135,1,130,2|8,3:2|0:0,0:0:0:0:
65,212,60393,2,0,P|35:224|3:225,1,65,0|2,3:0|0:0,0:0:0:0:
126,150,60726,6,0,P|153:162|189:162,1,65,0|10,3:0|0:0,0:0:0:0:
218,34,61059,2,0,P|194:51|175:82,1,65,0|2,0:0|3:2,0:0:0:0:
272,171,61393,2,0,P|268:141|250:109,1,65,0|10,3:0|0:0,0:0:0:0:
226,250,61726,1,8,0:0:0:0:
226,250,61893,6,0,P|284:258|377:275,1,130,4|8,3:2|0:0,0:0:0:0:
447,301,62393,1,0,3:0:0:0:
492,220,62559,2,0,P|484:187|475:137,1,65,10|0,0:0|0:0,0:0:0:0:
406,96,62893,1,8,0:0:0:0:
470,33,63059,1,0,3:0:0:0:
381,10,63226,6,0,L|307:22,1,65,8|0,0:0|3:2,0:0:0:0:
261,92,63559,2,0,L|196:81,1,65,8|0,0:0|3:2,0:0:0:0:
115,28,63893,1,8,0:0:0:0:
25,67,64059,1,2,3:2:0:0:
105,125,64226,2,0,L|90:200,1,65,8|0,0:0|3:0,0:0:0:0:
6,287,64559,5,14,3:2:0:0:
118,319,64726,1,8,0:0:0:0:
118,319,65059,5,14,3:2:0:0:
184,220,65226,1,8,0:0:0:0:
184,220,65559,5,14,3:2:0:0:
110,127,65726,1,8,0:0:0:0:
110,127,66059,5,14,3:2:0:0:
0,167,66226,1,8,0:0:0:0:
118,319,66559,1,10,0:0:0:0:
118,319,67226,6,0,P|188:329|258:346,1,143.000004364014,6|8,3:2|0:0,0:0:0:0:
279,244,67726,1,2,0:0:0:0:
279,244,67893,2,0,P|208:233|134:215,1,143.000004364014,2|8,3:2|0:0,0:0:0:0:
42,245,68393,1,0,3:0:0:0:
61,147,68559,6,0,P|53:105|39:62,1,71.5000021820069,2|0,0:0|3:0,0:0:0:0:
141,48,68893,2,0,P|149:90|163:133,1,71.5000021820069,10|0,0:0|0:0,0:0:0:0:
252,148,69226,2,0,P|287:141|321:131,1,71.5000021820069,2|0,3:2|3:0,0:0:0:0:
355,36,69559,2,0,P|389:45|424:52,1,71.5000021820069,10|0,0:0|3:0,0:0:0:0:
506,111,69893,6,0,P|488:169|469:274,1,143.000004364014,2|10,3:2|0:0,0:0:0:0:
444,346,70393,1,2,0:0:0:0:
372,276,70559,2,0,L|292:290,1,71.5000021820069,2|0,3:2|3:0,0:0:0:0:
220,348,70893,2,0,L|149:335,1,71.5000021820069,8|2,0:0|3:2,0:0:0:0:
43,354,71226,6,0,P|52:292|-2:206,1,143.000004364014,2|10,0:0|0:0,0:0:0:0:
78,161,71726,2,0,P|127:199|228:196,1,143.000004364014,2|2,0:0|0:0,0:0:0:0:
287,145,72226,1,8,0:0:0:0:
282,248,72393,1,2,3:2:0:0:
374,201,72559,6,0,P|384:127|334:68,1,143.000004364014,4|8,3:2|0:0,0:0:0:0:
274,4,73059,1,2,0:0:0:0:
201,77,73226,2,0,P|177:142|206:206,1,143.000004364014,2|8,3:2|0:0,0:0:0:0:
287,147,73726,1,2,3:2:0:0:
374,201,73893,6,0,P|407:207|444:213,1,71.5000021820069,2|0,0:0|3:0,0:0:0:0:
495,127,74226,2,0,P|501:93|507:56,1,71.5000021820069,8|0,0:0|0:0,0:0:0:0:
426,13,74559,2,0,P|390:6|355:0,1,71.5000021820069,2|0,3:2|3:0,0:0:0:0:
300,76,74893,2,0,P|293:111|287:146,1,71.5000021820069,10|0,0:0|3:0,0:0:0:0:
279,251,75226,6,0,P|212:259|113:278,1,143.000004364014,2|8,3:2|0:0,0:0:0:0:
45,311,75726,2,0,P|37:267|26:227,1,71.5000021820069,2|0,0:0|3:0,0:0:0:0:
103,177,76059,2,0,P|95:133|84:93,1,71.5000021820069,2|10,3:2|0:0,0:0:0:0:
9,43,76393,2,0,P|57:12|149:33,1,143.000004364014,2|0,3:2|3:0,0:0:0:0:
144,33,76809,1,0,0:0:0:0:
150,41,76893,5,8,0:0:0:0:
256,41,77059,1,4,3:2:0:0:
114,185,77393,2,0,P|79:193|44:200,1,71.5000021820069,4|8,3:2|0:0,0:0:0:0:
125,287,77726,1,8,0:0:0:0:
125,287,77809,1,8,0:0:0:0:
125,287,77893,6,0,P|193:273|279:253,1,143.000004364014,4|8,3:2|0:0,0:0:0:0:
364,251,78393,1,2,0:0:0:0:
364,251,78559,2,0,L|352:321,1,71.5000021820069,2|0,3:2|3:0,0:0:0:0:
452,330,78893,2,0,L|463:259,1,71.5000021820069,8|0,0:0|3:0,0:0:0:0:
444,160,79226,6,0,P|481:170|521:154,1,71.5000021820069,2|0,0:0|3:0,0:0:0:0:
402,79,79559,2,0,P|429:51|435:9,1,71.5000021820069,10|0,0:0|0:0,0:0:0:0:
310,74,79893,2,0,P|300:36|266:10,1,71.5000021820069,2|0,3:2|3:0,0:0:0:0:
259,151,80226,2,0,P|221:141|182:156,1,71.5000021820069,10|0,0:0|3:0,0:0:0:0:
116,216,80559,6,0,P|45:211|-1:138,1,143.000004364014,2|10,3:2|0:0,0:0:0:0:
91,128,81059,1,2,0:0:0:0:
91,128,81226,2,0,L|106:25,1,71.5000021820069,2|0,3:2|3:0,0:0:0:0:
201,79,81559,2,0,L|186:182,1,71.5000021820069,8|2,0:0|3:2,0:0:0:0:
219,239,81893,6,0,L|372:262,1,143.000004364014,2|10,0:0|0:0,0:0:0:0:
461,282,82393,2,0,P|467:229|482:124,1,143.000004364014,2|2,0:0|0:0,0:0:0:0:
509,52,82893,1,8,0:0:0:0:
410,29,83059,1,2,3:2:0:0:
341,103,83226,6,0,P|265:89|184:76,1,143.000004364014,4|8,3:2|0:0,0:0:0:0:
116,23,83726,1,2,0:0:0:0:
30,75,83893,2,0,P|23:113|13:153,1,71.5000021820069,2|0,3:2|3:0,0:0:0:0:
97,193,84226,2,0,P|104:155|110:114,1,71.5000021820069,8|2,0:0|3:2,0:0:0:0:
23,236,84559,6,0,P|60:269|151:263,1,143.000004364014,0|8,0:0|0:0,0:0:0:0:
193,174,85059,1,2,0:0:0:0:
200,78,85226,2,0,P|270:89|340:102,1,143.000004364014,2|8,3:2|0:0,0:0:0:0:
421,43,85726,1,0,3:0:0:0:
432,143,85893,6,0,L|406:309,1,143.000004364014,2|8,3:2|0:0,0:0:0:0:
326,340,86393,1,2,0:0:0:0:
276,253,86559,2,0,L|287:182,1,71.5000021820069,2|0,3:2|3:0,0:0:0:0:
189,160,86893,2,0,L|200:89,1,71.5000021820069,8|2,0:0|3:2,0:0:0:0:
123,24,87226,5,2,0:0:0:0:
28,58,87393,1,0,3:0:0:0:
28,58,87476,1,0,3:0:0:0:
28,58,87559,1,8,0:0:0:0:
105,123,87726,1,4,3:2:0:0:
87,303,88059,2,0,P|51:296|16:289,1,71.5000021820069,4|8,3:2|0:0,0:0:0:0:
28,200,88393,1,10,0:0:0:0:
28,200,88476,1,8,0:0:0:0:
28,200,88559,6,0,P|117:217|239:240,1,195,4|0,3:2|3:0,0:0:0:0:
293,294,89226,2,0,P|309:247|267:162,1,130,8|0,0:0|0:0,0:0:0:0:
197,152,89726,1,8,0:0:0:0:
197,152,89893,6,0,P|165:145|133:139,1,65,2|2,0:0|0:0,0:0:0:0:
281,174,90226,2,0,P|312:167|344:161,1,65,2|2,3:2|3:2,0:0:0:0:
219,238,90559,2,0,P|187:244|155:250,1,65,10|2,0:0|3:2,0:0:0:0:
293,294,90893,2,0,P|324:300|356:306,1,65,2|8,0:0|0:0,0:0:0:0:
467,319,91226,6,0,P|471:283|492:178,1,130,2|0,3:2|0:0,0:0:0:0:
499,100,91726,1,0,3:0:0:0:
499,100,91893,2,0,P|438:113|366:68,1,130,8|0,0:0|0:0,0:0:0:0:
318,16,92393,1,8,0:0:0:0:
289,102,92559,6,0,L|310:239,1,130,2|2,0:0|3:2,0:0:0:0:
226,270,93059,2,0,L|216:205,1,65,2|8,3:2|0:0,0:0:0:0:
131,256,93393,2,0,L|110:125,1,130,2|10,3:2|0:0,0:0:0:0:
124,39,93893,6,0,P|217:27|330:14,1,195,4|0,3:2|3:0,0:0:0:0:
332,104,94559,2,0,P|267:111|202:119,1,130,8|2,0:0|0:0,0:0:0:0:
110,127,95059,2,0,L|120:192,1,65,10|0,0:0|0:0,0:0:0:0:
216,205,95393,2,0,L|226:270,1,65,8|0,0:0|3:2,0:0:0:0:
190,346,95726,2,0,B|241:372|287:336|287:336|334:300|387:327,1,195,2|0,3:2|0:0,0:0:0:0:
464,341,96393,1,8,0:0:0:0:
464,341,96559,6,0,P|456:294|438:197,1,130,2|2,3:2|0:0,0:0:0:0:
500,147,97059,2,0,P|441:123|381:143,1,130,2|0,3:2|0:0,0:0:0:0:
356,230,97559,1,2,3:2:0:0:
356,230,97726,1,8,0:0:0:0:
269,245,97893,6,0,L|249:163,1,65,2|8,0:0|0:0,0:0:0:0:
300,103,98226,1,2,3:2:0:0:
300,103,98393,2,0,L|280:21,1,65,10|10,0:0|0:0,0:0:0:0:
197,9,98726,1,10,0:0:0:0:
144,84,98893,1,8,0:0:0:0:
105,0,99059,1,10,0:0:0:0:
51,76,99226,1,4,3:2:0:0:
256,192,99393,12,0,102726,0:0:0:0:
