osu file format v14

[General]
AudioFilename: Miracle.mp3
AudioLeadIn: 1500
PreviewTime: 67144
Countdown: 0
SampleSet: Soft
StackLeniency: 0.7
Mode: 0
LetterboxInBreaks: 0
WidescreenStoryboard: 0

[Editor]
DistanceSpacing: 1
BeatDivisor: 4
GridSize: 4
TimelineZoom: 1

[Metadata]
Title:Miracle infinity
TitleUnicode:ミラクルinfinity
Artist:solfa feat. Chata
ArtistUnicode:solfa feat. 茶太
Creator:kajiyatta
Version:Normal
Source:ゆめこい~夢見る魔法少女と恋の呪文~
Tags:eroge visual novel opening parasol Yumekoi~Yume Miru Mahou Shoujo to Koi no Jumon~ japanese pop jpop featured artist fa satellite
BeatmapID:556325
BeatmapSetID:240762

[Difficulty]
HPDrainRate:4
CircleSize:3
OverallDifficulty:4
ApproachRate:5
SliderMultiplier:1
SliderTickRate:1

[Events]
//Background and Video events
0,0,"BG.jpg",0,0
Video,-93,"movie.mp4"
//Break Periods
//Storyboard Layer 0 (Background)
//Storyboard Layer 1 (Fail)
//Storyboard Layer 2 (Pass)
//Storyboard Layer 3 (Foreground)
//Storyboard Layer 4 (Overlay)
//Storyboard Sound Samples

[TimingPoints]
475,333.333333333333,4,2,1,30,1,0
475,-100,4,2,1,30,0,0
11141,-100,4,2,1,70,0,0
19474,-100,4,2,2,70,0,0
19808,-100,4,2,1,70,0,0
21308,-100,4,2,1,50,0,0
21808,-100,4,2,1,50,0,0
27474,-100,4,2,2,50,0,0
27808,-100,4,2,1,50,0,0
30141,-100,4,2,2,50,0,0
30474,-100,4,2,1,50,0,0
32474,-100,4,2,1,60,0,0
33974,-100,4,2,3,60,0,0
34141,-100,4,2,1,60,0,0
37641,-100,4,2,3,60,0,0
37808,-100,4,2,1,60,0,0
43141,-100,4,2,1,60,0,0
46141,-100,4,2,2,60,0,0
46474,-100,4,2,1,60,0,0
51474,-100,4,2,2,60,0,0
51808,-100,4,2,1,60,0,0
56808,-100,4,2,2,60,0,0
57141,-100,4,2,1,60,0,0
67141,-100,4,2,1,80,0,1
67474,-100,4,2,2,80,0,1
67808,-100,4,2,1,80,0,1
70141,-100,4,2,2,80,0,1
70474,-100,4,2,1,80,0,1
72808,-100,4,2,2,80,0,1
73141,-100,4,2,1,80,0,1
76641,-100,4,2,4,80,0,1
76808,-100,4,2,1,80,0,1
77308,-100,4,2,1,80,0,0
77808,-100,4,2,1,80,0,1
78141,-100,4,2,2,80,0,1
78474,-100,4,2,1,80,0,1
83474,-100,4,2,2,80,0,1
83808,-100,4,2,1,80,0,1
84808,-100,4,2,2,80,0,1
85141,-100,4,2,1,80,0,1
86141,-100,4,2,2,80,0,1
86474,-100,4,2,1,80,0,1
88141,-100,4,2,1,50,0,1
88474,-100,4,2,1,60,0,0
88808,-100,4,2,3,60,0,0
89141,-100,4,2,1,60,0,0
90141,-100,4,2,4,60,0,0
90474,-100,4,2,1,60,0,0
91474,-100,4,2,3,60,0,0
91808,-100,4,2,1,60,0,0
92141,-100,4,2,3,60,0,0
92474,-100,4,2,1,60,0,0
94141,-100,4,2,3,60,0,0
94474,-100,4,2,1,60,0,0
96808,-100,4,2,4,60,0,0
97141,-100,4,2,1,60,0,0
97474,-100,4,2,4,60,0,0
97808,-100,4,2,1,60,0,0
100474,-100,4,2,1,40,0,0
101141,-100,4,2,1,30,0,0
101808,-100,4,2,1,20,0,0
102474,-100,4,2,1,10,0,0

[Colours]
Combo1 : 0,255,255
Combo2 : 255,181,255
Combo3 : 182,222,252
Combo4 : 255,128,255

[HitObjects]
56,100,475,6,0,B|104:76|152:100,1,100,2|10,0:0|0:0,0:0:0:0:
208,184,1141,2,0,B|256:208|304:184,1,100,2|10,0:0|0:2,0:0:0:0:
360,100,1808,2,0,B|408:76|456:100,2,100,2|10|0,0:0|0:0|0:0,0:0:0:0:
304,184,2808,1,10,0:0:0:0:
360,268,3141,6,0,B|408:292|456:268,2,100,2|10|2,0:0|0:0|0:0,0:0:0:0:
304,184,4141,1,10,0:0:0:0:
216,136,4474,2,0,B|168:112|120:136,1,100,0|10,0:0|0:0,0:0:0:0:
120,236,5141,2,0,B|172:260|220:236,1,100,0|10,0:0|0:0,0:0:0:0:
304,184,5808,5,2,0:0:0:0:
380,116,6141,1,10,0:0:0:0:
464,64,6474,2,0,B|512:96|512:148,2,100,2|10|0,0:0|0:0|0:0,0:0:0:0:
380,116,7474,1,10,0:0:0:0:
380,116,7641,2,0,L|380:216,1,100,2|2,0:0|0:0,0:0:0:0:
376,268,8141,2,0,L|336:300,1,50,10|2,0:0|0:0,0:0:0:0:
288,308,8474,6,0,L|236:308,1,50,10|10,0:0|0:0,0:0:0:0:
148,268,8974,2,0,L|96:268,1,50,10|10,0:0|0:0,0:0:0:0:
76,172,9474,2,0,L|24:172,1,50,10|10,0:0|0:0,0:0:0:0:
76,88,9974,2,0,L|128:88,1,50,10|10,0:0|0:0,0:0:0:0:
212,36,10474,1,10,0:0:0:0:
388,116,11141,6,0,B|460:44,2,100,14|10|10,0:0|0:0|0:1,0:0:0:0:
336,200,12141,1,10,0:0:0:0:
336,200,12308,2,0,B|384:268|336:340,1,150,14|10,0:1|0:0,0:0:0:0:
264,268,13141,2,0,B|220:244|168:268,1,100,10|10,0:1|0:0,0:0:0:0:
76,312,13808,5,12,0:1:0:0:
20,228,14141,1,10,0:0:0:0:
20,128,14474,2,0,B|32:80|84:56,1,100,10|10,0:1|0:0,0:0:0:0:
124,88,14974,2,0,B|192:128|268:88,1,150,14|10,0:1|0:0,0:0:0:0:
308,56,15641,2,0,B|360:80|372:128,1,100,14|14,0:1|0:1,0:0:0:0:
328,220,16308,6,0,B|376:244|424:220,2,100,14|10|14,0:1|0:1|0:1,0:0:0:0:
256,152,17308,2,0,L|256:96,2,50,10|10|14,0:1|0:0|0:1,0:0:0:0:
184,220,17974,2,0,B|136:244|88:220,1,100,10|14,0:1|0:1,0:0:0:0:
12,152,18641,2,0,L|12:96,2,50,10|10|10,0:1|0:0|0:1,0:0:0:0:
12,204,19141,6,0,B|-13:268|36:345|107:351,1,200,14|8,0:1|0:1,0:0:0:0:
208,352,20141,1,8,0:0:0:0:
308,352,20474,2,0,L|380:280,2,100,2|12|8,0:0|0:0|0:1,0:0:0:0:
256,264,21474,1,8,0:0:0:0:
256,164,21808,5,14,0:1:0:0:
208,76,22141,2,0,B|256:52|304:76,2,100,8|2|10,0:0|0:0|0:0,0:0:0:0:
256,164,23141,2,0,B|208:188|160:164,1,100,0|8,0:0|0:0,0:0:0:0:
68,128,23808,2,0,B|16:152|16:208,1,100,0|8,0:0|0:0,0:0:0:0:
72,288,24474,5,10,0:1:0:0:
156,340,24808,2,0,B|204:364|252:340,1,100,8|0,0:0|0:0,0:0:0:0:
328,276,25474,2,0,B|377:249|389:201,1,100,10|0,0:0|0:0,0:0:0:0:
356,108,26141,2,0,B|368:60|420:32,2,100,8|0|8,0:0|0:0|0:0,0:0:0:0:
256,108,27141,6,0,B|188:28|80:28,1,200,10|0,0:1|0:0,0:0:0:0:
8,100,28141,1,10,0:0:0:0:
52,192,28474,2,0,B|24:236|52:288,1,100,8|8,0:1|0:0,0:0:0:0:
140,240,29141,2,0,L|240:240,1,100,0|8,0:0|0:0,0:0:0:0:
316,308,29808,6,0,B|408:364|508:308,1,200,10|0,0:1|0:0,0:0:0:0:
508,160,30974,2,0,B|436:92,1,100,0|0,0:0|0:0,0:0:0:0:
344,56,31641,1,0,0:0:0:0:
252,92,31974,1,10,0:1:0:0:
252,92,32141,2,0,B|220:136|164:136,1,100,10|14,0:0|0:1,0:0:0:0:
76,184,32808,6,0,B|48:136|77:90,2,100,8|8|10,0:1|0:0|0:1,0:0:0:0:
88,232,33641,2,0,B|128:304|212:304,1,150,10|8,0:0|0:1,0:0:0:0:
300,260,34474,2,0,L|300:160,2,100,10|10|10,0:0|0:1|0:0,0:0:0:0:
392,304,35474,6,0,B|444:304|476:256,1,100,8|10,0:1|0:0,0:0:0:0:
492,160,36141,1,10,0:1:0:0:
492,160,36308,2,0,L|416:96,1,100,10|0,0:0|0:0,0:0:0:0:
376,68,36808,2,0,B|336:32|284:44,1,100,8|10,0:1|0:0,0:0:0:0:
248,76,37308,2,0,B|176:116|104:76,1,150,2|10,0:0|0:1,0:0:0:0:
40,152,38141,5,8,0:1:0:0:
104,228,38474,2,0,B|175:188|247:228,1,150,8|8,0:0|0:0,0:0:0:0:
292,320,39308,2,0,L|344:320,1,50,2|10,0:0|0:0,0:0:0:0:
444,320,39808,2,0,B|488:292|488:236,1,100,10|8,0:0|0:1,0:0:0:0:
488,136,40474,6,0,B|488:80|444:52,2,100,10|8|0,0:0|0:1|0:0,0:0:0:0:
400,188,41474,2,0,L|348:188,1,50,10|12,0:0|0:1,0:0:0:0:
264,136,41974,2,0,B|264:80|308:52,2,100,12|12|12,0:1|0:1|0:1,0:0:0:0:
176,248,43141,6,0,B|132:272|80:248,1,100,14|8,0:1|0:0,0:0:0:0:
80,148,43808,2,0,B|132:124|176:148,1,100,0|8,0:0|0:0,0:0:0:0:
260,200,44474,2,0,B|308:220|360:200,2,100,0|8|8,0:0|0:0|0:1,0:0:0:0:
176,248,45474,1,8,0:0:0:0:
216,340,45808,6,0,B|316:388|412:340,1,200,8|8,0:1|0:1,0:0:0:0:
448,248,46808,1,8,0:0:0:0:
496,160,47141,2,0,B|448:136|400:160,1,100,0|8,0:0|0:0,0:0:0:0:
352,248,47808,2,0,B|304:272|256:248,1,100,0|8,0:0|0:0,0:0:0:0:
204,160,48474,6,0,L|272:80,2,100,12|8|0,0:1|0:0|0:0,0:0:0:0:
108,192,49474,1,8,0:0:0:0:
20,240,49808,2,0,B|-4:192|20:144,1,100,0|8,0:0|0:0,0:0:0:0:
108,192,50474,2,0,B|132:240|108:288,1,100,8|8,0:1|0:0,0:0:0:0:
192,344,51141,6,0,B|288:396|384:344,1,200,0|0,0:0|0:0,0:0:0:0:
460,280,52141,1,8,0:0:0:0:
504,192,52474,1,8,0:1:0:0:
420,136,52808,2,0,B|420:32,2,100,8|8|8,0:0|0:1|0:0,0:0:0:0:
336,192,53808,6,0,B|292:216|240:192,1,100,12|8,0:1|0:0,0:0:0:0:
184,108,54474,2,0,B|152:68|96:68,1,100,0|8,0:0|0:0,0:0:0:0:
16,128,55141,1,0,0:0:0:0:
56,220,55474,1,8,0:0:0:0:
156,212,55808,2,0,B|200:236|224:284,1,100,0|8,0:0|0:0,0:0:0:0:
316,316,56474,6,0,B|432:316|472:212,1,200,8|8,0:1|0:1,0:0:0:0:
404,140,57474,1,8,0:0:0:0:
416,40,57808,2,0,B|468:48|496:100,2,100,0|8|0,0:0|0:0|0:0,0:0:0:0:
324,84,58808,1,8,0:0:0:0:
232,40,59141,6,0,B|180:48|152:100,2,100,12|8|8,0:1|0:0|0:1,0:0:0:0:
324,84,60141,1,8,0:0:0:0:
404,140,60474,2,0,B|428:188|404:236,1,100,0|8,0:0|0:0,0:0:0:0:
316,188,61141,2,0,B|272:160|220:188,1,100,8|8,0:0|0:0,0:0:0:0:
156,264,61808,6,0,L|232:328,2,100,12|8|8,0:0|0:0|0:0,0:0:0:0:
88,192,62808,1,8,0:0:0:0:
156,120,63141,2,0,L|80:56,2,100,8|8|8,0:0|0:0|0:0,0:0:0:0:
256,120,64141,1,8,0:0:0:0:
324,192,64474,6,0,L|376:192,1,50,14|14,0:0|0:0,0:0:0:0:
288,248,64974,2,0,L|314:293,1,50,12|12,0:0|0:0,0:0:0:0:
224,248,65474,2,0,L|198:293,1,50,14|14,0:0|0:0,0:0:0:0:
188,192,65974,2,0,L|136:192,1,50,14|14,0:0|0:0,0:0:0:0:
36,192,66474,1,14,0:0:0:0:
176,52,67141,6,0,B|220:0|308:0|356:52,1,200,14|8,0:1|0:1,0:0:0:0:
304,136,68141,1,8,0:0:0:0:
356,220,68474,2,0,B|404:244|452:220,1,100,0|8,0:0|0:0,0:0:0:0:
504,132,69141,2,0,B|456:108|408:132,1,100,8|8,0:1|0:0,0:0:0:0:
304,136,69808,6,0,B|236:224|304:320,1,200,8|8,0:1|0:1,0:0:0:0:
392,368,70808,1,8,0:0:0:0:
444,280,71141,2,0,B|488:256|496:200,2,100,0|8|8,0:0|0:0|0:1,0:0:0:0:
392,368,72141,1,8,0:0:0:0:
292,360,72474,6,0,B|188:360|132:256,1,200,12|8,0:1|0:1,0:0:0:0:
116,160,73474,2,0,B|64:172|40:220,2,100,8|0|8,0:0|0:0|0:0,0:0:0:0:
212,196,74474,1,8,0:1:0:0:
256,108,74808,1,8,0:0:0:0:
352,76,75141,6,0,B|400:52|448:76,1,100,8|8,0:1|0:0,0:0:0:0:
448,176,75808,2,0,B|400:200|352:176,1,100,8|8,0:1|0:0,0:0:0:0:
304,164,76308,2,0,B|236:208|236:292,1,150,10|8,0:1|0:0,0:0:0:0:
256,336,76974,1,6,0:0:0:0:
164,372,77308,1,6,0:0:0:0:
44,288,77808,6,0,B|-20:192|44:100,1,200,12|8,0:1|0:1,0:0:0:0:
132,56,78808,1,8,0:0:0:0:
208,120,79141,2,0,B|256:144|304:120,1,100,0|8,0:0|0:0,0:0:0:0:
380,56,79808,2,0,B|428:32|476:56,1,100,8|8,0:1|0:0,0:0:0:0:
428,144,80474,6,0,L|428:248,1,100,8|8,0:1|0:0,0:0:0:0:
380,332,81141,2,0,B|428:356|476:332,2,100,8|8|0,0:1|0:0|0:0,0:0:0:0:
292,284,82141,2,0,B|256:244|204:244,1,100,8|0,0:0|0:0,0:0:0:0:
116,292,82808,1,8,0:0:0:0:
28,248,83141,6,0,B|-32:152|28:60,1,200,12|8,0:1|0:1,0:0:0:0:
120,16,84141,1,8,0:0:0:0:
212,60,84474,2,0,B|272:152|212:248,1,200,0|8,0:0|0:1,0:0:0:0:
116,292,85474,1,8,0:0:0:0:
196,352,85808,6,0,B|304:352|368:264,1,200,8|8,0:1|0:1,0:0:0:0:
436,192,86808,1,8,0:0:0:0:
368,116,87141,1,0,0:1:0:0:
268,116,87474,2,0,L|232:152,1,50,8|14,0:0|0:0,0:0:0:0:
132,152,87974,2,0,L|96:116,2,50,14|8|10,0:0|0:0|0:0,0:0:0:0:
160,192,88474,6,0,B|128:204|76:280|128:344|160:356,1,200,12|8,0:1|0:0,0:0:0:0:
256,324,89474,1,8,0:1:0:0:
352,356,89808,2,0,B|384:344|436:280|384:204|352:192,1,200,2|10,0:0|0:0,0:0:0:0:
256,156,90808,1,2,0:0:0:0:
172,104,91141,6,0,B|184:72|256:20|324:72|336:104,2,200,10|8|0,0:1|0:0|0:0,0:0:0:0:
72,104,92808,2,0,L|0:36,2,100,8|8|8,0:1|0:0|0:1,0:0:0:0:
120,192,93808,6,0,B|120:304|228:344,1,200,14|8,0:1|0:0,0:0:0:0:
312,292,94808,1,2,0:0:0:0:
396,240,95141,2,0,B|444:216|492:240,1,100,0|8,0:0|0:1,0:0:0:0:
492,340,95808,2,0,B|444:364|396:340,1,100,8|0,0:0|0:0,0:0:0:0:
312,292,96474,6,0,B|204:248|204:136,2,200,10|8|2,0:1|0:0|0:0,0:0:0:0:
396,240,98141,1,10,0:1:0:0:
472,172,98474,2,0,B|472:120|424:88,1,100,8|10,0:0|0:0,0:0:0:0:
256,192,99141,12,0,102808,0:0:0:0:
