osu file format v14

[General]
AudioFilename: Miracle.mp3
AudioLeadIn: 1500
PreviewTime: 67144
Countdown: 0
SampleSet: Soft
StackLeniency: 0.7
Mode: 0
LetterboxInBreaks: 0
WidescreenStoryboard: 0

[Editor]
DistanceSpacing: 1.1
BeatDivisor: 4
GridSize: 4
TimelineZoom: 1.6

[Metadata]
Title:Miracle infinity
TitleUnicode:ミラクルinfinity
Artist:solfa feat. Chata
ArtistUnicode:solfa feat. 茶太
Creator:kajiyatta
Version:Insane
Source:ゆめこい~夢見る魔法少女と恋の呪文~
Tags:eroge visual novel opening parasol Yumekoi~Yume Miru Mahou Shoujo to Koi no Jumon~ japanese pop jpop featured artist fa satellite
BeatmapID:556324
BeatmapSetID:240762

[Difficulty]
HPDrainRate:7
CircleSize:4
OverallDifficulty:7
ApproachRate:9
SliderMultiplier:1.8
SliderTickRate:1

[Events]
//Background and Video events
0,0,"BG.jpg",0,0
Video,-93,"movie.mp4"
//Break Periods
//Storyboard Layer 0 (Background)
//Storyboard Layer 1 (Fail)
//Storyboard Layer 2 (Pass)
//Storyboard Layer 3 (Foreground)
//Storyboard Layer 4 (Overlay)
//Storyboard Sound Samples

[TimingPoints]
475,333.333333333333,4,2,1,30,1,0
475,-133.333333333333,4,2,1,30,0,0
11141,-100,4,2,1,70,0,0
21308,-100,4,2,1,50,0,0
21808,-133.333333333333,4,2,1,50,0,0
32474,-133.333333333333,4,2,1,60,0,0
43141,-100,4,2,1,60,0,0
67141,-100,4,2,1,80,0,1
77308,-100,4,2,1,80,0,0
77474,-100,4,2,1,50,0,0
77808,-100,4,2,1,80,0,1
88141,-100,4,2,1,50,0,1
88474,-133.333333333333,4,2,1,60,0,0
100474,-133.333333333333,4,2,1,40,0,0
101141,-133.333333333333,4,2,1,30,0,0
101808,-133.333333333333,4,2,1,20,0,0
102474,-133.333333333333,4,2,1,10,0,0

[Colours]
Combo1 : 0,255,255
Combo2 : 255,181,255
Combo3 : 182,222,252
Combo4 : 255,128,255

[HitObjects]
92,72,475,6,0,B|68:100|68:136,1,67.5000025749208,2|0,0:0|0:0,0:0:0:0:
176,216,808,2,0,B|200:188|199:154,1,67.5000025749208,10|0,0:0|0:0,0:0:0:0:
84,220,1141,1,2,0:0:0:0:
132,300,1308,1,0,0:0:0:0:
220,332,1474,1,10,0:2:0:0:
308,300,1641,1,0,0:0:0:0:
412,188,1808,6,0,B|380:188|356:220,1,67.5000025749208,2|0,0:0|0:0,0:0:0:0:
404,300,2141,1,10,0:0:0:0:
480,248,2308,2,0,B|516:220|516:164|480:128,1,135.000005149842,2|2,0:0|0:0,0:0:0:0:
372,36,2808,2,0,B|372:72|396:100,1,67.5000025749208,10|2,0:0|0:0,0:0:0:0:
292,192,3141,6,0,L|224:192,1,67.5000025749208,2|0,0:0|0:0,0:0:0:0:
100,120,3474,2,0,L|168:120,1,67.5000025749208,10|0,0:0|0:0,0:0:0:0:
44,192,3808,1,2,0:0:0:0:
104,264,3974,1,0,0:0:0:0:
44,336,4141,1,10,0:0:0:0:
200,264,4308,6,0,B|260:228|328:264,1,135.000005149842,2|2,0:0|0:0,0:0:0:0:
392,192,4808,1,10,0:0:0:0:
328,120,4974,2,0,B|260:156|200:120,1,135.000005149842,2|2,0:0|0:0,0:0:0:0:
392,192,5474,2,0,L|460:192,1,67.5000025749208,10|2,0:0|0:0,0:0:0:0:
504,120,5808,5,2,0:0:0:0:
420,284,5974,1,0,0:0:0:0:
328,120,6141,2,0,L|280:72,1,67.5000025749208,10|0,0:0|0:0,0:0:0:0:
132,120,6474,2,0,B|168:132|198:120,1,67.5000025749208,2|0,0:0|0:0,0:0:0:0:
192,24,6808,1,10,0:0:0:0:
56,64,6974,6,0,B|36:72|4:120|36:172|56:180,1,135.000005149842,2|2,0:0|0:0,0:0:0:0:
116,252,7474,1,10,0:0:0:0:
220,192,7641,2,0,B|288:192|340:244,1,135.000005149842,2|2,0:0|0:0,0:0:0:0:
260,336,8141,1,10,0:0:0:0:
464,276,8308,1,2,0:0:0:0:
464,276,8391,1,2,0:0:0:0:
464,276,8474,5,10,0:0:0:0:
504,144,8641,1,10,0:0:0:0:
328,240,8974,5,10,0:0:0:0:
392,76,9141,1,10,0:0:0:0:
184,240,9474,5,10,0:0:0:0:
256,36,9641,1,10,0:0:0:0:
48,276,9974,5,10,0:0:0:0:
92,24,10141,1,10,0:0:0:0:
92,24,10474,5,10,0:0:0:0:
92,24,10808,1,2,0:0:0:0:
76,48,10891,1,2,0:0:0:0:
68,76,10974,1,2,0:0:0:0:
76,104,11058,1,2,0:0:0:0:
92,132,11141,6,0,B|188:168|180:272,1,180,14|10,0:0|0:0,0:0:0:0:
48,276,11641,1,2,0:0:0:0:
128,352,11808,1,10,0:1:0:0:
320,276,11974,1,10,0:1:0:0:
236,352,12141,1,10,0:0:0:0:
500,288,12308,6,0,B|456:192|360:192,1,180,14|8,0:1|0:1,0:0:0:0:
192,132,12808,2,0,B|212:176|256:192,1,90,10|0,0:0|0:0,0:0:0:0:
160,32,13141,2,0,B|112:52|96:96,1,90,10|0,0:1|0:0,0:0:0:0:
56,256,13474,2,0,B|104:236|120:192,1,90,10|8,0:0|0:1,0:0:0:0:
12,340,13808,5,12,0:1:0:0:
24,164,13974,1,2,0:0:0:0:
100,340,14141,1,10,0:0:0:0:
24,164,14308,1,2,0:0:0:0:
12,340,14474,1,10,0:1:0:0:
168,284,14641,2,0,B|208:260|253:260,1,90,10|10,0:1|0:0,0:0:0:0:
504,312,14974,6,0,B|416:360|332:312,1,180,14|8,0:1|0:1,0:0:0:0:
168,284,15474,1,10,0:0:0:0:
256,56,15641,1,14,0:1:0:0:
8,312,15974,1,14,0:1:0:0:
504,312,16308,6,0,B|408:272|416:168,1,180,14|10,0:1|0:1,0:0:0:0:
444,76,16808,1,10,0:0:0:0:
332,124,16974,2,0,B|324:148|256:200|188:152|180:124,1,180,14|10,0:1|0:1,0:0:0:0:
256,56,17474,1,10,0:0:0:0:
104,56,17641,6,0,B|40:84|24:152|52:208,1,180,14|10,0:1|0:1,0:0:0:0:
116,284,18141,1,10,0:0:0:0:
308,312,18308,2,0,B|280:212|176:212,1,180,14|10,0:1|0:1,0:0:0:0:
116,284,18808,1,10,0:0:0:0:
180,360,18974,1,10,0:1:0:0:
308,312,19141,6,0,B|344:280|392:280,1,90,14|0,0:1|0:0,0:0:0:0:
508,332,19474,2,0,B|480:368|428:368,1,90,8|0,0:0|0:0,0:0:0:0:
412,172,19808,2,0,B|452:192|468:240,1,90,8|8,0:1|0:1,0:0:0:0:
316,192,20141,1,8,0:0:0:0:
256,56,20308,1,10,0:1:0:0:
256,56,20391,1,2,0:0:0:0:
256,56,20474,6,0,B|220:28|220:28|176:28,1,90,2|8,0:0|0:1,0:0:0:0:
148,28,20724,1,8,0:1:0:0:
120,28,20808,2,0,B|76:28|76:28|40:56,1,90,12|8,0:0|0:1,0:0:0:0:
0,148,21141,1,8,0:1:0:0:
40,240,21308,1,8,0:1:0:0:
48,252,21391,1,8,0:1:0:0:
56,264,21474,1,8,0:0:0:0:
64,276,21558,1,8,0:1:0:0:
72,288,21641,1,8,0:1:0:0:
80,300,21724,1,8,0:1:0:0:
88,312,21808,6,0,B|140:260|208:260,1,135.000005149842,14|8,0:1|0:0,0:0:0:0:
288,312,22308,1,0,0:0:0:0:
344,176,22474,2,0,B|312:176|284:204,1,67.5000025749208,2|0,0:0|0:0,0:0:0:0:
404,240,22808,2,0,B|436:240|464:212,1,67.5000025749208,10|0,0:0|0:0,0:0:0:0:
484,120,23141,5,0,0:0:0:0:
424,48,23308,1,0,0:0:0:0:
332,40,23474,1,8,0:0:0:0:
260,100,23641,2,0,B|194:132|130:100,2,135.000005149842,0|0|0,0:0|0:0|0:0,0:0:0:0:
92,20,24474,6,0,B|60:32|44:64,1,67.5000025749208,10|0,0:1|0:0,0:0:0:0:
60,160,24808,1,8,0:0:0:0:
16,244,24974,1,2,0:0:0:0:
92,300,25141,2,0,L|156:324,1,67.5000025749208
216,208,25474,2,0,L|152:184,1,67.5000025749208,10|0,0:0|0:0,0:0:0:0:
264,292,25808,5,0,0:0:0:0:
416,260,25974,1,0,0:0:0:0:
304,360,26141,1,8,0:0:0:0:
348,212,26308,2,0,B|372:184|408:176,1,67.5000025749208
492,304,26641,2,0,B|468:332|432:340,1,67.5000025749208,0|8,0:0|0:0,0:0:0:0:
304,360,26974,1,0,0:0:0:0:
216,208,27141,6,0,B|240:144|312:120,1,135.000005149842,10|8,0:1|0:0,0:0:0:0:
496,136,27641,1,2,0:0:0:0:
496,136,27808,2,0,B|468:72|388:64,1,135.000005149842,0|10,0:0|0:0,0:0:0:0:
300,40,28308,1,8,0:1:0:0:
268,36,28391,1,8,0:1:0:0:
240,40,28474,6,0,L|180:72,1,67.5000025749208,8|0,0:1|0:0,0:0:0:0:
24,40,28808,2,0,L|84:72,1,67.5000025749208,8|0,0:0|0:0,0:0:0:0:
132,152,29141,2,0,B|168:216|132:280,1,135.000005149842,0|8,0:0|0:0,0:0:0:0:
40,256,29641,1,8,0:1:0:0:
28,284,29724,1,8,0:1:0:0:
16,312,29808,6,0,B|64:368|136:368,1,135.000005149842,10|8,0:1|0:0,0:0:0:0:
212,316,30308,1,2,0:0:0:0:
360,264,30474,2,0,B|328:252|292:264,1,67.5000025749208
212,316,30808,1,0,0:0:0:0:
360,368,30974,6,0,B|432:368|464:296,1,135.000005149842
424,212,31474,1,8,0:0:0:0:
360,60,31641,2,0,B|432:60|464:132,1,135.000005149842,0|10,0:0|0:1,0:0:0:0:
424,212,32141,1,10,0:0:0:0:
256,128,32308,1,10,0:1:0:0:
256,128,32391,1,8,0:0:0:0:
256,128,32474,6,0,B|236:100|196:100,1,67.5000025749208,14|0,0:1|0:0,0:0:0:0:
100,168,32808,2,0,B|120:196|160:196,1,67.5000025749208,8|0,0:1|0:0,0:0:0:0:
348,196,33141,1,8,0:0:0:0:
200,296,33308,1,0,0:0:0:0:
256,128,33474,1,10,0:1:0:0:
312,296,33641,6,0,B|376:328|444:296,1,135.000005149842,10|0,0:0|0:0,0:0:0:0:
386,129,34141,2,0,B|322:97|254:129,1,135.000005149842,8|10,0:1|0:0,0:0:0:0:
188,192,34641,1,2,0:0:0:0:
116,120,34808,1,10,0:1:0:0:
116,264,34974,1,0,0:0:0:0:
32,128,35141,6,0,B|-4:192|32:256,1,135.000005149842,10|8,0:0|0:1,0:0:0:0:
84,336,35641,1,2,0:0:0:0:
176,316,35808,2,0,B|212:316|240:296,1,67.5000025749208,10|0,0:0|0:0,0:0:0:0:
288,148,36141,1,10,0:1:0:0:
404,316,36308,6,0,B|368:316|340:296,1,67.5000025749208,10|0,0:0|0:0,0:0:0:0:
288,148,36641,2,0,L|288:216,1,67.5000025749208,0|8,0:0|0:1,0:0:0:0:
252,64,36974,2,0,B|284:52|320:64,1,67.5000025749208,0|10,0:0|0:0,0:0:0:0:
188,128,37308,2,0,B|124:160|56:128,1,135.000005149842,2|0,0:0|0:0,0:0:0:0:
0,240,37808,6,0,B|68:252|104:320,1,135.000005149842,10|8,0:1|0:1,0:0:0:0:
184,368,38308,1,2,0:0:0:0:
325,296,38474,2,0,B|300:320|264:320,1,67.5000025749208,8|0,0:0|0:0,0:0:0:0:
184,264,38808,1,10,0:1:0:0:
396,236,38974,6,0,B|414:243|444:296|414:343|394:351,1,135.000005149842,8|2,0:0|0:0,0:0:0:0:
312,208,39474,2,0,B|288:184|288:144,1,67.5000025749208,10|2,0:0|0:0,0:0:0:0:
304,12,39808,1,10,0:0:0:0:
360,88,39974,1,2,0:0:0:0:
152,88,40141,1,8,0:1:0:0:
208,12,40308,1,0,0:0:0:0:
64,88,40474,6,0,B|0:128|0:200,1,135.000005149842,10|8,0:0|0:1,0:0:0:0:
60,272,40974,1,10,0:1:0:0:
132,332,41141,2,0,B|164:344|200:332,1,67.5000025749208
272,272,41474,1,10,0:0:0:0:
448,296,41641,5,12,0:1:0:0:
64,88,41974,1,12,0:1:0:0:
448,88,42308,1,12,0:1:0:0:
64,296,42641,1,12,0:1:0:0:
140,352,42808,1,8,0:0:0:0:
216,296,42974,1,8,0:1:0:0:
216,296,43058,1,0,0:0:0:0:
216,296,43141,6,0,B|260:280|280:232,1,90,14|0,0:1|0:0,0:0:0:0:
270,103,43474,2,0,B|226:119|208:164,1,90,8|0,0:0|0:0,0:0:0:0:
356,192,43808,1,0,0:0:0:0:
372,68,43974,1,8,0:1:0:0:
256,20,44141,2,0,B|212:20|176:56,1,90,8|8,0:0|0:1,0:0:0:0:
8,36,44474,6,0,B|36:72|88:76,1,90,0|8,0:0|0:1,0:0:0:0:
120,224,44808,2,0,B|156:196|152:144,1,90,8|8,0:0|0:1,0:0:0:0:
20,256,45141,1,8,0:1:0:0:
24,356,45308,1,8,0:1:0:0:
184,300,45474,1,8,0:0:0:0:
120,380,45641,1,8,0:1:0:0:
256,248,45808,6,0,B|340:204|428:248,1,180,8|8,0:1|0:0,0:0:0:0:
504,316,46308,1,8,0:1:0:0:
504,184,46474,2,0,B|504:140|456:112,1,90,8|8,0:1|0:1,0:0:0:0:
368,68,46808,1,8,0:0:0:0:
272,96,46974,1,8,0:1:0:0:
192,156,47141,6,0,B|144:156|112:120,1,90,0|8,0:0|0:1,0:0:0:0:
44,252,47474,2,0,B|10:218|15:167,1,90,8|0,0:0|0:0,0:0:0:0:
24,72,47808,1,0,0:0:0:0:
136,236,47974,1,8,0:1:0:0:
136,236,48058,1,8,0:1:0:0:
136,236,48141,1,8,0:0:0:0:
272,96,48308,1,8,0:1:0:0:
136,236,48474,6,0,B|168:328|276:328,1,180,12|8,0:1|0:0,0:0:0:0:
364,288,48974,1,0,0:0:0:0:
452,240,49141,2,0,B|496:264|496:312,1,90,0|8,0:0|0:1,0:0:0:0:
372,196,49474,1,8,0:0:0:0:
452,140,49641,1,8,0:1:0:0:
296,44,49808,6,0,B|312:88|360:108,1,90,0|8,0:0|0:1,0:0:0:0:
216,44,50141,2,0,B|200:88|152:104,1,90,8|0,0:0|0:0,0:0:0:0:
256,228,50474,2,0,B|256:136,1,90,8|8,0:1|0:1,0:0:0:0:
64,104,50808,1,8,0:0:0:0:
168,228,50974,1,8,0:1:0:0:
0,192,51141,6,0,B|-34:244|11:323|74:320,1,180,0|8,0:0|0:0,0:0:0:0:
168,228,51641,1,0,0:0:0:0:
340,192,51808,2,0,B|374:244|328:323|266:320,1,180,0|8,0:0|0:0,0:0:0:0:
168,228,52308,1,8,0:1:0:0:
124,124,52474,6,0,B|168:104|212:124,1,90,8|8,0:1|0:1,0:0:0:0:
428,192,52808,2,0,B|384:212|340:192,1,90,8|0,0:0|0:0,0:0:0:0:
224,44,53141,1,8,0:1:0:0:
264,260,53308,1,8,0:1:0:0:
304,100,53474,1,8,0:0:0:0:
168,228,53641,1,8,0:1:0:0:
428,192,53808,6,0,B|476:176|488:128,1,90,12|0,0:1|0:0,0:0:0:0:
356,152,54141,2,0,B|328:192|356:236,1,90,8|0,0:0|0:0,0:0:0:0:
256,336,54474,2,0,B|164:388|84:336,1,180,0|8,0:0|0:0,0:0:0:0:
32,252,54974,1,8,0:1:0:0:
88,172,55141,5,0,0:0:0:0:
168,228,55308,1,8,0:1:0:0:
248,60,55474,2,0,B|200:60|168:96,1,90,8|0,0:0|0:0,0:0:0:0:
344,152,55808,2,0,B|392:152|424:116,1,90,0|8,0:0|0:1,0:0:0:0:
256,192,56141,2,0,B|256:240|296:268,1,90,8|8,0:0|0:1,0:0:0:0:
448,296,56474,6,0,B|508:280|536:208|508:148,1,180,8|8,0:1|0:0,0:0:0:0:
440,80,56974,1,0,0:1:0:0:
356,28,57141,2,0,B|312:8|268:28,1,90,8|8,0:1|0:1,0:0:0:0:
100,132,57474,2,0,B|144:128|180:96,1,90,8|8,0:0|0:1,0:0:0:0:
92,16,57808,5,0,0:0:0:0:
12,76,57974,1,8,0:1:0:0:
44,244,58141,2,0,B|57:294|106:306,1,90,8|0,0:0|0:0,0:0:0:0:
212,232,58474,2,0,B|248:200|296:208,1,90,0|8,0:0|0:1,0:0:0:0:
320,216,58724,1,8,0:1:0:0:
344,224,58808,1,8,0:0:0:0:
416,292,58974,1,0,0:0:0:0:
488,136,59141,6,0,B|468:32|360:32,1,180,12|8,0:1|0:0,0:0:0:0:
280,84,59641,1,0,0:0:0:0:
196,136,59808,2,0,B|144:136|116:100,1,90,8|8,0:1|0:1,0:0:0:0:
280,84,60141,2,0,B|328:96|344:144,1,90,8|8,0:0|0:1,0:0:0:0:
96,312,60474,5,0,0:0:0:0:
256,256,60641,1,8,0:1:0:0:
192,332,60808,1,8,0:0:0:0:
84,216,60974,2,0,B|40:196|32:144,1,90,0|8,0:0|0:0,0:0:0:0:
335,221,61308,2,0,B|304:260|256:256,1,90,0|8,0:1|0:0,0:0:0:0:
84,216,61641,1,8,0:0:0:0:
84,64,61808,6,0,B|132:64|164:100,1,90,12|0,0:0|0:0,0:0:0:0:
428,320,62141,2,0,B|380:320|348:284,1,90,8|8,0:0|0:1,0:0:0:0:
84,320,62474,2,0,B|132:320|164:284,1,90,8|0,0:0|0:0,0:0:0:0:
428,64,62808,2,0,B|380:64|348:100,1,90,8|8,0:0|0:1,0:0:0:0:
132,192,63141,6,0,L|40:192,1,90,8|0,0:0|0:0,0:0:0:0:
380,192,63474,2,0,L|472:192,1,90,8|8,0:0|0:1,0:0:0:0:
256,264,63808,2,0,L|256:356,1,90,8|8,0:0|0:0,0:0:0:0:
256,120,64141,2,0,L|256:28,1,90,8|8,0:0|0:0,0:0:0:0:
52,304,64474,5,14,0:0:0:0:
12,156,64641,1,14,0:0:0:0:
180,268,64974,5,12,0:0:0:0:
112,88,65141,1,12,0:0:0:0:
328,256,65474,5,14,0:0:0:0:
256,40,65641,1,14,0:0:0:0:
472,280,65974,5,14,0:0:0:0:
416,24,66141,1,14,0:0:0:0:
416,24,66474,5,14,0:0:0:0:
416,24,66808,1,2,0:0:0:0:
432,44,66891,1,2,0:0:0:0:
440,68,66974,1,2,0:0:0:0:
436,96,67058,1,2,0:0:0:0:
428,120,67141,6,0,B|344:168|368:276,1,180,14|8,0:1|0:0,0:0:0:0:
412,364,67641,1,2,0:0:0:0:
308,352,67808,2,0,B|212:352|160:264,1,180,8|8,0:1|0:0,0:0:0:0:
84,188,68308,1,10,0:1:0:0:
24,276,68474,6,0,L|0:364,1,90,0|2,0:0|0:0,0:0:0:0:
0,128,68808,2,0,L|24:40,1,90,8|8,0:0|0:1,0:0:0:0:
168,128,69141,1,8,0:1:0:0:
104,280,69308,1,2,0:0:0:0:
84,104,69474,1,8,0:0:0:0:
180,240,69641,1,10,0:1:0:0:
256,72,69808,6,0,B|336:24|428:72,1,180,8|8,0:1|0:0,0:0:0:0:
492,148,70308,1,2,0:0:0:0:
436,328,70474,2,0,B|336:288|336:192,1,180,8|8,0:1|0:0,0:0:0:0:
492,244,70974,1,2,0:0:0:0:
296,336,71141,6,0,B|256:360|208:336,1,90,0|10,0:0|0:1,0:0:0:0:
140,264,71474,1,8,0:0:0:0:
92,176,71641,1,2,0:0:0:0:
192,176,71808,1,8,0:1:0:0:
72,296,71974,1,2,0:0:0:0:
72,104,72141,1,8,0:0:0:0:
256,212,72308,1,8,0:1:0:0:
16,212,72474,6,0,B|-36:128|4:40,1,180,12|8,0:1|0:0,0:0:0:0:
100,20,72974,1,2,0:0:0:0:
176,84,73141,2,0,B|256:132|348:84,1,180,8|8,0:1|0:0,0:0:0:0:
424,20,73641,1,2,0:0:0:0:
416,172,73808,6,0,L|481:237,1,90,0|2,0:0|0:0,0:0:0:0:
320,256,74141,2,0,L|343:344,1,90,8|2,0:0|0:0,0:0:0:0:
196,256,74474,2,0,L|172:344,1,90,8|2,0:1|0:0,0:0:0:0:
128,192,74808,1,8,0:0:0:0:
256,152,74974,1,2,0:0:0:0:
48,252,75141,6,0,B|12:196|32:124|96:104,1,180,8|8,0:1|0:0,0:0:0:0:
256,152,75641,1,2,0:0:0:0:
128,192,75808,1,8,0:1:0:0:
256,56,75974,2,0,B|300:36|344:56,1,90,2|8,0:0|0:0,0:0:0:0:
512,152,76308,6,0,B|500:180|436:212|368:180|356:152,1,180,10|2,0:1|0:0,0:0:0:0:
356,152,76724,1,8,0:1:0:0:
356,152,76808,1,8,0:0:0:0:
436,68,76974,1,6,0:0:0:0:
436,68,77308,1,6,0:0:0:0:
356,152,77474,1,8,0:0:0:0:
348,164,77558,1,8,0:0:0:0:
340,176,77641,1,10,0:0:0:0:
332,188,77724,1,8,0:0:0:0:
324,200,77808,6,0,B|288:288|180:288,1,180,12|8,0:1|0:0,0:0:0:0:
100,228,78308,1,2,0:0:0:0:
40,152,78474,2,0,B|0:180|0:228,1,90,8|2,0:1|0:0,0:0:0:0:
164,152,78808,2,0,B|204:124|204:76,1,90,8|10,0:0|0:1,0:0:0:0:
100,228,79141,6,0,B|100:320,1,90,0|2,0:0|0:0,0:0:0:0:
256,348,79474,2,0,B|336:296|428:348,1,180,8|8,0:0|0:1,0:0:0:0:
504,284,79974,1,10,0:1:0:0:
336,192,80141,1,8,0:0:0:0:
496,92,80308,1,10,0:1:0:0:
336,192,80474,6,0,B|252:248|168:192,1,180,8|8,0:1|0:0,0:0:0:0:
84,140,80974,2,0,B|108:100|158:96,1,90,2|8,0:0|0:1,0:0:0:0:
72,232,81308,2,0,B|24:232|0:185,1,90,2|8,0:0|0:0,0:0:0:0:
8,88,81641,1,2,0:0:0:0:
72,232,81808,6,0,B|120:320|224:320,1,180,0|8,0:0|0:0,0:0:0:0:
336,192,82308,2,0,B|288:104|184:104,1,180,2|2,0:0|0:0,0:0:0:0:
428,192,82808,1,8,0:0:0:0:
256,240,82974,1,10,0:1:0:0:
384,360,83141,6,0,B|448:376|508:320|500:260,1,180,12|8,0:1|0:0,0:0:0:0:
428,192,83641,1,2,0:0:0:0:
376,64,83808,2,0,B|408:28|460:36,1,90,8|10,0:1|0:0,0:0:0:0:
316,148,84141,1,8,0:0:0:0:
256,64,84308,1,10,0:1:0:0:
256,240,84474,6,0,B|216:264|168:264,1,90,0|10,0:0|0:1,0:0:0:0:
24,216,84808,2,0,B|64:192|112:192,1,90,8|2,0:0|0:0,0:0:0:0:
136,352,85141,2,0,B|88:340|72:293,1,90,8|2,0:1|0:0,0:0:0:0:
8,128,85474,1,8,0:0:0:0:
112,28,85641,1,10,0:1:0:0:
256,64,85808,6,0,B|336:116|428:64,1,180,8|8,0:1|0:0,0:0:0:0:
512,12,86308,1,2,0:0:0:0:
464,152,86474,2,0,B|416:168|400:212,1,90,8|2,0:1|0:0,0:0:0:0:
244,152,86808,2,0,B|292:168|308:212,1,90,8|10,0:0|0:1,0:0:0:0:
256,364,87141,5,0,0:1:0:0:
356,296,87308,1,2,0:0:0:0:
356,296,87391,1,8,0:1:0:0:
356,296,87474,1,8,0:0:0:0:
156,296,87641,2,0,B|56:272|36:168,1,180,14|14,0:0|0:0,0:0:0:0:
92,92,88141,1,8,0:0:0:0:
100,80,88224,1,8,0:0:0:0:
108,68,88308,1,10,0:0:0:0:
116,56,88391,1,8,0:0:0:0:
124,44,88474,6,0,B|188:8|256:40,1,135.000005149842,12|0,0:1|0:0,0:0:0:0:
316,104,88974,1,8,0:1:0:0:
448,20,89141,2,0,B|412:20|384:40,1,67.5000025749208,8|0,0:0|0:0,0:0:0:0:
284,192,89474,2,0,B|316:204|352:192,1,67.5000025749208,8|8,0:1|0:0,0:0:0:0:
316,104,89808,5,2,0:0:0:0:
204,152,89974,1,10,0:0:0:0:
204,272,90141,1,10,0:1:0:0:
316,320,90308,1,10,0:1:0:0:
316,104,90474,1,10,0:0:0:0:
428,152,90641,1,10,0:1:0:0:
428,272,90808,1,2,0:0:0:0:
316,320,90974,1,10,0:0:0:0:
204,272,91141,6,0,B|140:236|76:272,1,135.000005149842,10|0,0:1|0:0,0:0:0:0:
8,336,91641,1,10,0:1:0:0:
68,136,91808,2,0,B|0:172|0:244,1,135.000005149842,8|0,0:0|0:0,0:0:0:0:
8,336,92308,1,8,0:0:0:0:
136,192,92474,6,0,B|164:180|184:144,1,67.5000025749208,0|8,0:0|0:0,0:0:0:0:
132,68,92808,1,8,0:1:0:0:
256,28,92974,2,0,L|324:28,1,67.5000025749208,8|8,0:1|0:0,0:0:0:0:
372,100,93308,1,8,0:1:0:0:
460,100,93474,1,8,0:1:0:0:
512,28,93641,1,10,0:0:0:0:
416,184,93808,6,0,B|380:244|416:312,1,135.000005149842,14|0,0:1|0:0,0:0:0:0:
500,280,94308,1,8,0:1:0:0:
340,360,94474,2,0,B|308:360|276:336,1,67.5000025749208,8|8,0:0|0:1,0:0:0:0:
224,268,94808,1,2,0:0:0:0:
148,312,94974,6,0,L|80:312,1,67.5000025749208,10|0,0:1|0:0,0:0:0:0:
140,184,95308,2,0,L|81:218,1,67.5000025749208,10|8,0:1|0:1,0:0:0:0:
48,104,95641,2,0,L|14:162,1,67.5000025749208,10|8,0:1|0:0,0:0:0:0:
136,96,95974,1,10,0:1:0:0:
252,20,96141,1,0,0:0:0:0:
116,20,96308,1,10,0:0:0:0:
228,96,96474,6,0,B|268:156|344:156,1,135.000005149842,10|2,0:1|0:0,0:0:0:0:
432,128,96974,1,10,0:1:0:0:
480,48,97141,1,8,0:0:0:0:
384,48,97308,1,0,0:0:0:0:
432,212,97474,2,0,L|476:264,1,67.5000025749208,10|10,0:1|0:0,0:0:0:0:
356,332,97808,5,2,0:0:0:0:
288,192,97974,1,10,0:0:0:0:
216,332,98141,1,10,0:1:0:0:
392,352,98308,1,10,0:0:0:0:
288,148,98474,1,8,0:0:0:0:
180,352,98641,1,8,0:0:0:0:
432,212,98808,1,10,0:0:0:0:
144,212,98974,1,10,0:0:0:0:
392,352,99141,5,14,0:1:0:0:
256,192,99224,12,0,102808,0:0:0:0:
