osu file format v14

[General]
AudioFilename: Miracle.mp3
AudioLeadIn: 1500
PreviewTime: 67144
Countdown: 0
SampleSet: Soft
StackLeniency: 0.7
Mode: 0
LetterboxInBreaks: 0
WidescreenStoryboard: 0

[Editor]
DistanceSpacing: 1
BeatDivisor: 4
GridSize: 4
TimelineZoom: 1

[Metadata]
Title:Miracle infinity
TitleUnicode:ミラクルinfinity
Artist:solfa feat. Chata
ArtistUnicode:solfa feat. 茶太
Creator:kajiyatta
Version:Easy
Source:ゆめこい~夢見る魔法少女と恋の呪文~
Tags:eroge visual novel opening parasol Yumekoi~Yume Miru Mahou Shoujo to Koi no Jumon~ japanese pop jpop featured artist fa satellite
BeatmapID:556322
BeatmapSetID:240762

[Difficulty]
HPDrainRate:2
CircleSize:3
OverallDifficulty:2
ApproachRate:3
SliderMultiplier:0.8
SliderTickRate:1

[Events]
//Background and Video events
0,0,"BG.jpg",0,0
Video,-93,"movie.mp4"
//Break Periods
//Storyboard Layer 0 (Background)
//Storyboard Layer 1 (Fail)
//Storyboard Layer 2 (Pass)
//Storyboard Layer 3 (Foreground)
//Storyboard Layer 4 (Overlay)
//Storyboard Sound Samples

[TimingPoints]
475,333.333333333333,4,2,1,30,1,0
475,-100,4,2,1,30,0,0
808,-100,4,2,2,30,0,0
1141,-100,4,2,1,30,0,0
3474,-100,4,2,2,30,0,0
3808,-100,4,2,1,30,0,0
4141,-100,4,2,2,30,0,0
4474,-100,4,2,1,30,0,0
6141,-100,4,2,2,30,0,0
6474,-100,4,2,1,30,0,0
7474,-100,4,2,2,30,0,0
7808,-100,4,2,1,30,0,0
8808,-100,4,2,3,30,0,0
8974,-100,4,2,1,30,0,0
9141,-100,4,2,3,30,0,0
9474,-100,4,2,1,30,0,0
10308,-100,4,2,3,30,0,0
10474,-100,4,2,1,30,0,0
11141,-100,4,2,1,70,0,0
11474,-100,4,2,2,70,0,0
11808,-100,4,2,4,70,0,0
11974,-100,4,2,1,70,0,0
14141,-100,4,2,2,70,0,0
14474,-100,4,2,4,70,0,0
14641,-100,4,2,1,70,0,0
16641,-100,4,2,4,70,0,0
16974,-100,4,2,1,70,0,0
17974,-100,4,2,4,70,0,0
18308,-100,4,2,1,70,0,0
19474,-100,4,2,2,70,0,0
19808,-100,4,2,1,70,0,0
20808,-100,4,2,2,70,0,0
21141,-100,4,2,1,70,0,0
21308,-100,4,2,1,50,0,0
21474,-100,4,2,2,50,0,0
21808,-100,4,2,1,50,0,0
28141,-100,4,2,4,50,0,0
28474,-100,4,2,1,50,0,0
32308,-100,4,2,4,50,0,0
32474,-100,4,2,1,60,0,0
33974,-100,4,2,3,60,0,0
34141,-100,4,2,1,60,0,0
34808,-100,4,2,4,60,0,0
35141,-100,4,2,1,60,0,0
36641,-100,4,2,3,60,0,0
36808,-100,4,2,1,60,0,0
39308,-100,4,2,4,60,0,0
39474,-100,4,2,1,60,0,0
43141,-100,4,2,1,60,0,0
43474,-100,4,2,2,60,0,0
43808,-100,4,2,1,60,0,0
46141,-100,4,2,2,60,0,0
46474,-100,4,2,1,60,0,0
46808,-100,4,2,2,60,0,0
47141,-100,4,2,1,60,0,0
48808,-100,4,2,2,60,0,0
49141,-100,4,2,1,60,0,0
50141,-100,4,2,2,60,0,0
50474,-100,4,2,1,60,0,0
51474,-100,4,2,2,60,0,0
51808,-100,4,2,1,60,0,0
52141,-100,4,2,2,60,0,0
52474,-100,4,2,1,60,0,0
54141,-100,4,2,2,60,0,0
54474,-100,4,2,1,60,0,0
56808,-100,4,2,2,60,0,0
57141,-100,4,2,1,60,0,0
59474,-100,4,2,2,60,0,0
59808,-100,4,2,1,60,0,0
64808,-100,4,2,3,60,0,0
64974,-100,4,2,1,60,0,0
65141,-100,4,2,2,60,0,0
65474,-100,4,2,1,60,0,0
66308,-100,4,2,3,60,0,0
66474,-100,4,2,1,60,0,0
67141,-100,4,2,1,80,0,1
67474,-100,4,2,2,80,0,1
67808,-100,4,2,1,80,0,1
70141,-100,4,2,2,80,0,1
70474,-100,4,2,1,80,0,1
72808,-100,4,2,2,80,0,1
73141,-100,4,2,1,80,0,1
74141,-100,4,2,2,80,0,1
74474,-100,4,2,1,80,0,1
75474,-100,4,2,2,80,0,1
75641,-100,4,2,1,80,0,1
76808,-100,4,2,2,80,0,1
76974,-100,4,2,1,80,0,1
77308,-100,4,2,1,80,0,0
77808,-100,4,2,1,80,0,1
78141,-100,4,2,2,80,0,1
78474,-100,4,2,1,80,0,1
80808,-100,4,2,2,80,0,1
81141,-100,4,2,1,80,0,1
82141,-100,4,2,2,80,0,1
82474,-100,4,2,1,80,0,1
82808,-100,4,2,2,80,0,1
83141,-100,4,2,1,80,0,1
84808,-100,4,2,2,80,0,1
85141,-100,4,2,1,80,0,1
86141,-100,4,2,2,80,0,1
86474,-100,4,2,1,80,0,1
87474,-100,4,2,2,80,0,1
87641,-100,4,2,1,80,0,1
87808,-100,4,2,3,80,0,1
88141,-100,4,2,1,50,0,1
88474,-100,4,2,1,60,0,0
88808,-100,4,2,3,60,0,0
89141,-100,4,2,1,60,0,0
90141,-100,4,2,4,60,0,0
90474,-100,4,2,1,60,0,0
91474,-100,4,2,3,60,0,0
91808,-100,4,2,1,60,0,0
98141,-100,4,2,4,60,0,0
98474,-100,4,2,1,60,0,0
100474,-100,4,2,1,40,0,0
101141,-100,4,2,1,30,0,0
101808,-100,4,2,1,20,0,0
102474,-100,4,2,1,10,0,0

[Colours]
Combo1 : 0,255,255
Combo2 : 255,181,255
Combo3 : 182,222,252
Combo4 : 255,128,255

[HitObjects]
52,88,475,6,0,B|128:44|204:88,1,160,2|2,0:0|0:0,0:0:0:0:
256,148,1474,1,10,0:2:0:0:
336,148,1808,2,0,B|356:112|392:92,2,80,2|10|0,0:0|0:0|0:0,0:0:0:0:
296,216,2808,1,10,0:0:0:0:
256,284,3141,6,0,B|204:352|116:352,2,160,2|2|0,0:0|0:0|0:0,0:0:0:0:
336,288,4808,2,0,B|376:300|416:284,2,80,10|0|10,0:0|0:0|0:0,0:0:0:0:
296,216,5808,6,0,B|340:140|296:64,1,160,2|2,0:0|0:0,0:0:0:0:
220,40,6808,1,10,0:0:0:0:
144,64,7141,2,0,B|100:140|144:216,1,160,0|0,0:0|0:0,0:0:0:0:
220,244,8141,1,10,0:0:0:0:
156,296,8474,6,0,B|116:348|52:348,2,120,10|10|10,0:0|0:0|0:0,0:0:0:0:
276,296,9974,2,0,B|316:348|380:348,1,120,10|10,0:0|0:0,0:0:0:0:
500,244,11141,6,0,B|514:173|449:108|378:122,1,200,14|10,0:0|0:1,0:0:0:0:
312,168,12308,2,0,B|256:200|196:168,1,120,14|10,0:1|0:0,0:0:0:0:
140,112,13141,2,0,B|100:112|64:136,1,80,10|10,0:1|0:0,0:0:0:0:
32,208,13808,6,0,B|17:278|82:343|153:329,1,200,12|10,0:1|0:1,0:0:0:0:
204,268,14974,2,0,B|276:228|360:268,1,160,14|14,0:1|0:1,0:0:0:0:
432,300,15974,1,14,0:1:0:0:
488,244,16308,6,0,B|444:168|488:92,1,160,14|14,0:1|0:1,0:0:0:0:
332,52,17641,2,0,B|256:96|180:52,1,160,14|14,0:1|0:1,0:0:0:0:
68,96,18808,1,10,0:0:0:0:
16,156,19141,6,0,B|16:240|92:288,1,160,14|8,0:1|0:1,0:0:0:0:
168,260,20141,1,8,0:0:0:0:
244,288,20474,2,0,B|320:240|320:156,2,160,2|8|14,0:0|0:1|0:1,0:0:0:0:
168,260,22141,6,0,B|112:188|168:112,1,160,8|10,0:0|0:0,0:0:0:0:
236,72,23141,2,0,B|312:36|392:72,1,160,0|0,0:0|0:0,0:0:0:0:
428,144,24141,1,8,0:0:0:0:
392,216,24474,6,0,B|313:251|237:215,1,160,10|0,0:1|0:0,0:0:0:0:
200,144,25474,1,10,0:0:0:0:
156,76,25808,2,0,B|68:76|20:148,2,160,0|0|10,0:0|0:0|0:1,0:0:0:0:
172,244,27808,6,0,B|220:316|308:316,1,160,0|8,0:0|0:1,0:0:0:0:
388,300,28808,1,8,0:0:0:0:
456,260,29141,2,0,B|480:252|520:192|480:132|456:124,1,160,0|10,0:0|0:1,0:0:0:0:
412,192,30141,6,0,L|332:192,1,80,8|0,0:0|0:0,0:0:0:0:
220,152,30974,2,0,B|184:136|168:92,2,80,0|0|0,0:0|0:0|0:0,0:0:0:0:
260,220,31974,2,0,B|260:280|216:328,1,120,10|14,0:1|0:1,0:0:0:0:
56,352,33141,5,8,0:0:0:0:
0,248,33641,2,0,B|0:188|52:144,1,120,10|8,0:0|0:1,0:0:0:0:
128,172,34474,2,0,B|204:212|284:172,2,160,10|10|10,0:0|0:0|0:0,0:0:0:0:
148,52,36308,6,0,B|204:24|264:52,1,120,10|8,0:0|0:1,0:0:0:0:
324,104,37141,2,0,B|380:168|472:144,1,160,10|10,0:0|0:1,0:0:0:0:
404,288,38474,5,8,0:0:0:0:
296,344,38974,2,0,B|264:288|296:228,1,120,8|10,0:0|0:0,0:0:0:0:
364,184,39808,2,0,B|364:144|332:108,1,80,10|8,0:0|0:1,0:0:0:0:
260,84,40474,6,0,B|184:120|104:84,1,160,10|0,0:0|0:0,0:0:0:0:
20,168,41641,2,0,L|64:236,1,80,12|12,0:1|0:1,0:0:0:0:
144,220,42308,2,0,L|188:288,1,80,12|12,0:1|0:1,0:0:0:0:
292,344,43141,6,0,B|376:344|428:272,1,160,14|0,0:1|0:0,0:0:0:0:
484,216,44141,1,8,0:0:0:0:
440,148,44474,2,0,B|404:132|384:92,1,80,0|8,0:0|0:0,0:0:0:0:
320,44,45141,2,0,B|284:28|240:44,1,80,8|8,0:1|0:0,0:0:0:0:
176,88,45808,6,0,B|136:160|40:160,2,160,8|8|0,0:1|0:1|0:0,0:0:0:0:
252,116,47474,1,8,0:0:0:0:
308,176,47808,2,0,L|388:176,1,80,0|8,0:0|0:0,0:0:0:0:
468,176,48474,6,0,B|508:252|468:332,1,160,12|0,0:1|0:0,0:0:0:0:
396,360,49474,1,8,0:0:0:0:
328,316,49808,2,0,B|276:252|188:252,1,160,0|8,0:0|0:1,0:0:0:0:
108,268,50808,1,8,0:0:0:0:
32,240,51141,6,0,B|-16:164|32:88,2,160,0|0|8,0:0|0:0|0:1,0:0:0:0:
108,268,52808,2,0,L|108:348,2,80,8|8|8,0:0|0:1|0:0,0:0:0:0:
184,240,53808,6,0,B|232:164|184:88,1,160,12|0,0:1|0:0,0:0:0:0:
132,28,54808,2,0,B|164:4|208:12,1,80,8|0,0:0|0:0,0:0:0:0:
276,56,55474,1,8,0:0:0:0:
344,100,55808,2,0,B|384:116|424:100,1,80,0|8,0:0|0:0,0:0:0:0:
472,164,56474,6,0,B|388:192|364:272,1,160,8|8,0:1|0:1,0:0:0:0:
308,332,57474,2,0,L|224:332,1,80,8|0,0:0|0:0,0:0:0:0:
148,332,58141,2,0,B|112:316|100:268,2,80,8|0|8,0:0|0:0|0:0,0:0:0:0:
184,260,59141,6,0,B|228:188|184:108,1,160,12|8,0:1|0:1,0:0:0:0:
184,28,60141,2,0,B|140:32|116:64,2,80,8|0|8,0:0|0:0|0:0,0:0:0:0:
260,60,61141,2,0,B|300:76|340:60,1,80,8|8,0:0|0:0,0:0:0:0:
412,28,61808,6,0,B|456:32|480:64,2,80,12|8|8,0:0|0:0|0:0,0:0:0:0:
339,60,62808,1,8,0:0:0:0:
304,132,63141,2,0,L|364:184,1,80,8|8,0:0|0:0,0:0:0:0:
360,264,63808,2,0,L|300:316,1,80,8|8,0:0|0:0,0:0:0:0:
220,320,64474,6,0,B|156:320|116:268,2,120,14|12|14,0:0|0:0|0:0,0:0:0:0:
256,204,65974,2,0,L|256:80,1,120,14|14,0:0|0:0,0:0:0:0:
404,28,67141,6,0,B|492:60|492:148,1,160,14|8,0:1|0:1,0:0:0:0:
480,228,68141,1,8,0:0:0:0:
432,292,68474,2,0,L|480:360,2,80,0|8|8,0:0|0:0|0:1,0:0:0:0:
360,252,69474,1,8,0:0:0:0:
344,332,69808,6,0,B|268:376|192:332,1,160,8|8,0:1|0:1,0:0:0:0:
156,260,70808,1,8,0:0:0:0:
112,192,71141,2,0,B|96:152|112:112,1,80,0|8,0:0|0:0,0:0:0:0:
192,112,71808,2,0,B|208:152|192:192,1,80,8|8,0:1|0:0,0:0:0:0:
156,260,72474,6,0,B|148:284|84:320|28:284|20:260,1,160,12|8,0:1|0:1,0:0:0:0:
4,180,73474,1,8,0:0:0:0:
20,100,73808,2,0,B|72:32|160:32,1,160,0|8,0:0|0:1,0:0:0:0:
224,80,74808,1,8,0:0:0:0:
288,128,75141,6,0,B|324:180|392:180,2,120,8|2|8,0:1|0:0|0:0,0:0:0:0:
300,48,76474,2,0,B|356:24|416:48,1,120,0|6,0:0|0:0,0:0:0:0:
480,96,77308,1,6,0:0:0:0:
508,212,77808,6,0,B|508:300|432:344,1,160,12|8,0:1|0:1,0:0:0:0:
364,300,78808,1,8,0:0:0:0:
292,264,79141,2,0,B|264:236|220:236,1,80,0|8,0:0|0:0,0:0:0:0:
160,288,79808,2,0,B|124:304|80:288,1,80,8|8,0:1|0:0,0:0:0:0:
20,240,80474,6,0,B|20:156|100:112,1,160,8|8,0:1|0:1,0:0:0:0:
172,144,81474,1,8,0:0:0:0:
236,192,81808,2,0,B|308:236|388:192,2,160,0|0|12,0:0|0:0|0:1,0:0:0:0:
172,144,83474,6,0,L|172:64,2,80,8|8|8,0:0|0:1|0:0,0:0:0:0:
108,192,84474,2,0,B|56:264|108:340,1,160,0|8,0:0|0:1,0:0:0:0:
184,364,85474,1,8,0:0:0:0:
260,340,85808,6,0,B|304:264|392:264,1,160,8|8,0:1|0:1,0:0:0:0:
472,260,86808,1,8,0:0:0:0:
500,184,87141,2,0,B|528:128|500:68,2,120,0|14|8,0:1|0:0|0:0,0:0:0:0:
420,196,88474,6,0,B|348:148|268:196,1,160,12|8,0:1|0:0,0:0:0:0:
176,324,89808,2,0,B|104:372|24:324,1,160,2|10,0:0|0:0,0:0:0:0:
24,164,91141,6,0,B|44:84|136:64,1,160,10|8,0:1|0:0,0:0:0:0:
288,128,92474,2,0,B|364:172|440:128,2,160,0|8|14,0:0|0:0|0:1,0:0:0:0:
136,72,94474,5,8,0:0:0:0:
32,192,95141,2,0,B|32:280|112:320,1,160,0|8,0:0|0:0,0:0:0:0:
256,252,96474,6,0,L|256:172,2,80,10|2|8,0:1|0:0|0:0,0:0:0:0:
400,320,97808,2,0,B|480:280|480:192,1,160,2|8,0:0|0:0,0:0:0:0:
256,192,99141,12,0,102808,0:0:0:0:
