osu file format v14

[General]
AudioFilename: solfa feat. Chata - miracle infinity (Short Ver.).mp3
AudioLeadIn: 0
PreviewTime: 67076
Countdown: 0
SampleSet: Soft
StackLeniency: 0.7
Mode: 0
LetterboxInBreaks: 0
WidescreenStoryboard: 0

[Editor]
Bookmarks: 36910,64576,76743
DistanceSpacing: 1.1
BeatDivisor: 4
GridSize: 4
TimelineZoom: 1

[Metadata]
Title:Miracle infinity
TitleUnicode:ミラクルinfinity
Artist:solfa feat. Chata
ArtistUnicode:solfa feat. 茶太
Creator:Nichiyouki
Version:Normal
Source:ゆめこい~夢見る魔法少女と恋の呪文~
Tags:Parasol opening Yumekoi ~Yume Miru Mahou Shoujo to Koi no Jumon~ nich95 Momochikun japanese pop eroge galgame visual novel video game vn op featured artist fa
BeatmapID:279179
BeatmapSetID:104315

[Difficulty]
HPDrainRate:4
CircleSize:3
OverallDifficulty:3
ApproachRate:5
SliderMultiplier:0.9
SliderTickRate:2

[Events]
//Background and Video events
0,0,"BG.jpg",0,0
Video,0,"Yumekoi ~Yume Miru Mahou Shoujo to Koi no Jumon~ OP.mp4"
//Break Periods
//Storyboard Layer 0 (Background)
//Storyboard Layer 1 (Fail)
//Storyboard Layer 2 (Pass)
//Storyboard Layer 3 (Foreground)
//Storyboard Layer 4 (Overlay)
//Storyboard Sound Samples

[TimingPoints]
568,333.333333333333,4,2,1,50,1,0
11234,-100,4,2,1,70,0,0
21901,-100,4,2,1,50,0,0
24401,-100,4,1,1,40,0,0
24651,-100,4,2,1,50,0,0
27067,-100,4,1,1,40,0,0
27317,-100,4,2,1,50,0,0
29734,-100,4,1,1,40,0,0
29984,-100,4,2,1,50,0,0
32567,-100,4,2,2,50,0,0
35067,-100,4,1,1,50,0,0
35317,-100,4,2,2,50,0,0
37734,-100,4,1,1,50,0,0
37984,-100,4,2,2,50,0,0
40401,-100,4,1,1,40,0,0
41734,-100,4,2,1,60,0,0
43234,-100,4,2,1,70,0,0
44817,-100,4,2,3,70,0,0
44984,-100,4,2,1,70,0,0
46151,-100,4,2,3,70,0,0
46317,-100,4,2,1,70,0,0
48817,-100,4,2,3,70,0,0
48984,-100,4,2,1,70,0,0
50151,-100,4,2,3,70,0,0
50317,-100,4,2,1,70,0,0
51484,-100,4,2,3,70,0,0
51651,-100,4,2,1,70,0,0
54151,-100,4,2,3,70,0,0
54317,-100,4,2,1,70,0,0
56817,-100,4,2,3,70,0,0
56984,-100,4,2,1,70,0,0
59484,-100,4,2,3,70,0,0
59651,-100,4,2,1,70,0,0
60817,-100,4,2,3,70,0,0
60984,-100,4,2,1,70,0,0
61901,-100,4,2,2,70,0,0
67234,-100,4,2,1,80,0,1
72151,-100,4,2,3,80,0,1
72317,-100,4,2,1,80,0,1
76151,-100,4,2,3,80,0,1
76317,-100,4,2,1,80,0,1
77567,-100,4,2,3,60,0,1
77817,-100,4,2,3,60,0,0
77901,-100,4,2,1,80,0,1
82817,-100,4,2,3,80,0,1
82984,-100,4,2,1,80,0,1
84151,-100,4,2,3,80,0,1
84317,-100,4,2,1,80,0,1
86151,-100,4,2,3,80,0,1
86317,-100,4,2,1,80,0,1
88234,-100,4,2,3,50,0,1
88567,-100,4,2,2,70,0,0
93234,-100,4,2,4,70,0,0
93317,-100,4,2,2,70,0,0
95901,-100,4,2,4,70,0,0
95984,-100,4,2,2,70,0,0
97901,-100,4,1,1,30,0,0
98234,-100,4,1,1,40,0,0
98567,-100,4,1,1,50,0,0
98901,-100,4,1,1,60,0,0
99234,-100,4,2,1,70,0,0
99901,-100,4,2,1,65,0,0
100567,-100,4,2,1,60,0,0
100901,-100,4,2,1,55,0,0
101234,-100,4,2,1,50,0,0
101567,-100,4,2,1,45,0,0
101901,-100,4,2,1,40,0,0
102067,-100,4,2,1,35,0,0
102234,-100,4,2,1,30,0,0
102401,-100,4,2,1,20,0,0
102567,-100,4,2,1,10,0,0
102734,-100,4,2,1,5,0,0

[Colours]
Combo1 : 128,128,255
Combo2 : 255,128,192
Combo3 : 0,128,255
Combo4 : 255,128,64

[HitObjects]
140,172,10901,6,0,P|168:136|208:116,1,90,2|4,0:0|0:0,0:0:0:0:
308,116,11567,2,0,P|352:192|308:264,1,180,8|8,0:0|0:0,0:0:0:0:
260,280,12401,2,0,B|220:272|164:292|124:280,1,135,4|8,0:0|0:0,0:0:0:0:
80,192,13234,1,2,0:0:0:0:
124,104,13567,2,0,P|164:96|212:104,1,90,8|4,0:0|0:0,0:0:0:0:
256,192,14234,6,0,P|344:212|416:168,1,180,8|8,0:0|0:0,0:0:0:0:
424,120,15067,2,0,P|400:64|332:36,1,135,4|8,0:0|0:0,0:0:0:0:
288,44,15734,1,2,0:0:0:0:
228,120,16067,1,2,0:0:0:0:
144,68,16401,1,4,0:0:0:0:
108,160,16734,6,0,P|107:186|110:223,1,45,0|8,0:0|0:0,0:0:0:0:
111,254,17067,1,2,0:0:0:0:
196,303,17401,2,0,P|197:277|194:240,1,45,0|8,0:0|0:0,0:0:0:0:
193,209,17734,1,2,0:0:0:0:
188,109,18068,2,0,P|217:110|246:105,2,45,0|8|2,0:0|0:0|0:0,0:0:0:0:
139,22,18734,2,0,P|110:21|81:26,2,45,0|8|0,0:0|0:0|0:0,0:0:0:0:
187,29,19234,6,0,L|278:30,1,90,4|8,0:0|0:0,0:0:0:0:
367,70,19901,1,0,0:0:0:0:
290,132,20234,1,8,0:0:0:0:
329,222,20567,2,0,P|368:223|422:204,2,90,0|4|0,0:0|0:0|0:0,0:0:0:0:
238,262,21567,2,0,L|149:239,1,90,2|4,0:0|0:0,0:0:0:0:
140,140,22234,5,2,0:0:0:0:
228,95,22567,1,2,0:0:0:0:
316,139,22901,1,0,0:0:0:0:
350,232,23234,2,0,P|314:292|254:304,2,135,2|2|0,0:0|0:0|0:0,0:0:0:0:
330,188,24401,2,0,P|318:172|298:156,1,45
200,160,24901,5,2,0:0:0:0:
100,156,25234,2,0,P|68:120|52:80,1,90,0|2,0:0|0:0,0:0:0:0:
148,64,25901,2,0,P|208:40|280:44,2,135,0|2|2,0:0|0:0|0:0,0:0:0:0:
136,112,27067,1,0,0:0:0:0:
160,156,27234,6,0,L|208:232,1,90,0|2,0:0|0:0,0:0:0:0:
308,232,27901,2,0,L|356:156,1,90,0|2,0:0|0:0,0:0:0:0:
352,56,28567,1,0,0:0:0:0:
256,32,28901,1,2,0:0:0:0:
160,56,29234,2,0,P|116:84|96:116,1,90,2|0,0:0|0:0,0:0:0:0:
132,208,29901,6,0,P|92:268|36:292,2,135,0|2|0,0:0|0:0|0:0,0:0:0:0:
168,172,31067,1,2,0:0:0:0:
256,124,31401,1,2,0:0:0:0:
344,172,31734,2,0,P|368:220|392:248,1,90
428,280,32234,2,0,P|384:296|344:316,1,90,2|4,0:0|0:0,0:0:0:0:
252,352,32901,5,0,0:0:0:0:
160,316,33234,2,0,P|136:272|132:232,1,90,8|0,0:0|0:0,0:0:0:0:
128,184,33734,2,0,P|176:144|248:144,1,135,8|0,0:0|0:0,0:0:0:0:
300,228,34567,2,0,P|256:248|208:236,1,90,8|0,0:0|0:0,0:0:0:0:
172,216,35067,2,0,P|148:216|124:224,1,45
84,312,35567,5,0,0:0:0:0:
176,344,35901,2,0,P|224:348|268:344,1,90,8|0,0:0|0:0,0:0:0:0:
312,332,36401,2,0,P|344:280|344:208,1,135,8|0,0:0|0:0,0:0:0:0:
276,136,37234,1,8,0:0:0:0:
276,136,37401,2,0,P|232:140|192:164,1,90
160,200,37901,6,0,P|176:276|220:312,1,135
268,316,38567,2,0,P|336:316|400:336,2,135,8|8|0,0:0|0:0|0:0,0:0:0:0:
171,337,39901,1,8,0:0:0:0:
129,247,40234,1,0,0:0:0:0:
209,189,40567,6,0,L|289:229,1,90
369,169,41234,2,0,L|289:129,1,90
244,106,41734,1,4,0:0:0:0:
149,75,42067,1,4,0:0:0:0:
104,164,42401,1,4,0:0:0:0:
164,244,42734,2,0,P|184:256|208:264,1,45,0|8,0:0|0:0,0:0:0:0:
304,264,43234,6,0,P|336:228|356:188,1,90,4|8,0:0|0:0,0:0:0:0:
296,112,43901,2,0,P|264:148|244:188,1,90,2|8,0:0|0:0,0:0:0:0:
208,276,44567,2,0,P|152:312|84:324,1,135,2|0,0:0|0:0,0:0:0:0:
41,300,45234,1,2,0:0:0:0:
12,205,45567,1,8,0:0:0:0:
96,152,45901,6,0,P|164:136|228:148,1,135,2|0,0:0|0:0,0:0:0:0:
260,184,46567,2,0,P|304:200|348:200,1,90,2|8,0:0|0:0,0:0:0:0:
436,156,47234,1,2,0:0:0:0:
412,60,47567,1,8,0:0:0:0:
316,84,47901,2,0,P|264:84|228:76,1,90,2|8,0:0|0:0,0:0:0:0:
132,48,48567,6,0,P|156:116|152:180,1,135,4|0,0:0|0:0,0:0:0:0:
132,224,49234,2,0,P|180:216|224:220,1,90,2|8,0:0|0:0,0:0:0:0:
300,280,49901,2,0,P|372:296|424:268,1,135,2|0,0:0|0:0,0:0:0:0:
456,228,50567,2,0,L|476:140,1,90,2|8,0:0|0:0,0:0:0:0:
392,84,51234,6,0,L|360:216,1,135,2|0,0:0|0:0,0:0:0:0:
332,256,51901,2,0,P|292:280|248:292,2,90,2|8|2,0:0|0:0|0:0,0:0:0:0:
324,156,52901,1,8,0:0:0:0:
240,104,53234,1,2,0:0:0:0:
152,148,53567,2,0,P|140:168|136:192,1,45,8|8,0:0|0:0,0:0:0:0:
140,240,53901,6,0,P|196:268|268:280,1,135,4|0,0:0|0:0,0:0:0:0:
316,268,54567,1,2,0:0:0:0:
380,192,54901,1,8,0:0:0:0:
316,116,55234,2,0,P|264:112|224:120,1,90,2|8,0:0|0:0,0:0:0:0:
192,212,55901,2,0,P|244:216|284:208,1,90,2|8,0:0|0:0,0:0:0:0:
380,192,56567,6,0,P|416:248|404:312,1,135,2|0,0:0|0:0,0:0:0:0:
372,348,57234,2,0,L|280:360,1,90,2|8,0:0|0:0,0:0:0:0:
244,328,57734,2,0,B|152:344|152:344|128:336|116:320,1,135,2|8,0:0|0:0,0:0:0:0:
80,232,58567,1,2,0:0:0:0:
68,132,58901,2,0,P|80:112|96:96,1,45,8|8,0:0|0:0,0:0:0:0:
140,72,59234,6,0,P|212:76|272:96,1,135,4|0,0:0|0:0,0:0:0:0:
308,128,59901,2,0,L|292:216,1,90,2|8,0:0|0:0,0:0:0:0:
196,244,60567,1,2,0:0:0:0:
196,244,60734,2,0,L|212:156,2,90,0|2|2,0:0|0:0|0:0,0:0:0:0:
168,284,61567,2,0,P|124:300|80:300,1,90,8|4,0:0|0:0,0:0:0:0:
28,216,62234,5,8,0:0:0:0:
96,144,62567,2,0,P|140:140|184:148,1,90,8|8,0:0|0:0,0:0:0:0:
256,216,63234,1,8,0:0:0:0:
328,148,63567,2,0,P|372:140|416:144,1,90,8|8,0:0|0:0,0:0:0:0:
484,216,64234,1,8,0:0:0:0:
404,276,64567,6,0,L|368:304,1,45,4|4,0:0|0:0,0:0:0:0:
276,268,65067,2,0,L|252:308,1,45,4|4,0:0|0:0,0:0:0:0:
164,264,65567,2,0,L|144:224,1,45,4|4,0:0|0:0,0:0:0:0:
216,156,66067,2,0,L|236:116,1,45,4|4,0:0|0:0,0:0:0:0:
324,68,66567,2,0,P|412:68|476:128,1,180,2|4,0:0|0:0,0:0:0:0:
492,224,67567,6,0,P|472:232|452:248,1,45,8|0,0:0|0:0,0:0:0:0:
412,276,67901,2,0,P|356:288|320:284,1,90,2|8,0:0|0:0,0:0:0:0:
228,264,68567,2,0,P|228:212|240:172,2,90,2|8|2,0:0|0:0|0:0,0:0:0:0:
280,348,69567,1,8,0:0:0:0:
368,304,69901,6,0,P|389:264|398:217,1,90,2|8,0:0|0:0,0:0:0:0:
373,177,70401,1,0,0:0:0:0:
350,132,70567,2,0,P|344:87|358:45,1,90,2|8,0:0|0:0,0:0:0:0:
452,14,71234,2,0,P|458:59|444:101,1,90,2|8,0:0|0:0,0:0:0:0:
432,148,71734,2,0,P|476:162|517:178,2,90,2|2|2,0:0|0:0|0:0,0:0:0:0:
385,164,72567,6,0,P|342:172|296:163,1,90,4|8,0:0|0:0,0:0:0:0:
252,140,73067,1,0,0:0:0:0:
232,94,73234,2,0,P|259:63|305:40,1,90,2|8,0:0|0:0,0:0:0:0:
400,52,73901,2,0,L|495:80,1,90,2|8,0:0|0:0,0:0:0:0:
439,164,74567,2,0,L|350:182,1,90,2|8,0:0|0:0,0:0:0:0:
282,109,75234,6,0,P|242:89|198:85,1,90,2|8,0:0|0:0,0:0:0:0:
146,89,75734,1,2,0:0:0:0:
140,188,76067,2,0,P|180:208|224:212,1,90,2|2,0:0|0:0,0:0:0:0:
276,208,76567,2,0,P|320:196|364:192,1,90,0|8,0:0|0:0,0:0:0:0:
412,192,77067,1,4,0:0:0:0:
442,97,77401,2,0,L|414:61,1,45,4|2,0:0|0:0,0:0:0:0:
316,48,77901,6,0,P|272:60|228:64,1,90,4|8,0:0|0:0,0:0:0:0:
180,68,78401,1,0,0:0:0:0:
132,80,78567,2,0,P|104:120|92:160,1,90,2|8,0:0|0:0,0:0:0:0:
108,256,79234,2,0,L|188:300,1,90,2|8,0:0|0:0,0:0:0:0:
268,244,79901,2,0,L|188:200,1,90,2|8,0:0|0:0,0:0:0:0:
201,102,80567,6,0,B|242:127|242:127|262:120|282:117,1,90,2|8,0:0|0:0,0:0:0:0:
332,111,81067,1,0,0:0:0:0:
372,140,81234,2,0,P|408:172|424:212,1,90,2|8,0:0|0:0,0:0:0:0:
376,296,81901,2,0,P|340:264|324:224,1,90,2|8,0:0|0:0,0:0:0:0:
300,184,82401,2,0,P|260:156|220:144,2,90,2|2|2,0:0|0:0|0:0,0:0:0:0:
284,232,83234,5,4,0:0:0:0:
188,264,83567,1,8,0:0:0:0:
148,172,83901,2,0,P|132:104|76:80,1,135,2|0,0:0|0:0,0:0:0:0:
32,100,84567,2,0,P|20:152|24:188,1,90,2|8,0:0|0:0,0:0:0:0:
88,264,85234,1,2,0:0:0:0:
186,265,85567,2,0,P|213:260|234:249,1,45,8|0,0:0|0:0,0:0:0:0:
274,233,85901,6,0,P|346:221|398:253,1,135,2|0,0:0|0:0,0:0:0:0:
408,300,86567,2,0,P|376:332|332:344,1,90,2|8,0:0|0:0,0:0:0:0:
236,336,87234,2,0,P|192:316|168:284,1,90,2|8,0:0|0:0,0:0:0:0:
152,236,87734,5,4,0:0:0:0:
220,164,88067,1,4,0:0:0:0:
284,240,88401,1,0,0:0:0:0:
332,256,88567,6,0,P|380:192|320:132,1,180,4|8,0:0|0:0,0:0:0:0:
124,148,89901,2,0,L|72:224,1,90,2|0,0:0|0:0,0:0:0:0:
136,298,90567,1,8,0:0:0:0:
223,251,90901,1,0,0:0:0:0:
228,152,91234,2,0,P|312:164|348:196,1,135,2|0,0:0|0:0,0:0:0:0:
372,236,91901,2,0,P|396:196|424:164,1,90,8|0,0:0|0:0,0:0:0:0:
496,96,92567,6,0,P|448:88|408:72,1,90,2|0,0:0|0:0,0:0:0:0:
360,88,93067,2,0,P|320:72|272:68,2,90,2|2|0,0:0|0:0|0:0,0:0:0:0:
384,132,93901,6,0,P|400:200|376:260,1,135,4|0,0:0|0:0,0:0:0:0:
336,288,94567,2,0,L|244:288,1,90,8|0,0:0|0:0,0:0:0:0:
204,312,95067,2,0,L|112:312,1,90,2|2,0:0|0:0,0:0:0:0:
72,224,95734,2,0,P|64:184|76:136,2,90,2|2|0,0:0|0:0|0:0,0:0:0:0:
100,264,96567,2,0,P|144:280|188:280,1,90,2|0,0:0|0:0,0:0:0:0:
280,248,97234,2,0,P|304:208|312:164,1,90,8|0,0:0|0:0,0:0:0:0:
256,84,97901,6,0,L|176:44,1,90,2|0,0:2|0:0,0:0:0:0:
152,140,98567,2,0,L|64:164,1,90
256,192,99234,12,0,102734,0:0:0:0:
