osu file format v14

[General]
AudioFilename: solfa feat. Chata - miracle infinity (Short Ver.).mp3
AudioLeadIn: 0
PreviewTime: 67076
Countdown: 0
SampleSet: Soft
StackLeniency: 0.7
Mode: 0
LetterboxInBreaks: 0
WidescreenStoryboard: 0

[Editor]
Bookmarks: 36910,64576,76743
DistanceSpacing: 1.2
BeatDivisor: 4
GridSize: 8
TimelineZoom: 1

[Metadata]
Title:Miracle infinity
TitleUnicode:ミラクルinfinity
Artist:solfa feat. Chata
ArtistUnicode:solfa feat. 茶太
Creator:Nichiyouki
Version:Mochi's Hard
Source:ゆめこい~夢見る魔法少女と恋の呪文~
Tags:Parasol opening Yumekoi ~Yume Miru Mahou Shoujo to Koi no Jumon~ nich95 Momochikun japanese pop eroge galgame visual novel video game vn op featured artist fa
BeatmapID:275035
BeatmapSetID:104315

[Difficulty]
HPDrainRate:6
CircleSize:4
OverallDifficulty:6
ApproachRate:7
SliderMultiplier:1.4
SliderTickRate:1

[Events]
//Background and Video events
0,0,"BG.jpg",0,0
Video,0,"Yumekoi ~Yume Miru Mahou Shoujo to Koi no Jumon~ OP.mp4"
//Break Periods
//Storyboard Layer 0 (Background)
//Storyboard Layer 1 (Fail)
//Storyboard Layer 2 (Pass)
//Storyboard Layer 3 (Foreground)
//Storyboard Layer 4 (Overlay)
//Storyboard Sound Samples

[TimingPoints]
568,333.333333333333,4,2,1,50,1,0
10901,-100,4,2,1,50,0,0
10984,-100,4,2,1,55,0,0
11067,-100,4,2,1,60,0,0
11151,-100,4,2,1,65,0,0
11234,-100,4,2,1,70,0,0
19234,-100,4,2,1,40,0,0
20901,-100,4,2,1,70,0,0
21567,-100,4,2,3,50,0,0
21901,-133.333333333333,4,2,1,50,0,0
24401,-133.333333333333,4,1,1,40,0,0
24651,-133.333333333333,4,2,1,50,0,0
27067,-133.333333333333,4,1,1,40,0,0
27317,-133.333333333333,4,2,1,50,0,0
29734,-133.333333333333,4,1,1,40,0,0
29984,-133.333333333333,4,2,1,50,0,0
32567,-133.333333333333,4,2,2,50,0,0
35067,-133.333333333333,4,1,1,50,0,0
35317,-133.333333333333,4,2,2,50,0,0
37734,-133.333333333333,4,1,1,50,0,0
37984,-133.333333333333,4,2,2,50,0,0
40401,-133.333333333333,4,1,1,50,0,0
41734,-133.333333333333,4,2,1,60,0,0
43234,-100,4,2,1,70,0,0
61901,-100,4,2,2,70,0,0
66734,-100,4,2,2,50,0,0
66817,-100,4,2,2,55,0,0
66901,-100,4,2,2,60,0,0
66984,-100,4,2,2,65,0,0
67067,-100,4,2,2,70,0,0
67151,-100,4,2,2,75,0,0
67234,-100,4,2,1,80,0,1
77567,-100,4,2,3,60,0,1
77817,-100,4,2,3,60,0,0
77901,-100,4,2,1,80,0,1
88234,-100,4,2,3,50,0,1
88567,-133.333333333333,4,2,2,70,0,0
97901,-133.333333333333,4,1,1,30,0,0
98067,-133.333333333333,4,1,1,35,0,0
98234,-133.333333333333,4,1,1,40,0,0
98401,-133.333333333333,4,1,1,45,0,0
98567,-133.333333333333,4,1,1,50,0,0
98734,-133.333333333333,4,1,1,55,0,0
98901,-133.333333333333,4,1,1,60,0,0
99067,-133.333333333333,4,1,1,65,0,0
99234,-133.333333333333,4,2,1,70,0,0
99901,-133.333333333333,4,2,1,65,0,0
100567,-133.333333333333,4,2,1,60,0,0
100901,-133.333333333333,4,2,1,55,0,0
101234,-133.333333333333,4,2,1,50,0,0
101567,-133.333333333333,4,2,1,45,0,0
101901,-133.333333333333,4,2,1,40,0,0
102067,-133.333333333333,4,2,1,35,0,0
102234,-133.333333333333,4,2,1,30,0,0
102401,-133.333333333333,4,2,1,20,0,0
102567,-133.333333333333,4,2,1,10,0,0
102734,-133.333333333333,4,2,1,5,0,0

[Colours]
Combo1 : 128,128,255
Combo2 : 255,128,192
Combo3 : 0,128,255
Combo4 : 255,128,64

[HitObjects]
144,244,10901,6,2,L|128:200,3,35,2|2|2|2,0:0|0:0|0:0|0:0,0:0:0:0:
120,172,11234,6,0,P|160:116|232:104,1,140,4|8,0:0|0:0,0:0:0:0:
300,144,11734,2,0,L|328:208,1,70,2|0,0:0|0:0,0:0:0:0:
411,218,12067,2,0,L|439:282,1,70,2|8,0:0|0:0,0:0:0:0:
350,320,12401,2,0,P|276:324|236:272,1,140,4|0,0:0|0:0,0:0:0:0:
186,174,12901,6,0,P|224:132|300:144,2,140,8|2|8,0:0|0:0|0:0,0:0:0:0:
100,301,13901,1,4,0:0:0:0:
100,301,14067,2,0,L|28:325,1,70,0|8,0:0|0:0,0:0:0:0:
119,197,14401,2,0,L|186:175,1,70,2|0,0:0|0:0,0:0:0:0:
228,248,14734,2,0,L|294:225,1,70,2|8,0:0|0:0,0:0:0:0:
356,284,15067,2,0,B|408:248|452:272|452:272|484:220|444:172,1,210,4|8,0:0|0:0,0:0:0:0:
344,72,15734,5,2,0:0:0:0:
336,84,16067,1,2,0:0:0:0:
328,96,16401,2,0,P|256:116|208:72,1,140,4|0,0:0|0:0,0:0:0:0:
280,28,16901,1,8,0:0:0:0:
173,11,17067,2,0,P|126:63|118:137,1,140,2|2,0:0|0:0,0:0:0:0:
37,105,17567,1,8,0:0:0:0:
72,220,17734,2,0,P|117:181|198:188,1,140,4|0,0:0|0:0,0:0:0:0:
153,280,18234,5,8,0:0:0:0:
230,330,18401,2,0,P|185:369|104:362,1,140,2|2,0:0|0:0,0:0:0:0:
153,280,18901,1,8,0:0:0:0:
194,205,19067,1,2,0:0:0:0:
256,192,19234,12,2,20567,0:0:0:0:
152,96,20901,6,0,L|136:172,1,70,8|0,0:0|0:0,0:0:0:0:
232,276,21234,2,0,L|246:207,1,70,0|0,0:0|0:0,0:0:0:0:
256,116,21567,2,8,L|284:88,3,35,8|8|8|8,0:0|0:0|0:0|0:0,0:0:0:0:
300,64,21901,6,0,P|352:48|404:68,1,105.000004005432,4|2,0:0|0:0,0:0:0:0:
456,232,22567,2,0,L|406:261,1,52.5000020027161,2|0,0:0|0:0,0:0:0:0:
321,245,22901,2,0,L|289:297,1,52.5000020027161,2|0,0:0|0:0,0:0:0:0:
224,344,23234,2,0,P|172:352|116:344,1,105.000004005432,2|2,0:0|0:0,0:0:0:0:
120,256,23734,2,0,P|171:249|223:257,1,105.000004005432,2|2,0:0|0:0,0:0:0:0:
336,276,24234,1,0,0:0:0:0:
412,224,24401,1,0,0:0:0:0:
408,136,24567,6,0,P|344:128|312:104,1,105.000004005432,0|2,0:0|0:0,0:0:0:0:
388,52,25067,1,0,0:0:0:0:
312,104,25234,2,0,P|288:136|280:200,1,105.000004005432,2|2,0:0|0:0,0:0:0:0:
336,276,25734,1,0,0:0:0:0:
336,276,25901,2,0,P|274:295|235:287,1,105.000004005432,2|2,0:0|0:0,0:0:0:0:
172,348,26401,2,0,P|136:293|134:253,1,105.000004005432,2|0,0:0|0:0,0:0:0:0:
160,168,26901,1,0,0:0:0:0:
84,120,27067,1,0,0:0:0:0:
160,168,27234,6,0,P|216:176|280:164,1,105.000004005432,0|0,0:0|0:0,0:0:0:0:
312,96,27734,1,2,0:0:0:0:
312,96,27901,2,0,P|368:88|432:100,2,105.000004005432,2|0|0,0:0|0:0|0:0,0:0:0:0:
256,268,28901,1,0,0:0:0:0:
256,268,29234,2,0,P|308:296|356:280,1,105.000004005432,2|0,0:0|0:0,0:0:0:0:
372,200,29734,1,0,0:0:0:0:
388,112,29901,6,0,P|346:100|294:128,1,105.000004005432,0|0,0:0|0:0,0:0:0:0:
124,112,30567,2,0,P|165:100|217:128,1,105.000004005432,2|0,0:0|0:0,0:0:0:0:
256,208,31067,1,2,0:0:0:0:
132,336,31401,1,2,0:0:0:0:
72,168,31734,1,2,0:0:0:0:
208,284,32067,1,0,0:0:0:0:
136,232,32234,2,0,L|112:127,1,105.000004005432,2|4,0:0|0:0,0:0:0:0:
356,64,32901,6,0,P|404:82|441:129,1,105.000004005432,2|8,0:0|0:0,0:0:0:0:
360,272,33567,1,0,0:0:0:0:
360,272,33734,2,0,L|248:312,2,105.000004005432,8|0|0,0:0|0:0|0:0,0:0:0:0:
444,244,34567,1,8,0:0:0:0:
444,244,34901,2,0,L|424:176,1,52.5000020027161,0|0,0:0|0:0,0:0:0:0:
412,104,35234,6,0,P|352:100|308:136,1,105.000004005432,0|2,0:0|0:0,0:0:0:0:
256,292,35901,1,8,0:0:0:0:
256,292,36067,2,0,L|136:316,1,105.000004005432,0|8,0:0|0:0,0:0:0:0:
64,312,36567,2,0,L|80:236,1,52.5000020027161,2|0,0:0|0:0,0:0:0:0:
140,200,36901,2,0,L|156:124,1,52.5000020027161,2|0,0:0|0:0,0:0:0:0:
168,60,37234,2,0,P|240:36|288:104,1,157.500006008148,8|0,0:0|0:0,0:0:0:0:
264,176,37901,6,0,P|328:175|360:148,1,105.000004005432
220,40,38567,1,8,0:0:0:0:
220,40,38901,1,2,0:0:0:0:
164,108,39067,2,0,B|106:124|106:124|51:104,2,105.000004005432,8|0|0,0:0|0:0|0:0,0:0:0:0:
220,180,39901,1,8,0:0:0:0:
220,180,40234,2,0,P|232:208|248:240,1,52.5000020027161,2|0,0:0|0:0,0:0:0:0:
292,300,40567,6,0,P|336:264|400:244,1,105.000004005432,0|0,0:0|0:0,0:0:0:0:
376,336,41067,1,2,0:2:0:0:
380,247,41234,1,2,0:2:0:0:
328,176,41401,1,0,0:0:0:0:
268,112,41567,6,0,L|220:156,1,52.5000020027161,2|4,0:2|0:0,0:0:0:0:
80,280,42067,1,4,0:0:0:0:
76,80,42401,1,4,0:0:0:0:
80,280,42734,1,4,0:0:0:0:
120,188,42901,2,0,L|152:132,1,52.5000020027161,8|0,0:0|0:0,0:0:0:0:
180,68,43234,6,0,P|248:56|299:100,1,140,4|8,0:0|0:0,0:0:0:0:
376,252,43901,2,0,P|408:236|452:235,2,70,2|0|8,0:0|0:0|0:0,0:0:0:0:
312,308,44401,1,2,0:0:0:0:
312,308,44567,2,0,P|256:352|168:320,1,140,2|8,0:0|0:0,0:0:0:0:
228,264,45067,1,2,0:0:0:0:
156,220,45234,2,0,L|192:148,1,70,2|0,0:0|0:0,0:0:0:0:
108,132,45567,2,0,L|144:60,1,70,8|0,0:0|0:0,0:0:0:0:
224,52,45901,6,0,P|292:38|364:56,2,140,2|8|2,0:0|0:0|0:0,0:0:0:0:
139,69,46734,2,0,P|101:47|82:6,2,70,0|8|0,0:0|0:0|0:0,0:0:0:0:
164,148,47234,2,0,B|136:208|156:248|156:248|140:300,1,140,2|8,0:0|0:0,0:0:0:0:
246,143,47901,2,0,L|290:203,1,70,2|0,0:0|0:0,0:0:0:0:
370,215,48234,2,0,L|414:275,1,70,8|8,0:0|0:0,0:0:0:0:
376,336,48567,6,0,P|416:280|484:268,1,140,4|8,0:0|0:0,0:0:0:0:
460,348,49067,1,2,0:0:0:0:
376,336,49234,2,0,P|320:296|308:228,1,140,2|8,0:0|0:0,0:0:0:0:
392,248,49734,1,2,0:0:0:0:
476,240,49901,2,0,P|436:184|369:171,1,140,2|8,0:0|0:0,0:0:0:0:
392,248,50401,1,2,0:0:0:0:
369,171,50567,2,0,P|398:109|462:85,1,140,2|8,0:0|0:0,0:0:0:0:
292,76,51234,6,0,P|228:112|156:96,1,140,2|8,0:0|0:0,0:0:0:0:
216,36,51734,1,2,0:0:0:0:
165,101,51901,2,0,L|120:164,1,70,2|0,0:0|0:0,0:0:0:0:
172,268,52234,2,0,L|217:205,1,70,8|0,0:0|0:0,0:0:0:0:
272,152,52567,2,0,P|337:148|404:192,2,140,2|8|2,0:0|0:0|0:0,0:0:0:0:
212,211,53401,1,0,0:0:0:0:
134,290,53567,1,8,0:0:0:0:
241,321,53734,1,8,0:0:0:0:
349,238,53901,6,0,L|212:211,1,140,4|8,0:0|0:0,0:0:0:0:
168,140,54401,1,2,0:0:0:0:
84,136,54567,2,0,P|116:76|184:56,2,140,2|8|2,0:0|0:0|0:0,0:0:0:0:
84,304,55567,2,0,P|168:312|216:276,1,140,8|2,0:0|0:0,0:0:0:0:
140,236,56067,1,0,0:0:0:0:
100,160,56234,2,0,L|125:95,1,70,8|0,0:0|0:0,0:0:0:0:
196,48,56567,6,0,P|264:44|308:100,1,140,2|8,0:0|0:0,0:0:0:0:
332,168,57067,2,0,L|300:248,1,70,2|2,0:0|0:0,0:0:0:0:
328,316,57401,1,0,0:0:0:0:
328,316,57567,2,0,P|260:320|222:260,2,140,8|0|8,0:0|0:0|0:0,0:0:0:0:
404,276,58401,1,0,0:0:0:0:
432,196,58567,1,2,0:0:0:0:
396,120,58734,1,0,0:0:0:0:
332,64,58901,2,0,P|293:73|264:100,1,70,8|8,0:0|0:0,0:0:0:0:
232,200,59234,6,0,P|160:216|104:176,1,140,4|8,0:0|0:0,0:0:0:0:
176,132,59734,1,2,0:0:0:0:
124,68,59901,2,0,P|196:52|252:92,1,140,2|8,0:0|0:0,0:0:0:0:
304,148,60401,1,2,0:0:0:0:
368,204,60567,2,0,P|320:260|304:328,2,140,0|8|0,0:0|0:0|0:0,0:0:0:0:
416,135,61401,1,2,0:0:0:0:
416,135,61567,2,0,P|376:114|340:91,1,70,8|2,0:0|0:0,0:0:0:0:
256,8,61901,5,4,0:0:0:0:
256,211,62234,1,8,0:0:0:0:
342,58,62567,1,8,0:0:0:0:
167,160,62901,1,8,0:0:0:0:
342,159,63234,1,8,0:0:0:0:
167,59,63567,1,8,0:0:0:0:
256,211,63901,1,8,0:0:0:0:
256,8,64234,1,8,0:0:0:0:
256,208,64567,5,4,0:0:0:0:
256,208,64734,2,0,L|181:226,1,70,4|0,0:0|0:0,0:0:0:0:
148,336,65067,1,4,0:0:0:0:
148,336,65234,2,0,L|72:318,1,70,4|0,0:0|0:0,0:0:0:0:
20,228,65567,5,4,0:0:0:0:
20,228,65734,2,0,L|34:153,1,70,4|0,0:0|0:0,0:0:0:0:
152,120,66067,1,4,0:0:0:0:
152,120,66234,2,0,B|132:176|166:213|166:213|163:264,1,140,4|4,0:0|0:0,0:0:0:0:
271,314,66734,1,2,0:0:0:0:
271,314,66817,1,2,0:0:0:0:
271,314,66901,2,2,L|300:289,3,35,2|2|2|2,0:0|0:0|0:0|0:0,0:0:0:0:
328,264,67234,6,0,P|392:256|449:311,1,140,4|8,0:0|0:0,0:0:0:0:
356,352,67734,1,2,0:0:0:0:
256,336,67901,2,0,P|192:344|152:284,1,140,2|8,0:0|0:0,0:0:0:0:
228,256,68401,2,0,P|233:221|230:186,1,70,2|2,0:0|0:0,0:0:0:0:
180,120,68734,1,0,0:0:0:0:
256,84,68901,2,0,L|396:64,2,140,8|2|8,0:0|0:0|0:0,0:0:0:0:
172,236,69901,6,0,P|191:295|265:323,1,140,2|8,0:0|0:0,0:0:0:0:
259,238,70401,1,2,0:0:0:0:
347,241,70567,2,0,P|318:173|258:153,1,140,2|8,0:0|0:0,0:0:0:0:
176,132,71067,1,2,0:0:0:0:
116,72,71234,2,0,L|36:96,1,70,2|0,0:0|0:0,0:0:0:0:
100,160,71567,2,0,L|20:184,2,70,8|2|0,0:0|0:0|0:0,0:0:0:0:
176,132,72067,2,0,B|240:88|260:136|332:88,1,140,2|2,0:0|0:0,0:0:0:0:
452,206,72567,6,0,P|385:199|344:252,1,140,4|8,0:0|0:0,0:0:0:0:
424,288,73067,1,2,0:0:0:0:
424,288,73234,2,0,L|364:160,1,140,2|8,0:0|0:0,0:0:0:0:
316,92,73734,1,2,0:0:0:0:
236,64,73901,2,0,P|176:48|96:60,2,140,2|8|2,0:0|0:0|0:0,0:0:0:0:
288,132,74734,2,0,L|272:200,1,70,0|8,0:0|0:0,0:0:0:0:
252,280,75067,5,0,0:0:0:0:
252,280,75151,1,0,0:0:0:0:
252,280,75234,2,0,P|176:292|120:236,1,140,2|8,0:0|0:0,0:0:0:0:
196,204,75734,2,0,P|149:167|73:179,1,140,2|2,0:0|0:0,0:0:0:0:
73,179,76234,1,8,0:0:0:0:
24,112,76401,2,0,P|60:84|104:68,1,70,2|2,0:0|0:0,0:0:0:0:
181,56,76734,1,0,0:0:0:0:
181,56,76817,1,0,0:0:0:0:
181,56,76901,1,8,0:0:0:0:
196,204,77067,5,4,0:0:0:0:
388,69,77401,1,4,0:0:0:0:
316,122,77567,2,8,L|308:160,3,35,8|8|8|8,0:0|0:0|0:0|0:0,0:0:0:0:
324,196,77901,6,0,P|280:244|204:232,1,140,4|8,0:0|0:0,0:0:0:0:
128,212,78401,1,2,0:0:0:0:
128,212,78567,2,0,P|172:164|248:176,1,140,2|8,0:0|0:0,0:0:0:0:
324,196,79067,1,2,0:0:0:0:
372,264,79234,2,0,P|448:256|512:300,2,140,2|8|2,0:0|0:0|0:0,0:0:0:0:
256,140,80234,1,8,0:0:0:0:
108,60,80567,6,0,P|48:96|60:164,1,140,2|8,0:0|0:0,0:0:0:0:
136,140,81067,1,2,0:0:0:0:
234,192,81234,2,0,P|198:132|136:140,1,140,2|8,0:0|0:0,0:0:0:0:
55,158,81734,1,2,0:0:0:0:
84,236,81901,2,0,P|120:296|182:288,1,140,2|8,0:0|0:0,0:0:0:0:
276,268,82401,2,0,L|267:337,1,70,2|0,0:0|0:0,0:0:0:0:
371,292,82734,2,0,L|382:200,1,70,2|8,0:0|0:0,0:0:0:0:
320,113,83067,5,2,0:0:0:0:
320,113,83151,1,0,0:0:0:0:
320,113,83234,2,0,P|392:105|444:161,1,140,4|8,0:0|0:0,0:0:0:0:
316,208,83734,1,2,0:0:0:0:
316,208,83901,2,0,P|376:248|380:324,1,140,2|8,0:0|0:0,0:0:0:0:
312,352,84401,1,2,0:0:0:0:
312,352,84567,2,0,P|251:311|247:235,2,140,2|8|2,0:0|0:0|0:0,0:0:0:0:
404,212,85567,1,8,0:0:0:0:
452,144,85734,1,2,0:0:0:0:
404,212,85901,6,0,P|336:188|296:128,1,140,2|8,0:0|0:0,0:0:0:0:
368,86,86401,1,2,0:0:0:0:
368,86,86567,2,0,P|300:110|251:160,1,140,2|8,0:0|0:0,0:0:0:0:
272,238,87067,1,2,0:0:0:0:
189,311,87234,5,2,0:0:0:0:
114,279,87401,1,0,0:0:0:0:
114,279,87484,1,0,0:0:0:0:
114,279,87567,1,8,0:0:0:0:
82,199,87734,1,4,0:0:0:0:
200,79,88067,1,4,0:0:0:0:
268,132,88234,2,8,L|320:152,3,35,8|8|8|8,0:0|0:0|0:0|0:0,0:0:0:0:
324,168,88567,6,0,P|376:200|428:184,1,105.000004005432,4|2,0:0|0:0,0:0:0:0:
412,64,89234,1,8,0:0:0:0:
412,64,89567,1,0,0:0:0:0:
324,88,89734,1,8,0:0:0:0:
288,172,89901,1,2,0:0:0:0:
340,244,90067,1,8,0:0:0:0:
280,312,90234,2,0,P|224:312|184:272,1,105.000004005432,0|8,0:0|0:0,0:0:0:0:
216,104,90901,5,2,0:0:0:0:
216,104,91234,2,0,L|104:140,2,105.000004005432,2|0|8,0:0|0:0|0:0,0:0:0:0:
312,256,92234,1,0,0:0:0:0:
400,232,92401,2,0,L|424:180,1,52.5000020027161,8|2,0:0|0:0,0:0:0:0:
370,88,92734,2,0,L|348:136,1,52.5000020027161,8|0,0:0|0:0,0:0:0:0:
276,300,93234,1,8,0:0:0:0:
276,300,93567,1,0,0:0:0:0:
188,280,93734,1,10,0:0:0:0:
112,232,93901,6,0,P|128:184|184:156,1,105.000004005432,4|2,0:0|0:0,0:0:0:0:
276,300,94567,1,8,0:0:0:0:
256,124,94901,1,2,0:0:0:0:
324,64,95067,2,0,L|368:28,2,52.5000020027161,10|0|10,0:0|0:0|0:0,0:0:0:0:
256,124,95567,2,0,P|300:156|368:152,1,105.000004005432,0|8,0:0|0:0,0:0:0:0:
386,333,96234,5,0,0:0:0:0:
433,257,96401,1,2,0:0:0:0:
482,183,96567,1,2,0:0:0:0:
430,11,96901,2,0,L|314:35,1,105.000004005432,2|8,0:0|0:0,0:0:0:0:
256,200,97567,1,2,0:0:0:0:
256,200,97901,6,0,L|256:264,1,52.5000020027161,2|2,0:2|0:2,0:0:0:0:
156,312,98234,2,0,L|156:259,1,52.5000020027161,0|2,0:0|0:2,0:0:0:0:
356,312,98567,2,0,L|356:259,1,52.5000020027161,0|2,0:0|0:2,0:0:0:0:
256,200,98901,2,0,L|256:147,1,52.5000020027161,0|2,0:0|0:2,0:0:0:0:
256,40,99234,5,4,0:0:0:0:
256,192,99317,12,0,102734,0:0:0:0:
