osu file format v14

[General]
AudioFilename: solfa feat. Chata - miracle infinity (Short Ver.).mp3
AudioLeadIn: 0
PreviewTime: 67076
Countdown: 0
SampleSet: Soft
StackLeniency: 0.7
Mode: 0
LetterboxInBreaks: 0
WidescreenStoryboard: 0

[Editor]
DistanceSpacing: 1
BeatDivisor: 4
GridSize: 4
TimelineZoom: 2.899999

[Metadata]
Title:Miracle infinity
TitleUnicode:ミラクルinfinity
Artist:solfa feat. Chata
ArtistUnicode:solfa feat. 茶太
Creator:Nichiyouki
Version:Insane
Source:ゆめこい~夢見る魔法少女と恋の呪文~
Tags:Parasol opening Yumekoi ~Yume Miru Mahou Shoujo to Koi no Jumon~ nich95 Momochikun japanese pop eroge galgame visual novel video game vn op featured artist fa
BeatmapID:274391
BeatmapSetID:104315

[Difficulty]
HPDrainRate:7
CircleSize:4
OverallDifficulty:7
ApproachRate:9
SliderMultiplier:1.8
SliderTickRate:2

[Events]
//Background and Video events
0,0,"BG.jpg",0,0
Video,0,"Yumekoi ~Yume Miru Mahou Shoujo to Koi no Jumon~ OP.mp4"
//Break Periods
//Storyboard Layer 0 (Background)
//Storyboard Layer 1 (Fail)
//Storyboard Layer 2 (Pass)
//Storyboard Layer 3 (Foreground)
//Storyboard Layer 4 (Overlay)
//Storyboard Sound Samples

[TimingPoints]
568,333.333333333333,4,2,1,50,1,0
10984,-100,4,2,1,55,0,0
11067,-100,4,2,1,60,0,0
11151,-100,4,2,1,65,0,0
11234,-100,4,2,1,70,0,0
21567,-100,4,2,3,50,0,0
21901,-133.333333333333,4,2,1,60,0,0
21984,-133.333333333333,4,2,1,50,0,0
24401,-133.333333333333,4,1,1,40,0,0
24651,-133.333333333333,4,2,1,50,0,0
27067,-133.333333333333,4,1,1,40,0,0
27317,-133.333333333333,4,2,1,50,0,0
29734,-133.333333333333,4,1,1,40,0,0
29984,-133.333333333333,4,2,1,50,0,0
32567,-133.333333333333,4,2,2,60,0,0
35067,-133.333333333333,4,1,1,50,0,0
35317,-133.333333333333,4,2,2,60,0,0
37734,-133.333333333333,4,1,1,50,0,0
37984,-133.333333333333,4,2,2,60,0,0
40401,-133.333333333333,4,1,1,50,0,0
40651,-133.333333333333,4,2,1,60,0,0
43234,-100,4,2,1,70,0,0
61901,-100,4,2,2,70,0,0
66734,-100,4,2,2,50,0,0
66817,-100,4,2,2,55,0,0
66901,-100,4,2,2,60,0,0
66984,-100,4,2,2,65,0,0
67067,-100,4,2,2,70,0,0
67151,-100,4,2,2,75,0,0
67234,-100,4,2,1,80,0,1
77567,-100,4,2,3,60,0,1
77817,-100,4,2,3,60,0,0
77901,-100,4,2,1,80,0,1
88234,-100,4,2,3,50,0,1
88567,-133.333333333333,4,2,2,70,0,0
97901,-133.333333333333,4,1,1,30,0,0
98067,-133.333333333333,4,1,1,35,0,0
98234,-133.333333333333,4,1,1,40,0,0
98401,-133.333333333333,4,1,1,45,0,0
98567,-133.333333333333,4,1,1,50,0,0
98734,-133.333333333333,4,1,1,55,0,0
98901,-133.333333333333,4,1,1,60,0,0
99067,-133.333333333333,4,1,1,65,0,0
99234,-133.333333333333,4,2,1,70,0,0
99901,-133.333333333333,4,2,1,65,0,0
100567,-133.333333333333,4,2,1,60,0,0
100901,-133.333333333333,4,2,1,55,0,0
101234,-133.333333333333,4,2,1,50,0,0
101567,-133.333333333333,4,2,1,45,0,0
101901,-133.333333333333,4,2,1,40,0,0
102067,-133.333333333333,4,2,1,35,0,0
102234,-133.333333333333,4,2,1,30,0,0
102401,-133.333333333333,4,2,1,20,0,0
102567,-133.333333333333,4,2,1,10,0,0
102734,-133.333333333333,4,2,1,5,0,0

[Colours]
Combo1 : 128,128,255
Combo2 : 255,128,192
Combo3 : 0,128,255
Combo4 : 255,128,64

[HitObjects]
172,92,10901,5,2,0:0:0:0:
160,104,10984,1,2,0:0:0:0:
148,116,11067,1,2,0:0:0:0:
136,128,11151,1,2,0:0:0:0:
124,140,11234,6,0,P|124:212|152:268,1,135,4|0,0:0|0:0,0:0:0:0:
208,312,11567,2,0,L|300:324,1,90,8|2,0:0|0:0,0:0:0:0:
408,224,11901,2,0,L|316:212,1,90,0|2,0:0|0:0,0:0:0:0:
172,228,12234,1,8,0:0:0:0:
240,152,12401,2,0,P|240:76|156:32,1,180,4|0,0:0|0:0,0:0:0:0:
172,228,12901,6,0,P|172:304|256:348,1,180,8|2,0:0|0:0,0:0:0:0:
396,308,13401,1,0,0:0:0:0:
416,164,13567,2,0,L|428:72,1,90,8|0,0:0|0:0,0:0:0:0:
292,244,13901,5,4,0:0:0:0:
292,244,14067,2,0,L|272:156,1,90,0|8,0:0|0:0,0:0:0:0:
152,140,14401,2,0,L|172:228,1,90,2|0,0:0|0:0,0:0:0:0:
196,344,14734,1,2,0:0:0:0:
76,220,14901,1,8,0:0:0:0:
272,156,15067,2,0,P|256:72|184:16,1,180,4|0,0:0|0:0,0:0:0:0:
56,104,15567,1,8,0:0:0:0:
180,244,15734,5,2,0:0:0:0:
196,248,16067,5,2,0:0:0:0:
212,252,16401,5,4,0:0:0:0:
380,144,16734,6,0,P|392:96|388:52,1,90,0|8,0:0|0:0,0:0:0:0:
276,168,17067,2,0,P|312:224|376:248,1,135,2|0,0:0|0:0,0:0:0:0:
448,232,17401,2,0,L|432:320,1,90,2|8,0:0|0:0,0:0:0:0:
256,344,17734,6,0,P|248:276|152:232,1,180,4|0,0:0|0:0,0:0:0:0:
116,324,18234,1,8,0:0:0:0:
320,232,18401,2,0,P|352:164|328:112,1,135,2|0,0:0|0:0,0:0:0:0:
260,92,18734,2,0,P|224:112|204:156,1,90,2|8,0:0|0:0,0:0:0:0:
192,296,19067,1,2,0:0:0:0:
84,204,19234,6,0,P|44:180|0:172,2,90,4|0|8,0:0|0:0|0:0,0:0:0:0:
116,324,19734,1,2,0:0:0:0:
196,208,19901,2,0,P|188:160|168:124,2,90,0|0|8,0:0|0:0|0:0,0:0:0:0:
200,348,20401,5,2,0:0:0:0:
200,348,20484,1,0,0:0:0:0:
200,348,20567,2,0,P|264:332|332:336,1,135,2|0,0:0|0:0,0:0:0:0:
404,352,20901,2,0,P|448:348|484:320,2,90,8|0|0,0:0|0:0|0:0,0:0:0:0:
280,252,21401,1,0,0:0:0:0:
308,112,21567,1,8,0:0:0:0:
324,96,21651,1,8,0:0:0:0:
344,84,21734,1,8,0:0:0:0:
368,80,21817,1,8,0:0:0:0:
392,80,21901,6,0,L|480:136,1,101.250003862381,4|0,0:0|0:0,0:0:0:0:
492,152,22234,2,0,P|474:217|430:265,1,135.000005149842,2|2,0:0|0:0,0:0:0:0:
180,264,22901,2,0,P|197:198|216:172,1,101.250003862381,2|0,0:0|0:0,0:0:0:0:
232,156,23234,2,0,L|164:140,2,67.5000025749208,2|0|2,0:0|0:0|0:0,0:0:0:0:
368,152,23734,2,0,P|400:100|408:28,2,135.000005149842,2|2|0,0:0|0:0|0:0,0:0:0:0:
256,272,24567,1,0,0:0:0:0:
248,260,24901,5,2,0:0:0:0:
172,216,25067,1,0,0:0:0:0:
96,260,25234,2,0,P|64:252|36:232,1,67.5000025749208,2|0,0:0|0:0,0:0:0:0:
60,148,25567,2,0,P|56:112|60:80,1,67.5000025749208,2|0,0:0|0:0,0:0:0:0:
140,64,25901,1,2,0:0:0:0:
212,112,26067,1,0,0:0:0:0:
264,40,26234,1,2,0:0:0:0:
344,80,26401,2,0,P|412:96|472:72,2,135.000005149842,2|0|0,0:0|0:0|0:0,0:0:0:0:
180,192,27234,6,0,P|168:252|112:300,1,135.000005149842
36,224,27734,1,2,0:0:0:0:
200,96,27901,2,0,P|256:136|276:196,1,135.000005149842,2|0,0:0|0:0,0:0:0:0:
220,304,28401,1,2,0:0:0:0:
328,296,28567,2,0,P|392:304|456:336,1,135.000005149842,0|0,0:0|0:0,0:0:0:0:
268,204,29234,6,0,P|204:196|140:164,1,135.000005149842,2|0,0:0|0:0,0:0:0:0:
188,20,29734,1,0,0:0:0:0:
188,20,29901,2,0,P|252:28|316:60,1,135.000005149842
336,144,30401,1,2,0:0:0:0:
360,228,30567,2,0,P|416:252|488:264,1,135.000005149842,2|0,0:0|0:0,0:0:0:0:
324,312,31067,2,0,P|256:304|188:312,1,135.000005149842,2|2,0:0|0:0,0:0:0:0:
152,232,31567,1,0,0:0:0:0:
64,244,31734,2,0,P|40:308|48:372,1,135.000005149842,2|0,0:0|0:0,0:0:0:0:
152,232,32234,2,0,P|168:196|172:168,1,67.5000025749208,2|0,0:0|0:0,0:0:0:0:
160,36,32567,6,0,P|216:72|284:84,1,135.000005149842,4|2,0:0|0:0,0:0:0:0:
348,24,33067,1,0,0:0:0:0:
272,164,33234,2,0,P|340:180|404:172,1,135.000005149842,8|0,0:0|0:0,0:0:0:0:
456,100,33734,1,8,0:0:0:0:
456,100,34067,1,0,0:0:0:0:
348,24,34234,1,2,0:0:0:0:
232,88,34401,2,0,P|196:92|160:88,1,67.5000025749208,0|8,0:0|0:0,0:0:0:0:
64,64,34734,2,0,P|96:128|100:192,1,135.000005149842,2|0,0:0|0:0,0:0:0:0:
12,340,35234,1,0,0:0:0:0:
0,348,35567,5,2,0:0:0:0:
96,284,35734,1,0,0:0:0:0:
208,312,35901,2,0,P|244:320|276:320,1,67.5000025749208,8|0,0:0|0:0,0:0:0:0:
384,224,36234,2,0,P|368:260|352:284,1,67.5000025749208,2|8,0:0|0:0,0:0:0:0:
304,172,36567,2,0,P|272:184|236:188,1,67.5000025749208,2|0,0:0|0:0,0:0:0:0:
160,96,36901,1,2,0:0:0:0:
320,72,37067,2,0,P|352:84|380:104,1,67.5000025749208,0|8,0:0|0:0,0:0:0:0:
464,192,37401,2,0,P|472:128|456:60,1,135.000005149842,2|0,0:0|0:0,0:0:0:0:
304,172,37901,6,0,P|296:236|312:304,1,135.000005149842,0|0,0:0|0:0,0:0:0:0:
388,348,38401,1,2,0:0:0:0:
232,332,38567,2,0,B|172:324|152:340|96:332,1,135.000005149842,8|2,0:0|0:0,0:0:0:0:
0,248,39067,2,0,P|40:244|80:252,1,67.5000025749208,8|0,0:0|0:0,0:0:0:0:
160,136,39401,2,0,P|156:168|144:200,2,67.5000025749208,0|2|0,0:0|0:0|0:0,0:0:0:0:
232,332,39901,2,0,P|232:264|256:200,1,135.000005149842,8|2,0:0|0:0,0:0:0:0:
388,216,40401,5,0,0:0:0:0:
388,216,40567,2,0,P|388:284|364:348,1,135.000005149842
232,332,41067,1,2,0:0:0:0:
232,332,41234,2,0,P|232:264|256:200,1,135.000005149842,2|2,0:0|0:0,0:0:0:0:
284,168,41651,5,0,0:0:0:0:
284,168,41734,1,4,0:0:0:0:
464,304,42067,1,4,0:0:0:0:
432,80,42401,1,4,0:0:0:0:
296,308,42734,2,0,P|264:324|232:332,2,67.5000025749208,4|8|0,0:0|0:0|0:0,0:0:0:0:
284,168,43234,6,0,P|236:152|196:152,2,90,4|0|8,0:0|0:0|0:0,0:0:0:0:
372,232,43734,1,2,0:0:0:0:
396,124,43901,2,0,P|372:84|332:56,1,90,2|0,0:0|0:0,0:0:0:0:
128,56,44234,2,0,P|152:96|192:124,1,90,8|2,0:0|0:0,0:0:0:0:
372,232,44567,6,0,P|296:232|252:268,1,135,2|0,0:0|0:0,0:0:0:0:
228,336,44901,2,0,P|176:328|136:332,1,90,8|2,0:0|0:0,0:0:0:0:
32,356,45234,1,2,0:0:0:0:
104,236,45401,1,0,0:0:0:0:
228,336,45567,2,0,P|256:300|264:256,1,90,8|0,0:0|0:0,0:0:0:0:
220,148,45901,6,0,P|280:180|348:180,1,135,2|0,0:0|0:0,0:0:0:0:
408,144,46234,2,0,P|420:100|412:56,1,90,8|2,0:0|0:0,0:0:0:0:
220,148,46567,2,0,P|232:188|264:224,2,90,2|0|8,0:0|0:0|0:0,0:0:0:0:
256,48,47067,1,0,0:0:0:0:
120,112,47234,6,0,P|72:104|8:40,1,135,2|0,0:0|0:0,0:0:0:0:
8,24,47567,2,0,L|20:120,1,90,8|0,0:0|0:0,0:0:0:0:
44,256,47901,1,2,0:0:0:0:
112,172,48067,2,0,L|142:132,2,45,0|2|8,0:0|0:0|0:0,0:0:0:0:
112,300,48401,1,8,0:0:0:0:
236,304,48567,6,0,P|284:272|312:200,1,135,4|0,0:0|0:0,0:0:0:0:
292,132,48901,2,0,P|336:136|384:128,1,90,8|2,0:0|0:0,0:0:0:0:
212,204,49234,2,0,P|168:200|122:207,2,90,2|0|8,0:0|0:0|0:0,0:0:0:0:
236,304,49734,1,2,0:0:0:0:
140,108,49901,6,0,P|208:108|272:124,1,135,2|0,0:0|0:0,0:0:0:0:
320,180,50234,2,0,P|324:224|316:268,1,90,8|2,0:0|0:0,0:0:0:0:
140,256,50567,2,0,P|180:232|212:204,1,90,2|0,0:0|0:0,0:0:0:0:
140,108,50901,1,8,0:0:0:0:
52,220,51067,1,0,0:0:0:0:
156,336,51234,6,0,P|212:308|268:260,1,135,2|0,0:0|0:0,0:0:0:0:
304,200,51567,2,0,P|328:240|360:272,1,90,8|2,0:0|0:0,0:0:0:0:
460,172,51901,2,0,P|472:128|472:84,1,90,2|0,0:0|0:0,0:0:0:0:
344,36,52234,1,8,0:0:0:0:
248,132,52401,1,0,0:0:0:0:
120,84,52567,6,0,P|60:84|16:140,1,135,2|0,0:0|0:0,0:0:0:0:
12,160,52901,1,8,0:0:0:0:
76,248,53067,1,0,0:0:0:0:
184,228,53234,2,0,P|228:224|276:228,2,90,2|0|8,0:0|0:0|0:0,0:0:0:0:
140,320,53734,1,8,0:0:0:0:
96,164,53901,6,0,P|160:148|228:144,1,135,4|0,0:0|0:0,0:0:0:0:
300,156,54234,2,0,P|332:188|360:228,1,90,8|2,0:0|0:0,0:0:0:0:
416,328,54567,2,0,P|432:280|452:248,1,90,2|0,0:0|0:0,0:0:0:0:
496,160,54901,1,8,0:0:0:0:
348,240,55067,1,0,0:0:0:0:
200,192,55234,6,0,P|160:240|144:312,1,135,2|0,0:0|0:0,0:0:0:0:
144,332,55567,2,0,P|112:304|68:284,1,90,8|0,0:0|0:0,0:0:0:0:
280,161,55901,2,0,P|280:206|264:248,1,90,2|0,0:0|0:0,0:0:0:0:
416,328,56234,2,0,P|460:316|496:288,1,90,8|0,0:0|0:0,0:0:0:0:
440,132,56567,6,0,P|376:144|324:188,1,135,2|0,0:0|0:0,0:0:0:0:
308,204,56901,2,0,P|300:160|284:116,1,90,8|2,0:0|0:0,0:0:0:0:
84,64,57234,2,0,P|92:108|108:152,2,90,2|0|8,0:0|0:0|0:0,0:0:0:0:
188,92,57734,2,0,P|232:104|276:108,1,90,2|0,0:0|0:0,0:0:0:0:
452,88,58067,5,0,0:0:0:0:
452,88,58234,2,0,P|408:76|364:72,1,90,8|0,0:0|0:0,0:0:0:0:
384,188,58567,2,0,P|336:192|296:204,1,90,2|0,0:0|0:0,0:0:0:0:
240,248,58817,1,0,0:0:0:0:
240,248,58901,2,0,P|192:260|152:264,1,90,8|8,0:0|0:0,0:0:0:0:
100,108,59234,6,0,P|160:92|232:88,1,135,4|0,0:0|0:0,0:0:0:0:
304,100,59567,2,0,P|332:136|352:176,1,90,8|2,0:0|0:0,0:0:0:0:
484,236,59901,2,0,P|456:200|436:160,1,90,2|0,0:0|0:0,0:0:0:0:
448,52,60234,1,8,0:0:0:0:
352,176,60401,1,2,0:0:0:0:
232,56,60567,1,0,0:0:0:0:
100,108,60734,6,0,P|84:152|88:196,1,90,2|8,0:0|0:0,0:0:0:0:
192,260,61067,1,2,0:0:0:0:
232,56,61234,1,0,0:0:0:0:
352,176,61401,2,0,P|392:160|428:128,2,90,2|8|2,0:0|0:0|0:0,0:0:0:0:
192,260,61901,5,4,0:0:0:0:
192,260,62234,2,0,L|172:168,1,90,8|0,0:0|0:0,0:0:0:0:
320,260,62567,2,0,L|340:168,1,90,8|0,0:0|0:0,0:0:0:0:
200,72,62901,2,0,L|116:36,1,90,8|0,0:0|0:0,0:0:0:0:
312,72,63234,2,0,B|396:36|396:36|440:52|456:96,1,180,8|8,0:0|0:0,0:0:0:0:
412,192,63734,1,0,0:0:0:0:
396,348,63901,2,0,P|432:328|456:287,2,90,8|0|8,0:0|0:0|0:0,0:0:0:0:
256,312,64401,1,0,0:0:0:0:
116,348,64567,5,4,0:0:0:0:
64,252,64734,2,0,P|104:180|196:168,1,180,4|4,0:0|0:0,0:0:0:0:
448,252,65234,2,0,P|408:180|316:168,1,180,4|4,0:0|0:0,0:0:0:0:
204,268,65734,2,0,P|152:332|60:328,1,180,4|4,0:0|0:0,0:0:0:0:
308,268,66234,2,0,P|360:332|452:328,1,180,4|4,0:0|0:0,0:0:0:0:
476,184,66734,1,2,0:0:0:0:
460,168,66817,1,2,0:0:0:0:
444,152,66901,1,2,0:0:0:0:
428,136,66984,1,2,0:0:0:0:
412,120,67067,1,2,0:0:0:0:
396,104,67151,1,2,0:0:0:0:
380,88,67234,6,0,P|320:68|248:72,1,135,4|0,0:0|0:0,0:0:0:0:
192,116,67567,2,0,P|180:160|184:208,1,90,8|2,0:0|0:0,0:0:0:0:
280,336,67901,1,2,0:0:0:0:
116,288,68067,1,0,0:0:0:0:
116,288,68151,1,0,0:0:0:0:
116,288,68234,1,8,0:0:0:0:
304,236,68401,1,2,0:0:0:0:
192,116,68567,6,0,L|104:92,1,90,2|0,0:0|0:0,0:0:0:0:
320,108,68901,2,0,L|408:132,1,90,8|0,0:0|0:0,0:0:0:0:
252,32,69234,1,2,0:0:0:0:
200,216,69401,1,0,0:0:0:0:
132,28,69567,1,8,0:0:0:0:
96,144,69734,1,0,0:0:0:0:
292,144,69901,6,0,P|344:188|364:252,1,135,2|0,0:0|0:0,0:0:0:0:
360,324,70234,2,0,P|404:312|448:312,1,90,8|2,0:0|0:0,0:0:0:0:
252,292,70567,2,0,P|244:248|252:204,1,90,2|0,0:0|0:0,0:0:0:0:
292,144,70817,1,0,0:0:0:0:
292,144,70901,2,0,P|300:104|292:56,1,90,8|2,0:0|0:0,0:0:0:0:
136,184,71234,6,0,P|152:232|180:260,2,90,2|0|8,0:0|0:0|0:0,0:0:0:0:
232,68,71734,2,0,L|320:52,1,90,2|0,0:0|0:0,0:0:0:0:
116,60,72067,2,0,L|28:76,1,90,2|8,0:0|0:0,0:0:0:0:
136,184,72401,1,2,0:0:0:0:
136,184,72484,1,0,0:0:0:0:
136,184,72567,6,0,B|80:256|80:256|80:284|92:304,1,135,4|0,0:0|0:0,0:0:0:0:
132,356,72901,2,0,P|176:360|224:356,1,90,8|2,0:0|0:0,0:0:0:0:
352,232,73234,1,2,0:0:0:0:
312,372,73401,1,0,0:0:0:0:
256,188,73567,1,8,0:0:0:0:
180,288,73734,1,2,0:0:0:0:
168,120,73901,6,0,P|124:132|80:132,1,90,2|0,0:0|0:0,0:0:0:0:
292,140,74234,2,0,P|336:128|380:128,1,90,8|0,0:0|0:0,0:0:0:0:
220,252,74567,2,0,P|176:264|132:264,1,90,2|0,0:0|0:0,0:0:0:0:
16,160,74901,1,8,0:0:0:0:
168,120,75067,1,0,0:0:0:0:
320,264,75234,6,0,P|276:320|216:344,1,135,2|0,0:0|0:0,0:0:0:0:
148,324,75567,2,0,P|120:288|104:244,1,90,8|2,0:0|0:0,0:0:0:0:
168,120,75901,1,0,0:0:0:0:
220,252,76067,1,2,0:0:0:0:
16,160,76234,1,8,0:0:0:0:
148,324,76401,1,2,0:0:0:0:
252,160,76567,6,0,P|252:88|216:40,1,135,2|0,0:0|0:0,0:0:0:0:
144,28,76901,2,0,P|104:48|76:84,1,90,8|4,0:0|0:0,0:0:0:0:
256,356,77401,1,4,0:0:0:0:
336,320,77567,1,8,0:0:0:0:
352,304,77651,1,8,0:0:0:0:
368,288,77734,1,8,0:0:0:0:
384,272,77817,1,8,0:0:0:0:
400,256,77901,6,0,P|416:192|400:124,1,135,4|0,0:0|0:0,0:0:0:0:
344,80,78234,2,0,P|296:72|256:76,1,90,8|2,0:0|0:0,0:0:0:0:
104,172,78567,1,2,0:0:0:0:
144,28,78734,1,0,0:0:0:0:
144,28,78817,1,0,0:0:0:0:
144,28,78901,1,8,0:0:0:0:
216,208,79067,1,2,0:0:0:0:
332,212,79234,6,0,L|408:160,1,90,2|0,0:0|0:0,0:0:0:0:
216,208,79567,2,0,L|140:260,1,90,8|0,0:0|0:0,0:0:0:0:
288,132,79901,2,0,P|312:92|316:48,1,90,2|0,0:0|0:0,0:0:0:0:
264,288,80234,2,0,P|240:328|236:372,1,90,8|0,0:0|0:0,0:0:0:0:
432,196,80567,6,0,P|456:140|448:68,1,135,2|0,0:0|0:0,0:0:0:0:
384,32,80901,2,0,P|336:36|296:52,1,90,8|2,0:0|0:0,0:0:0:0:
232,204,81234,1,2,0:0:0:0:
192,80,81401,1,0,0:0:0:0:
192,80,81484,1,0,0:0:0:0:
192,80,81567,1,8,0:0:0:0:
324,192,81734,1,2,0:0:0:0:
432,192,81901,6,0,L|508:140,1,90,2|0,0:0|0:0,0:0:0:0:
324,192,82234,2,0,L|248:244,1,90,8|2,0:0|0:0,0:0:0:0:
88,328,82567,1,0,0:0:0:0:
220,368,82734,1,2,0:0:0:0:
84,212,82901,1,8,0:0:0:0:
220,172,83067,1,2,0:0:0:0:
240,160,83151,1,0,0:0:0:0:
260,148,83234,6,0,P|328:152|396:148,1,135,4|0,0:0|0:0,0:0:0:0:
464,128,83567,2,0,P|456:172|460:216,1,90,8|2,0:0|0:0,0:0:0:0:
504,352,83901,1,2,0:0:0:0:
360,256,84067,1,0,0:0:0:0:
360,256,84151,1,0,0:0:0:0:
360,256,84234,1,8,0:0:0:0:
256,348,84401,1,2,0:0:0:0:
168,284,84567,6,0,P|152:240|148:196,1,90,2|0,0:0|0:0,0:0:0:0:
168,128,84817,1,0,0:0:0:0:
168,128,84901,2,0,L|252:96,1,90,8|2,0:0|0:0,0:0:0:0:
436,64,85234,2,0,L|352:96,1,90,2|0,0:0|0:0,0:0:0:0:
184,36,85567,1,8,0:0:0:0:
92,188,85734,1,2,0:0:0:0:
256,260,85901,6,0,P|296:212|304:140,1,135,2|0,0:0|0:0,0:0:0:0:
264,80,86234,2,0,L|184:36,2,90,8|2|2,0:0|0:0|0:0,0:0:0:0:
424,184,86734,1,0,0:0:0:0:
424,184,86817,1,0,0:0:0:0:
424,184,86901,1,8,0:0:0:0:
360,64,87067,1,2,0:0:0:0:
316,244,87234,6,0,P|272:292|204:304,1,135,2|0,0:0|0:0,0:0:0:0:
184,304,87567,1,8,0:0:0:0:
92,248,87734,1,4,0:0:0:0:
360,64,88067,1,4,0:0:0:0:
440,104,88234,1,8,0:0:0:0:
456,120,88317,1,8,0:0:0:0:
472,136,88401,1,8,0:0:0:0:
488,152,88484,1,8,0:0:0:0:
504,168,88567,6,0,P|504:208|496:240,1,67.5000025749208,4|0,0:0|0:0,0:0:0:0:
324,320,88901,2,0,P|324:280|332:248,1,67.5000025749208,2|0,0:0|0:0,0:0:0:0:
440,104,89234,2,0,P|372:120|304:108,1,135.000005149842,8|0,0:0|0:0,0:0:0:0:
168,36,89734,1,0,0:0:0:0:
208,120,89901,6,0,P|220:152|224:184,1,67.5000025749208,2|0,0:0|0:0,0:0:0:0:
140,228,90234,2,0,P|128:256|104:288,1,67.5000025749208,0|0,0:0|0:0,0:0:0:0:
232,320,90567,2,0,P|260:340|296:352,1,67.5000025749208,8|0,0:0|0:0,0:0:0:0:
356,280,90901,2,0,P|392:280|424:272,1,67.5000025749208,2|0,0:0|0:0,0:0:0:0:
448,104,91234,6,0,P|380:96|312:120,1,135.000005149842,2|0,0:0|0:0,0:0:0:0:
220,220,91734,1,0,0:0:0:0:
156,56,91901,1,8,0:0:0:0:
156,56,92234,1,0,0:0:0:0:
92,128,92401,1,0,0:0:0:0:
128,216,92567,6,0,P|132:272|116:316,1,101.250003862381,2|0,0:0|0:0,0:0:0:0:
100,332,92901,1,0,0:0:0:0:
232,304,93067,2,0,P|268:296|300:292,1,67.5000025749208,2|8,0:0|0:0,0:0:0:0:
468,312,93401,1,2,0:0:0:0:
360,376,93567,1,0,0:0:0:0:
436,232,93734,1,2,0:0:0:0:
256,188,93901,6,0,P|224:184|188:188,1,67.5000025749208,4|0,0:0|0:0,0:0:0:0:
24,136,94234,2,0,P|56:140|92:136,1,67.5000025749208,2|0,0:0|0:0,0:0:0:0:
208,48,94567,1,8,0:0:0:0:
256,188,94734,1,0,0:0:0:0:
160,112,94901,1,2,0:0:0:0:
328,160,95067,6,0,P|380:168|428:160,1,101.250003862381,2|0,0:0|0:0,0:0:0:0:
452,152,95401,2,0,P|444:188|440:220,1,67.5000025749208,2|0,0:0|0:0,0:0:0:0:
452,340,95734,2,0,P|424:320|388:308,1,67.5000025749208,2|8,0:0|0:0,0:0:0:0:
184,300,96067,2,0,P|148:312|124:332,2,67.5000025749208,2|0|2,0:0|0:0|0:0,0:0:0:0:
320,356,96567,1,2,0:0:0:0:
204,208,96734,1,0,0:0:0:0:
392,188,96901,2,0,P|428:192|456:204,1,67.5000025749208,2|2,0:0|0:0,0:0:0:0:
324,260,97234,6,0,P|296:208|296:164,1,101.250003862381,8|0,0:0|0:0,0:0:0:0:
304,144,97567,1,2,0:0:0:0:
420,268,97734,2,0,P|412:304|392:332,1,67.5000025749208,2|2,0:0|0:2,0:0:0:0:
204,208,98067,2,0,P|212:172|232:144,2,67.5000025749208,2|0|2,0:2|0:0|0:2,0:0:0:0:
232,312,98567,1,0,0:0:0:0:
296,208,98734,1,2,0:2:0:0:
112,208,98901,1,0,0:0:0:0:
228,148,99067,1,2,0:2:0:0:
420,268,99234,5,4,0:0:0:0:
256,192,99317,12,0,102734,0:0:0:0:
