osu file format v14

[General]
AudioFilename: solfa feat. Chata - miracle infinity (Short Ver.).mp3
AudioLeadIn: 0
PreviewTime: 67076
Countdown: 0
SampleSet: Soft
StackLeniency: 0.7
Mode: 0
LetterboxInBreaks: 0
WidescreenStoryboard: 1

[Editor]
DistanceSpacing: 1.2
BeatDivisor: 4
GridSize: 4
TimelineZoom: 1

[Metadata]
Title:Miracle infinity
TitleUnicode:ミラクルinfinity
Artist:solfa feat. Chata
ArtistUnicode:solfa feat. 茶太
Creator:Nichiyouki
Version:Easy
Source:ゆめこい~夢見る魔法少女と恋の呪文~
Tags:Parasol opening Yumekoi ~Yume Miru Mahou Shoujo to Koi no Jumon~ nich95 Momochikun japanese pop eroge galgame visual novel video game vn op featured artist fa
BeatmapID:314140
BeatmapSetID:104315

[Difficulty]
HPDrainRate:2
CircleSize:3
OverallDifficulty:2
ApproachRate:3
SliderMultiplier:0.7
SliderTickRate:2

[Events]
//Background and Video events
0,0,"BG.jpg",0,0
Video,0,"Yumekoi ~Yume Miru Mahou Shoujo to Koi no Jumon~ OP.mp4"
//Break Periods
//Storyboard Layer 0 (Background)
//Storyboard Layer 1 (Fail)
//Storyboard Layer 2 (Pass)
//Storyboard Layer 3 (Foreground)
//Storyboard Layer 4 (Overlay)
//Storyboard Sound Samples

[TimingPoints]
568,333.333333333333,4,2,1,50,1,0
11234,-100,4,2,1,70,0,0
12151,-100,4,2,3,70,0,0
12317,-100,4,2,1,70,0,0
14817,-100,4,2,3,70,0,0
14984,-100,4,2,1,70,0,0
16817,-100,4,2,3,70,0,0
16984,-100,4,2,1,70,0,0
17484,-100,4,2,3,70,0,0
17651,-100,4,2,1,70,0,0
18151,-100,4,2,3,70,0,0
18317,-100,4,2,1,70,0,0
18817,-100,4,2,3,70,0,0
18984,-100,4,2,1,70,0,0
21901,-100,4,2,1,50,0,0
24401,-100,4,1,1,40,0,0
24651,-100,4,2,1,50,0,0
27067,-100,4,1,1,40,0,0
27317,-100,4,2,1,50,0,0
29734,-100,4,1,1,40,0,0
29984,-100,4,2,1,50,0,0
32567,-100,4,2,2,50,0,0
33734,-100,4,2,4,50,0,0
33817,-100,4,2,2,50,0,0
35067,-100,4,1,1,50,0,0
35317,-100,4,2,2,50,0,0
36401,-100,4,2,4,50,0,0
36484,-100,4,2,2,50,0,0
37734,-100,4,1,1,50,0,0
37984,-100,4,2,2,50,0,0
39067,-100,4,2,4,50,0,0
39151,-100,4,2,2,50,0,0
40484,-100,4,1,1,50,0,0
40651,-100,4,2,1,50,0,0
41734,-100,4,2,1,60,0,0
43234,-100,4,2,1,70,0,0
43484,-100,4,2,3,70,0,0
43651,-100,4,2,1,70,0,0
44151,-100,4,2,3,70,0,0
44317,-100,4,2,1,70,0,0
46151,-100,4,2,3,70,0,0
46317,-100,4,2,1,70,0,0
46817,-100,4,2,3,70,0,0
46984,-100,4,2,1,70,0,0
48817,-100,4,2,3,70,0,0
48984,-100,4,2,1,70,0,0
49484,-100,4,2,3,70,0,0
49651,-100,4,2,1,70,0,0
51484,-100,4,2,3,70,0,0
51651,-100,4,2,1,70,0,0
52151,-100,4,2,3,70,0,0
52317,-100,4,2,1,70,0,0
54151,-100,4,2,3,70,0,0
54317,-100,4,2,1,70,0,0
54817,-100,4,2,3,70,0,0
54984,-100,4,2,1,70,0,0
56817,-100,4,2,3,70,0,0
56984,-100,4,2,1,70,0,0
57484,-100,4,2,3,70,0,0
57651,-100,4,2,1,70,0,0
59484,-100,4,2,3,70,0,0
59651,-100,4,2,1,70,0,0
60151,-100,4,2,3,70,0,0
60317,-100,4,2,1,70,0,0
61901,-100,4,2,2,70,0,0
66901,-100,4,2,2,60,0,0
67234,-100,4,2,1,80,0,1
67484,-100,4,2,3,80,0,1
67651,-100,4,2,1,80,0,1
70151,-100,4,2,3,80,0,1
70317,-100,4,2,1,80,0,1
71484,-100,4,2,3,80,0,1
71651,-100,4,2,1,80,0,1
72817,-100,4,2,3,80,0,1
72984,-100,4,2,1,80,0,1
75484,-100,4,2,3,80,0,1
75651,-100,4,2,1,80,0,1
76817,-100,4,2,3,80,0,1
76984,-100,4,2,1,80,0,1
77817,-100,4,2,3,60,0,0
77901,-100,4,2,1,80,0,1
78151,-100,4,2,3,80,0,1
78317,-100,4,2,1,80,0,1
80817,-100,4,2,3,80,0,1
80984,-100,4,2,1,80,0,1
82151,-100,4,2,3,80,0,1
82317,-100,4,2,1,80,0,1
83484,-100,4,2,3,80,0,1
83651,-100,4,2,1,80,0,1
84817,-100,4,2,3,80,0,1
84984,-100,4,2,1,80,0,1
86151,-100,4,2,3,80,0,1
86317,-100,4,2,1,80,0,1
87484,-100,4,2,3,80,0,1
87651,-100,4,2,1,80,0,1
88567,-100,4,2,2,70,0,0
97901,-100,4,1,1,30,0,0
98234,-100,4,1,1,40,0,0
98567,-100,4,1,1,50,0,0
98901,-100,4,1,1,60,0,0
99234,-100,4,2,1,70,0,0
99901,-100,4,2,1,65,0,0
100567,-100,4,2,1,60,0,0
100901,-100,4,2,1,55,0,0
101234,-100,4,2,1,50,0,0
101567,-100,4,2,1,45,0,0
101901,-100,4,2,1,40,0,0
102067,-100,4,2,1,35,0,0
102234,-100,4,2,1,30,0,0
102401,-100,4,2,1,20,0,0
102567,-100,4,2,1,10,0,0
102734,-100,4,2,1,5,0,0

[Colours]
Combo1 : 128,128,255
Combo2 : 255,128,192
Combo3 : 0,128,255
Combo4 : 255,128,64

[HitObjects]
152,172,10901,6,0,P|164:136|184:108,1,70,2|4,0:0|0:0,0:0:0:0:
256,68,11567,1,8,0:0:0:0:
332,108,11901,2,0,L|440:108,2,105,2|4|8,0:0|0:0|0:0,0:0:0:0:
264,156,13234,2,0,P|260:192|264:228,1,70,2|8,0:0|0:0,0:0:0:0:
328,280,13901,5,4,0:0:0:0:
256,324,14234,1,8,0:0:0:0:
184,280,14567,2,0,P|132:280|80:272,1,105,2|4,0:0|0:0,0:0:0:0:
19,128,15734,1,2,0:0:0:0:
101,150,16067,1,2,0:0:0:0:
172,104,16401,1,4,0:0:0:0:
244,152,16734,6,0,P|276:152|312:144,1,70,0|2,0:0|0:0,0:0:0:0:
316,60,17401,2,0,P|284:60|248:68,1,70,0|2,0:0|0:0,0:0:0:0:
172,104,18067,2,0,P|168:140|160:172,1,70,0|2,0:0|0:0,0:0:0:0:
87,129,18734,2,0,P|91:93|99:61,1,70,0|2,0:0|0:0,0:0:0:0:
129,31,19234,6,0,L|201:23,1,70,4|8,0:0|0:0,0:0:0:0:
256,84,19901,1,0,0:0:0:0:
336,107,20234,1,8,0:0:0:0:
290,177,20567,2,0,P|272:191|252:199,2,35,2|0|8,0:0|0:0|0:0,0:0:0:0:
373,186,21234,2,0,P|368:263|313:292,1,140,0|4,0:0|0:0,0:0:0:0:
240,260,22234,5,2,0:0:0:0:
192,190,22567,2,0,P|232:178|264:174,1,70,2|0,0:0|0:0,0:0:0:0:
325,121,23234,2,0,P|381:113|417:81,2,105,2|2|0,0:0|0:0|0:0,0:0:0:0:
253,76,24567,1,0,0:0:0:0:
181,121,24901,6,0,P|174:154|182:190,1,70,2|0,0:0|0:0,0:0:0:0:
244,244,25567,1,0,0:0:0:0:
322,213,25901,2,0,P|334:164|328:104,2,105,0|0|2,0:0|0:0|0:0,0:0:0:0:
311,296,27234,2,0,P|384:297|446:264,2,140,0|2|0,0:0|0:0|0:0,0:0:0:0:
268,133,29234,2,0,P|304:133|336:145,1,70,2|0,0:0|0:0,0:0:0:0:
415,170,29901,6,0,L|435:310,1,140,0|2,0:0|0:0,0:0:0:0:
283,235,31234,2,0,L|267:131,2,105,0|2|0,0:0|0:0|0:0,0:0:0:0:
228,300,32567,6,0,P|180:324|96:324,2,140,4|8|0,0:0|0:0|0:0,0:0:0:0:
312,152,34567,2,0,P|360:128|444:128,1,140,8|0,0:0|0:0,0:0:0:0:
500,192,35567,5,0,0:0:0:0:
472,272,35901,2,0,P|424:296|340:296,1,140,8|0,0:0|0:0,0:0:0:0:
352,128,37234,2,0,P|313:124|275:127,1,70,8|2,0:0|0:0,0:0:0:0:
209,167,37901,1,0,0:0:0:0:
96,292,38567,2,0,P|60:244|56:164,2,140,8|0|8,0:0|0:0|0:0,0:0:0:0:
172,328,40234,1,0,0:0:0:0:
256,304,40567,6,0,L|396:304,1,140,0|2,0:0|0:0,0:0:0:0:
404,176,41734,2,0,L|476:176,2,70,4|2|4,0:0|0:0|0:0,0:0:0:0:
288,116,42901,1,8,0:0:0:0:
236,180,43234,6,0,P|216:232|240:312,2,140,4|2|2,0:0|0:0|0:0,0:0:0:0:
288,116,44901,1,8,0:0:0:0:
220,68,45234,2,0,P|184:64|148:68,1,70,2|8,0:0|0:0,0:0:0:0:
100,136,45901,6,0,P|92:192|36:252,2,140,2|2|2,0:0|0:0|0:0,0:0:0:0:
68,56,47567,1,8,0:0:0:0:
150,67,47901,2,0,P|184:72|220:68,1,70,2|8,0:0|0:0,0:0:0:0:
296,36,48567,6,0,P|364:32|424:68,2,140,4|2|2,0:0|0:0|0:0,0:0:0:0:
220,68,50234,1,8,0:0:0:0:
240,148,50567,2,0,L|240:220,1,70,2|8,0:0|0:0,0:0:0:0:
192,288,51234,6,0,B|156:300|92:276|52:288,2,140,2|2|0,0:0|0:0|0:0,0:0:0:0:
276,288,52901,2,0,P|316:296|344:308,1,70,8|2,0:0|0:0,0:0:0:0:
420,344,53567,1,8,0:0:0:0:
416,260,53901,6,0,P|428:196|488:156,2,140,4|2|2,0:0|0:0|0:0,0:0:0:0:
420,344,55567,2,0,L|352:360,1,70,8|2,0:0|0:0,0:0:0:0:
268,360,56234,1,8,0:0:0:0:
188,332,56567,6,0,P|116:320|52:340,2,140,2|2|2,0:0|0:0|0:0,0:0:0:0:
252,276,58234,2,0,P|268:252|276:212,1,70,8|2,0:0|0:0,0:0:0:0:
256,132,58901,1,8,0:0:0:0:
184,92,59234,6,0,L|44:92,2,140,4|2|2,0:0|0:0|0:0,0:0:0:0:
256,48,60901,1,8,0:0:0:0:
328,88,61234,2,0,L|400:88,2,70,2|8|4,0:0|0:0|0:0,0:0:0:0:
256,136,62234,6,0,L|200:180,1,70,8|8,0:0|0:0,0:0:0:0:
172,256,62901,2,0,L|116:300,1,70,8|8,0:0|0:0,0:0:0:0:
32,292,63567,2,0,P|12:256|4:228,2,70,8|8|8,0:0|0:0|0:0,0:0:0:0:
72,368,64567,6,0,L|183:367,2,105,4|4|4,0:0|0:0|0:0,0:0:0:0:
28,205,66234,2,0,L|45:131,1,70,2|0,0:0|0:0,0:0:0:0:
195,64,67234,6,0,P|127:44|55:56,1,140,4|2,0:0|0:0,0:0:0:0:
87,133,68234,1,8,0:0:0:0:
105,214,68567,2,0,L|165:250,1,70,2|8,0:0|0:0,0:0:0:0:
214,318,69234,1,2,0:0:0:0:
296,301,69567,1,8,0:0:0:0:
360,356,69901,6,0,P|416:332|452:264,1,140,2|2,0:0|0:0,0:0:0:0:
408,192,70901,1,8,0:0:0:0:
451,119,71234,2,0,P|432:68|392:36,2,105,2|2|8,0:0|0:0|0:0,0:0:0:0:
408,192,72567,6,0,B|368:200|304:180|268:192,1,140,4|2,0:0|0:0,0:0:0:0:
196,236,73567,1,8,0:0:0:0:
114,258,73901,2,0,L|58:214,1,70,2|8,0:0|0:0,0:0:0:0:
72,132,74567,1,2,0:0:0:0:
153,154,74901,1,8,0:0:0:0:
184,76,75234,6,0,P|220:40|272:24,2,105,2|2|8,0:0|0:0|0:0,0:0:0:0:
128,140,76567,2,0,L|128:244,1,105,2|2,0:0|0:0,0:0:0:0:
180,312,77401,1,4,0:0:0:0:
292,260,77901,6,0,P|360:260|416:300,1,140,4|2,0:0|0:0,0:0:0:0:
460,372,78901,1,8,0:0:0:0:
499,298,79234,2,0,L|503:222,1,70,2|8,0:0|0:0,0:0:0:0:
431,183,79901,1,2,0:0:0:0:
447,100,80234,1,8,0:0:0:0:
365,81,80567,6,0,P|297:69|229:85,1,140,2|2,0:0|0:0,0:0:0:0:
157,129,81567,1,8,0:0:0:0:
176,212,81901,2,0,P|176:264|156:312,2,105,2|2|8,0:0|0:0|0:0,0:0:0:0:
157,129,83234,6,0,P|225:113|293:125,1,140,4|2,0:0|0:0,0:0:0:0:
350,186,84234,1,8,0:0:0:0:
296,249,84567,2,0,P|228:265|160:253,1,140,2|2,0:0|0:0,0:0:0:0:
97,196,85567,1,8,0:0:0:0:
68,116,85901,6,0,P|108:64|176:36,1,140,2|2,0:0|0:0,0:0:0:0:
256,56,86901,1,8,0:0:0:0:
336,36,87234,2,0,P|392:56|428:88,1,105,2|4,0:0|0:0,0:0:0:0:
440,168,88067,1,4,0:0:0:0:
308,212,88567,6,0,P|288:276|296:348,1,140,4|8,0:0|0:0,0:0:0:0:
452,280,89901,2,0,L|440:212,1,70,2|0,0:0|0:0,0:0:0:0:
376,156,90567,2,0,L|364:88,1,70,8|0,0:0|0:0,0:0:0:0:
288,40,91234,6,0,P|232:52|148:48,1,140,2|8,0:0|0:0,0:0:0:0:
52,184,92567,2,0,P|108:172|192:176,1,140,2|8,0:0|0:0,0:0:0:0:
252,232,93567,1,0,0:0:0:0:
332,256,93901,6,0,P|384:216|396:144,2,140,4|8|2,0:0|0:0|0:0,0:0:0:0:
252,232,95567,1,0,0:0:0:0:
172,264,95901,2,0,L|100:264,1,70,8|0,0:0|0:0,0:0:0:0:
28,224,96567,2,0,P|16:160|44:92,1,140,2|8,0:0|0:0,0:0:0:0:
212,60,97901,6,0,L|256:116,1,70,2|0,0:2|0:0,0:0:0:0:
268,196,98567,2,0,L|312:252,1,70
256,192,99234,12,0,102734,0:0:0:0:
